osu file format v14

[General]
AudioFilename: audio.mp3
AudioLeadIn: 0
PreviewTime: 43285
Countdown: 0
SampleSet: Soft
StackLeniency: 0.3
Mode: 0
LetterboxInBreaks: 0
WidescreenStoryboard: 1

[Editor]
DistanceSpacing: 0.7
BeatDivisor: 8
GridSize: 32
TimelineZoom: 2.7

[Metadata]
Title:Spatto! Spy & Spyce (TV Size)
TitleUnicode:スパッと!スパイ&スパイス (TV Size)
Artist:Tsukikage
ArtistUnicode:ツキカゲ
Creator:Petal
Version:Spice
Source:RELEASE THE SPYCE
Tags:anime japanese op opening short spice SUPAPPAPPARAPPA Namki AF DeRandom Otaku Ren Affirmation Neoskylove nsl Sparxo Naotoshi Nao Tomori Matha
BeatmapID:2026680
BeatmapSetID:968574

[Difficulty]
HPDrainRate:6.3
CircleSize:4
OverallDifficulty:9
ApproachRate:9.5
SliderMultiplier:2.7
SliderTickRate:1

[Events]
//Background and Video events
0,0,"BG.jpg",0,0
//Break Periods
//Storyboard Layer 0 (Background)
//Storyboard Layer 1 (Fail)
//Storyboard Layer 2 (Pass)
//Storyboard Layer 3 (Foreground)
//Storyboard Layer 4 (Overlay)
//Storyboard Sound Samples

[TimingPoints]
629,375,4,2,1,70,1,0
629,-125,4,2,1,70,0,0
2879,-166.666666666667,4,2,1,70,0,0
2925,-166.666666666667,4,2,1,40,0,0
4566,-166.666666666667,4,2,1,60,0,0
4754,-166.666666666667,4,2,1,60,0,0
5129,-100,4,2,1,80,0,0
9629,-66.6666666666667,4,2,1,80,0,0
9910,-58.8235294117647,4,2,1,80,0,0
10379,-50,4,2,1,80,0,0
10754,-40,4,2,1,80,0,1
11035,-40,4,2,1,80,0,0
11129,-100,4,2,1,80,0,0
15629,-66.6666666666667,4,2,1,80,0,0
15910,-58.8235294117647,4,2,1,80,0,0
16191,-50,4,2,1,80,0,0
16379,-66.6666666666667,4,2,1,80,0,0
17410,-166.666666666667,4,2,1,40,0,0
18629,-166.666666666667,4,2,1,80,0,0
21629,-100,4,2,1,80,0,0
24629,-125,4,2,1,70,0,0
27629,-100,4,2,1,80,0,0
30066,-100,4,2,1,75,0,0
30254,-100,4,2,1,70,0,0
30441,-100,4,2,1,60,0,0
30629,-166.666666666667,4,2,1,70,0,0
31191,-100,4,2,1,70,0,0
32222,-166.666666666667,4,2,1,70,0,0
32691,-100,4,2,1,70,0,0
33629,-166.666666666667,4,2,1,70,0,0
34191,-100,4,2,1,70,0,0
35222,-166.666666666667,4,2,1,70,0,0
35691,-100,4,2,1,70,0,0
37004,-83.3333333333333,4,2,1,70,0,0
39629,-100,4,2,1,80,0,0
42254,-100,4,2,1,85,0,0
43566,-142.857142857143,4,2,1,80,0,0
44129,-71.4285714285714,4,2,1,90,0,1
54629,-71.4285714285714,4,2,1,90,0,0
56129,-71.4285714285714,4,2,1,90,0,1
62129,-55.5555555555556,4,2,1,90,0,1
62504,-55.5555555555556,4,2,1,90,0,0
62879,-55.5555555555556,4,2,1,90,0,1
63254,-55.5555555555556,4,2,1,90,0,0
63629,-55.5555555555556,4,2,1,90,0,1
64754,-166.666666666667,4,2,1,90,0,1
65504,-71.4285714285714,4,2,1,90,0,1
68129,-71.4285714285714,4,2,1,80,0,0
72629,-71.4285714285714,4,2,1,90,0,0
73754,-40,4,2,1,90,0,1
74035,-40,4,2,1,90,0,0
74129,-100,4,2,1,80,0,0
78629,-66.6666666666667,4,2,1,80,0,0
78910,-58.8235294117647,4,2,1,80,0,0
79379,-50,4,2,1,80,0,0
79754,-40,4,2,1,80,0,1
80035,-40,4,2,1,80,0,0
80129,-40,4,2,1,80,0,1
83129,-40,4,2,1,90,0,1
84629,-40,4,2,1,80,0,0
86129,-142.857142857143,4,2,1,70,0,0
87535,-142.857142857143,4,2,1,5,0,0
87629,-50,4,2,1,70,0,0
87675,-50,4,2,1,5,0,0

[Colours]
Combo1 : 187,238,205
Combo2 : 252,173,175
Combo3 : 253,241,172
Combo4 : 255,170,213
Combo5 : 255,202,43
Combo6 : 47,164,251

[HitObjects]
28,298,629,6,0,L|107:284,1,54,12|0,0:0|0:0,0:0:0:0:
5,324,816,5,4,3:0:0:0:
58,314,909,1,4,3:0:0:0:
110,308,1003,1,8,0:0:0:0:
8,162,1191,1,8,3:0:0:0:
283,342,1379,5,8,0:0:0:0:
187,364,1503,1,4,3:0:0:0:
214,270,1629,5,8,0:0:0:0:
236,353,1754,1,4,3:0:0:0:
203,317,1878,5,8,0:0:0:0:
249,306,2004,1,4,3:0:0:0:
111,366,2129,6,0,L|69:356,1,36,8|8,0:0|0:0,0:0:0:0:
75,360,2254,2,0,L|39:354,1,36,4|4,3:0|3:0,0:0:0:0:
0,257,2379,2,0,P|23:268|42:267,1,36,8|8,3:0|3:0,0:0:0:0:
31,272,2504,2,0,P|61:266|75:253,1,36,8|4,0:0|3:0,0:0:0:0:
92,265,2629,2,0,P|111:241|113:222,1,36,8|0,3:0|0:0,0:0:0:0:
155,171,2754,2,0,P|154:140|144:124,1,36,4|4,3:0|3:0,0:0:0:0:
94,42,2879,6,2,L|73:27,32,20.2499993820191,6|2|2|2|2|2|2|2|2|2|2|2|2|2|2|2|2|2|2|2|2|2|2|2|2|2|2|2|2|2|2|2|2,0:0|0:0|0:0|0:0|0:0|0:0|0:0|0:0|0:0|0:0|0:0|0:0|0:0|0:0|0:0|0:0|0:0|0:0|0:0|0:0|0:0|0:0|0:0|0:0|0:0|0:0|0:0|0:0|0:0|0:0|0:0|0:0|0:0,0:0:0:0:
38,101,4566,6,0,L|-6:108,2,26.9999991760254,4|4|4,3:0|3:0|3:0,0:0:0:0:
99,162,4754,2,0,B|173:149|141:188|225:166,1,121.499996292114,8|0,0:0|0:0,0:0:0:0:
272,104,5129,6,0,P|305:167|249:245,1,135,6|0,0:0|0:0,0:0:0:0:
215,285,5410,1,0,0:0:0:0:
272,342,5504,2,0,P|251:279|283:223,1,135,8|0,0:0|0:0,0:0:0:0:
333,288,5785,1,0,0:0:0:0:
194,382,5879,6,0,L|127:372,1,67.5,4|0,3:0|0:0,0:0:0:0:
35,342,6066,1,2,0:0:0:0:
54,337,6160,1,2,0:0:0:0:
114,279,6254,2,0,P|121:203|116:160,1,67.5,8|0,0:0|0:0,0:0:0:0:
0,142,6441,2,0,P|1:175|7:208,1,67.5,2|0,0:0|0:0,0:0:0:0:
270,140,6629,6,0,P|232:133|196:134,1,67.5,4|0,3:0|0:0,0:0:0:0:
332,222,6816,2,0,P|357:192|374:160,1,67.5,2|0,0:0|0:0,0:0:0:0:
232,237,7004,2,0,P|244:273|263:304,1,67.5,8|0,0:0|0:0,0:0:0:0:
279,129,7191,2,0,P|241:122|205:123,1,67.5,2|0,0:0|0:0,0:0:0:0:
361,320,7379,5,4,3:0:0:0:
434,284,7472,2,0,B|446:317|446:317|437:351,2,67.5,2|2|0,0:0|0:0|0:0,0:0:0:0:
364,234,7754,2,0,L|374:131,1,67.5,8|0,0:0|0:0,0:0:0:0:
214,36,7941,1,2,0:0:0:0:
223,113,8035,1,2,0:0:0:0:
235,195,8129,6,0,B|149:175|191:235|72:193,1,135,4|0,3:0|0:0,0:0:0:0:
132,126,8410,1,2,0:0:0:0:
222,278,8504,2,0,B|207:374|207:374|202:336|171:309,1,135,8|0,0:0|0:0,0:0:0:0:
122,375,8785,1,0,0:0:0:0:
313,263,8879,6,0,P|322:270|335:295,1,33.75,4|0,3:0|0:0,0:0:0:0:
336,287,8972,2,0,P|334:306|329:333,1,33.75,2|0,0:0|0:0,0:0:0:0:
338,320,9066,2,0,P|329:343|320:363,3,33.75,2|0|2|0,0:0|0:0|0:0|0:0,0:0:0:0:
452,337,9254,5,10,0:0:0:0:
439,305,9347,1,2,0:0:0:0:
435,272,9441,1,2,0:0:0:0:
439,239,9535,1,2,0:0:0:0:
485,159,9629,6,0,B|353:125|418:218|246:166,1,202.500007724762,12|0,0:0|0:0,0:0:0:0:
221,118,9910,6,0,P|249:78|272:179,1,229.500004377365,12|0,0:0|0:0,0:0:0:0:
181,214,10191,6,0,L|56:190,1,114.750002188683,12|0,0:0|0:0,0:0:0:0:
325,351,10379,6,0,B|364:387|439:379|492:313|492:313|455:347|384:321,1,270,14|4,0:0|3:0,0:0:0:0:
266,278,10660,1,4,3:0:0:0:
112,353,10754,6,2,B|19:322|-34:194|24:50|24:50|2:140|107:231,1,506.25,14|0,0:0|0:0,1:0:0:0:
149,128,11129,6,0,B|231:110|201:162|304:130,1,135,4|0,3:0|0:0,0:0:0:0:
249,56,11410,1,0,0:0:0:0:
382,80,11504,2,0,P|376:124|374:222,1,135,8|0,0:0|0:0,0:0:0:0:
269,284,11785,1,0,0:0:0:0:
365,303,11879,6,0,P|360:251|362:212,1,67.5,4|0,3:0|0:0,0:0:0:0:
496,196,12066,1,2,0:0:0:0:
482,204,12160,1,2,0:0:0:0:
455,280,12254,2,0,P|454:313|450:347,1,67.5,8|0,0:0|0:0,0:0:0:0:
273,351,12441,2,0,P|268:317|268:283,1,67.5,2|0,0:0|0:0,0:0:0:0:
104,156,12629,6,0,P|67:177|1:180,1,67.5,4|0,3:0|0:0,0:0:0:0:
148,72,12816,2,0,P|148:29|178:-29,1,67.5,2|0,0:0|0:0,0:0:0:0:
201,152,13004,2,0,P|237:173|273:229,1,67.5,8|0,0:0|0:0,0:0:0:0:
93,143,13191,2,0,P|56:164|-10:167,1,67.5,2|0,0:0|0:0,0:0:0:0:
252,71,13379,5,4,3:0:0:0:
328,109,13472,2,0,B|340:75|340:75|327:22,2,67.5,2|2|0,0:0|0:0|0:0,0:0:0:0:
274,194,13754,2,0,P|279:227|279:287,1,67.5,8|0,0:0|0:0,0:0:0:0:
32,312,13941,1,2,0:0:0:0:
109,294,14035,1,2,0:0:0:0:
182,330,14129,6,0,B|266:313|223:367|346:336,1,135,4|0,3:0|0:0,0:0:0:0:
280,261,14410,1,0,0:0:0:0:
406,368,14504,2,0,P|402:296|407:217,1,135,8|0,0:0|0:0,0:0:0:0:
474,174,14785,1,0,0:0:0:0:
338,170,14879,6,0,P|322:140|323:112,1,33.75,4|0,3:0|0:0,0:0:0:0:
329,137,14972,2,0,P|334:111|351:90,1,33.75,2|0,0:0|0:0,0:0:0:0:
343,108,15066,2,0,P|362:92|379:79,3,33.75,2|0|2|0,0:0|0:0|0:0|0:0,0:0:0:0:
302,37,15254,5,10,0:0:0:0:
269,44,15348,1,2,0:0:0:0:
236,43,15442,1,2,0:0:0:0:
203,34,15535,1,2,0:0:0:0:
146,101,15629,6,0,B|106:77|60:101|60:101|11:150|55:232,1,202.500007724762,12|0,0:0|0:0,0:0:0:0:
33,295,15910,6,0,B|86:304|125:245|125:245|163:180|245:192,1,229.500004377365,12|0,0:0|0:0,0:0:0:0:
288,259,16191,6,0,P|314:188|263:102,1,135,12|0,0:0|0:0,0:0:0:0:
203,34,16379,6,0,L|181:382,2,303.750011587143,14|8|8,0:0|0:0|0:0,0:0:0:0:
487,121,17129,5,0,3:0:0:0:
489,223,17410,5,2,0:3:0:0:
487,332,17597,5,2,0:3:0:0:
466,317,17691,1,4,0:3:0:0:
428,310,17785,1,2,0:3:0:0:
383,331,17879,2,0,L|353:322,1,20.2499993820191,4|0,0:3|0:0,0:0:0:0:
289,335,17972,1,2,0:3:0:0:
312,312,18066,2,0,L|314:283,1,20.2499993820191,4|0,0:3|0:0,0:0:0:0:
291,217,18160,1,2,0:3:0:0:
367,190,18254,6,0,L|392:193,6,20.2499993820191,2|2|2|2|2|2|2,0:3|0:3|0:3|0:3|0:3|0:3|0:3,0:3:0:0:
504,239,18629,5,8,0:0:0:0:
501,214,19004,1,0,3:0:0:0:
492,121,19191,1,2,0:0:0:0:
481,25,19379,2,0,L|480:118,1,80.9999975280763,8|0,0:0|0:0,0:0:0:0:
469,11,19754,1,0,3:0:0:0:
268,363,20129,5,8,0:0:0:0:
364,181,20316,1,4,0:3:0:0:
479,363,20504,1,8,0:0:0:0:
364,181,20691,1,4,0:3:0:0:
327,190,20785,1,4,0:3:0:0:
288,201,20879,5,4,0:0:0:0:
496,256,21066,1,8,0:3:0:0:
213,118,21254,1,8,0:0:0:0:
196,154,21347,1,8,0:0:0:0:
189,194,21441,1,8,0:0:0:0:
192,234,21535,1,8,0:0:0:0:
206,272,21629,6,0,B|118:254|160:308|56:283,1,135,6|0,0:0|0:0,0:0:0:0:
95,207,21910,1,0,0:0:0:0:
198,362,22004,2,0,P|242:360|292:267,1,135,8|0,0:0|0:0,0:0:0:0:
288,201,22285,1,0,0:0:0:0:
435,250,22379,6,0,P|403:254|349:235,1,67.5,4|0,3:0|0:0,0:0:0:0:
356,149,22566,1,2,0:0:0:0:
373,154,22660,1,2,0:0:0:0:
448,109,22754,2,0,P|456:66|451:17,1,67.5,8|0,0:0|0:0,0:0:0:0:
271,41,22941,2,0,P|271:74|278:107,1,67.5,2|0,0:0|0:0,0:0:0:0:
206,272,23129,6,0,P|170:264|112:255,1,67.5,4|0,3:0|0:0,0:0:0:0:
7,277,23316,2,0,P|31:249|68:204,1,67.5,2|0,0:0|0:0,0:0:0:0:
98,104,23504,2,0,P|109:139|130:193,1,67.5,8|0,0:0|0:0,0:0:0:0:
212,284,23691,2,0,P|176:276|118:267,1,67.5,2|0,0:0|0:0,0:0:0:0:
18,67,23879,5,4,3:0:0:0:
88,17,23972,2,0,B|124:17|124:17|150:33,2,67.5,2|2|0,0:0|0:0|0:0,0:0:0:0:
18,67,24254,2,0,L|8:154,1,67.5,8|0,0:0|0:0,0:0:0:0:
212,284,24441,1,2,0:0:0:0:
222,204,24535,1,2,0:0:0:0:
234,122,24629,6,0,B|273:131|273:131|297:127|297:127|356:139,1,108,4|0,3:0|0:0,0:0:0:0:
467,161,25004,1,0,3:0:0:0:
363,365,25379,1,0,3:0:0:0:
329,28,25754,2,0,L|341:151,1,108,4|0,0:3|0:0,0:0:0:0:
363,365,26129,5,4,0:3:0:0:
290,331,26316,1,2,0:0:0:0:
281,356,26410,1,2,0:0:0:0:
281,383,26504,1,4,0:3:0:0:
437,324,26691,1,8,0:0:0:0:
230,271,26879,5,4,0:3:0:0:
512,252,27066,1,8,0:0:0:0:
266,80,27254,1,8,0:0:0:0:
261,133,27347,1,8,0:0:0:0:
256,186,27441,1,8,0:3:0:0:
256,186,27629,6,0,B|173:162|205:230|89:188,1,135,6|0,0:0|0:0,0:0:0:0:
146,115,27910,1,0,0:0:0:0:
36,233,28004,2,0,P|44:158|49:70,1,135,8|0,0:0|0:0,0:0:0:0:
166,30,28285,1,0,0:0:0:0:
64,16,28379,6,0,P|65:49|66:109,1,67.5,4|0,3:0|0:0,0:0:0:0:
125,198,28566,1,2,0:0:0:0:
122,220,28660,1,2,0:0:0:0:
160,289,28754,2,0,P|191:276|240:267,1,67.5,8|0,0:0|0:0,0:0:0:0:
80,370,28941,2,0,P|47:362|16:349,1,67.5,2|0,0:0|0:0,0:0:0:0:
290,208,29129,6,0,P|308:244|310:304,1,67.5,4|0,3:0|0:0,0:0:0:0:
207,187,29316,2,0,P|213:154|229:124,1,67.5,2|0,0:0|0:0,0:0:0:0:
419,179,29504,2,0,P|412:211|396:241,1,67.5,8|0,0:0|0:0,0:0:0:0:
45,162,29691,5,8,0:0:0:0:
130,146,29784,1,8,0:0:0:0:
207,187,29878,1,8,0:0:0:0:
237,270,29972,1,8,0:0:0:0:
208,352,30066,5,8,3:0:0:0:
241,347,30160,1,8,3:0:0:0:
274,342,30254,1,4,3:0:0:0:
307,337,30347,1,4,3:0:0:0:
340,332,30441,1,4,3:0:0:0:
373,327,30535,1,4,3:0:0:0:
406,321,30629,6,0,B|389:269|415:220|415:220|392:257|346:247,1,161.999995056153,6|0,0:0|0:0,0:0:0:0:
371,150,31191,6,0,P|421:137|494:215,1,135,8|0,0:0|0:0,0:0:0:0:
488,283,31566,1,4,3:0:0:0:
293,194,31754,2,0,B|204:167|241:232|132:187,1,135,8|2,0:0|0:0,0:0:0:0:
492,28,32129,5,4,0:3:0:0:
497,60,32222,2,0,L|483:211,1,121.499996292114,4|0,0:3|0:0,0:0:0:0:
280,59,32691,6,0,L|297:246,1,135,8|0,0:0|0:0,0:0:0:0:
302,295,33066,1,4,0:3:0:0:
170,173,33254,2,0,B|198:149|198:149|186:256,1,135,8|0,0:0|0:0,0:0:0:0:
38,20,33629,6,0,B|141:16|85:66|202:54,1,161.999995056153,4|0,0:3|0:0,0:0:0:0:
54,107,34191,6,0,P|50:191|46:288,1,135,8|0,0:0|0:0,0:0:0:0:
170,173,34566,1,4,0:3:0:0:
290,103,34754,2,0,P|294:187|298:284,1,135,8|0,0:0|0:0,0:0:0:0:
171,362,35129,5,4,0:3:0:0:
206,351,35222,2,0,B|251:359|251:359|282:349|282:349|341:358,1,121.499996292114,4|0,0:3|0:0,0:0:0:0:
458,374,35691,6,0,L|279:348,1,135,8|0,0:0|0:0,0:0:0:0:
402,283,36066,1,4,0:3:0:0:
139,264,36254,2,0,L|243:248,1,67.5,8|0,0:0|0:0,0:0:0:0:
477,229,36441,1,8,0:0:0:0:
478,241,36535,1,8,0:0:0:0:
479,254,36629,5,4,0:3:0:0:
470,144,36816,1,4,0:3:0:0:
461,44,37004,2,0,B|354:40|421:108|259:89,1,161.999995056153,12|0,0:0|0:0,0:0:0:0:
21,326,37379,5,4,0:3:0:0:
35,183,37566,1,4,0:3:0:0:
51,44,37754,2,0,B|158:40|91:108|253:89,1,161.999995056153,12|0,0:0|0:0,0:0:0:0:
311,92,38129,5,4,0:3:0:0:
200,92,38316,1,4,0:3:0:0:
254,341,38504,1,8,0:0:0:0:
255,353,38785,1,8,0:0:0:0:
381,294,38879,6,0,P|300:273|251:352,1,161.999995056153,4|2,0:0|0:0,0:0:0:0:
70,229,39254,1,8,0:0:0:0:
117,237,39347,1,8,0:0:0:0:
163,223,39441,1,8,0:3:0:0:
260,0,39629,6,0,L|252:95,1,67.5,6|0,0:0|0:0,0:0:0:0:
294,150,39816,1,4,3:0:0:0:
247,158,39909,1,8,3:0:0:0:
201,144,40003,1,8,0:0:0:0:
356,84,40191,1,4,3:0:0:0:
366,307,40379,5,4,3:0:0:0:
325,235,40472,1,8,0:0:0:0:
379,175,40566,1,4,3:0:0:0:
454,208,40660,1,4,3:0:0:0:
445,289,40754,1,8,0:0:0:0:
424,19,40941,1,8,3:0:0:0:
103,276,41129,5,4,3:0:0:0:
186,266,41222,1,8,0:0:0:0:
402,384,41410,5,4,3:0:0:0:
319,374,41503,1,8,0:0:0:0:
252,3,41691,5,8,0:0:0:0:
224,56,41784,1,8,0:0:0:0:
224,116,41878,1,8,0:0:0:0:
246,173,41972,2,0,L|282:163,1,33.75,8|8,0:0|0:0,0:0:0:0:
267,230,42066,1,8,0:0:0:0:
267,290,42159,1,8,0:0:0:0:
244,346,42254,5,8,0:0:0:0:
254,263,42347,1,8,0:0:0:0:
331,232,42441,1,8,0:0:0:0:
396,285,42535,1,8,0:0:0:0:
36,132,43566,5,12,3:0:0:0:
51,211,43660,1,4,3:0:0:0:
68,289,43754,2,0,B|155:303|112:252|213:267,1,141.749995674133,4|0,0:0|0:0,0:0:0:0:
284,287,44129,6,0,P|283:333|259:373,1,94.4999971160889,6|0,0:0|0:0,0:0:0:0:
179,352,44316,2,0,P|179:305|203:265,1,94.4999971160889,2|0,0:0|0:0,0:0:0:0:
372,265,44504,2,0,P|331:287|284:287,1,94.4999971160889,8|0,0:0|0:0,0:0:0:0:
197,134,44691,2,0,P|237:157|259:198,1,94.4999971160889,2|0,0:0|0:0,0:0:0:0:
51,211,44879,5,4,3:0:0:0:
110,149,44972,2,0,P|110:97|114:38,1,94.4999971160889,2|0,0:0|0:0,0:0:0:0:
36,230,45160,5,2,0:0:0:0:
96,126,45254,2,0,P|96:78|93:31,1,94.4999971160889,8|0,0:0|0:0,0:0:0:0:
202,265,45441,2,0,P|199:312|199:359,1,94.4999971160889,2|0,0:0|0:0,0:0:0:0:
357,120,45629,6,0,P|400:135|482:123,1,94.4999971160889,8|0,3:0|0:0,0:0:0:0:
462,44,45816,2,0,P|419:29|337:41,1,94.4999971160889,2|0,0:0|0:0,0:0:0:0:
298,192,46004,2,0,P|332:162|363:85,1,94.4999971160889,8|0,0:0|0:0,0:0:0:0:
174,86,46191,2,0,P|182:130|233:195,1,94.4999971160889,2|0,0:0|0:0,0:0:0:0:
348,283,46379,5,4,3:0:0:0:
401,222,46472,2,0,P|365:203|283:231,1,94.4999971160889,2|0,0:0|0:0,0:0:0:0:
322,297,46660,5,2,0:0:0:0:
386,178,46754,2,0,P|339:171|297:191,1,94.4999971160889,8|0,0:0|0:0,0:0:0:0:
179,329,46941,2,0,P|217:302|235:259,1,94.4999971160889,2|0,0:0|0:0,0:0:0:0:
88,11,47129,6,0,P|78:61|71:131,1,94.4999971160889,8|0,3:0|0:0,0:0:0:0:
264,100,47316,2,0,P|258:53|248:6,1,94.4999971160889,2|0,0:0|0:0,0:0:0:0:
88,99,47504,2,0,P|78:145|72:192,1,94.4999971160889,8|0,0:0|0:0,0:0:0:0:
179,329,47691,1,2,0:0:0:0:
258,346,47785,1,2,0:0:0:0:
358,237,47879,5,4,3:0:0:0:
331,222,47972,2,0,P|336:260|348:342,1,94.4999971160889,2|0,0:0|0:0,0:0:0:0:
174,208,48160,5,2,0:0:0:0:
251,193,48254,2,0,P|257:146|263:99,1,94.4999971160889,8|0,0:0|0:0,0:0:0:0:
54,214,48441,2,0,P|60:260|66:307,1,94.4999971160889,2|0,0:0|0:0,0:0:0:0:
295,18,48629,6,0,B|169:-1|229:83|91:61,1,188.999994232178,8|0,3:0|0:0,0:0:0:0:
353,88,48910,1,2,0:0:0:0:
432,55,49004,2,0,P|435:114|389:161,1,94.4999971160889,8|0,0:0|0:0,0:0:0:0:
251,193,49191,1,8,0:0:0:0:
172,183,49285,1,8,0:0:0:0:
269,175,49379,6,0,P|265:222|263:290,1,94.4999971160889,12|0,0:0|0:0,0:0:0:0:
377,381,49566,1,8,3:0:0:0:
415,303,49660,1,8,3:0:0:0:
361,229,49754,5,8,0:0:0:0:
331,234,49847,1,8,0:0:0:0:
263,269,49942,1,4,3:0:0:0:
233,264,50035,1,4,3:0:0:0:
179,192,50129,6,0,P|147:236|156:308,1,94.4999971160889,6|0,0:0|0:0,0:0:0:0:
269,175,50316,2,0,P|263:128|233:92,1,94.4999971160889,2|0,0:0|0:0,0:0:0:0:
143,274,50504,2,0,P|189:281|232:263,1,94.4999971160889,8|0,0:0|0:0,0:0:0:0:
114,101,50691,2,0,P|84:137|78:183,1,94.4999971160889,2|0,0:0|0:0,0:0:0:0:
201,368,50879,5,4,3:0:0:0:
280,337,50972,2,0,P|307:343|412:352,1,94.4999971160889,2|0,0:0|0:0,0:0:0:0:
143,274,51160,5,2,0:0:0:0:
95,347,51254,2,0,P|68:353|-37:362,1,94.4999971160889,8|0,0:0|0:0,0:0:0:0:
179,192,51441,2,0,P|225:201|272:206,1,94.4999971160889,2|0,0:0|0:0,0:0:0:0:
454,299,51629,6,0,P|446:258|441:196,1,94.4999971160889,8|0,3:0|0:0,0:0:0:0:
496,10,51816,2,0,P|491:57|483:103,1,94.4999971160889,2|0,0:0|0:0,0:0:0:0:
367,265,52004,2,0,P|358:218|354:171,1,94.4999971160889,8|0,0:0|0:0,0:0:0:0:
401,48,52191,2,0,P|396:95|388:141,1,94.4999971160889,2|0,0:0|0:0,0:0:0:0:
116,55,52379,6,0,B|251:34|168:115|337:74,1,188.999994232178,4|0,3:0|0:0,0:0:0:0:
84,147,52660,1,2,0:0:0:0:
33,205,52754,2,0,P|8:160|157:168,1,283.499991348267,8|0,0:0|0:0,0:0:0:0:
225,186,53129,6,0,P|203:287|194:379,1,188.999994232178,4|0,3:0|0:0,0:0:0:0:
293,288,53410,1,2,0:0:0:0:
366,183,53504,2,0,P|388:284|397:376,1,188.999994232178,8|0,0:0|0:0,0:0:0:0:
293,288,53785,1,2,0:0:0:0:
180,371,53879,6,0,P|190:277|210:184,1,188.999994232178,4|0,3:0|0:0,0:0:0:0:
293,288,54160,1,2,0:0:0:0:
409,367,54254,2,0,P|398:273|378:180,1,188.999994232178,8|0,0:0|0:0,0:0:0:0:
287,14,54629,6,0,B|164:11|238:82|66:63,1,188.999994232178,4|0,3:0|0:0,0:0:0:0:
32,98,54910,1,2,0:0:0:0:
97,155,55004,2,0,P|116:108|88:32,1,94.4999971160889,8|0,0:0|0:0,0:0:0:0:
34,259,55191,5,8,0:0:0:0:
134,271,55285,1,8,0:0:0:0:
229,282,55379,1,6,0:0:0:0:
217,268,55566,5,8,0:0:0:0:
257,350,55659,1,8,0:0:0:0:
345,375,55753,1,8,0:0:0:0:
423,326,55847,1,8,0:0:0:0:
438,235,55941,1,8,0:0:0:0:
380,164,56034,1,8,0:0:0:0:
289,159,56129,6,0,P|301:114|270:47,1,94.4999971160889,6|0,0:0|0:0,0:0:0:0:
201,70,56316,2,0,P|188:114|200:160,1,94.4999971160889,2|0,0:0|0:0,0:0:0:0:
326,281,56504,2,0,P|293:247|248:235,1,94.4999971160889,8|0,0:0|0:0,0:0:0:0:
170,280,56691,2,0,P|215:268|248:235,1,94.4999971160889,2|0,0:0|0:0,0:0:0:0:
97,88,56879,5,4,3:0:0:0:
49,153,56972,2,0,P|54:200|53:291,1,94.4999971160889,2|0,0:0|0:0,0:0:0:0:
117,74,57160,5,2,0:0:0:0:
75,171,57253,2,0,P|70:217|68:265,1,94.4999971160889,8|0,0:0|0:0,0:0:0:0:
255,329,57441,2,0,P|253:281|248:234,1,94.4999971160889,2|0,0:0|0:0,0:0:0:0:
392,166,57629,6,0,P|419:178|498:168,1,94.4999971160889,8|0,3:0|0:0,0:0:0:0:
491,89,57816,2,0,P|464:77|385:87,1,94.4999971160889,2|0,0:0|0:0,0:0:0:0:
339,241,58004,2,0,P|362:223|393:150,1,94.4999971160889,8|0,0:0|0:0,0:0:0:0:
210,151,58191,2,0,P|213:180|261:243,1,94.4999971160889,2|0,0:0|0:0,0:0:0:0:
110,37,58379,5,4,3:0:0:0:
39,90,58472,2,0,P|77:117|123:124,1,94.4999971160889,2|0,0:0|0:0,0:0:0:0:
98,12,58660,5,2,0:0:0:0:
41,134,58754,2,0,P|86:146|132:137,1,94.4999971160889,8|0,0:0|0:0,0:0:0:0:
314,7,58941,2,0,P|280:39|265:84,1,94.4999971160889,2|0,0:0|0:0,0:0:0:0:
288,314,59129,6,0,P|276:268|245:233,1,94.4999971160889,4|0,3:0|0:0,0:0:0:0:
104,305,59316,2,0,P|149:317|195:308,1,94.4999971160889,2|0,0:0|0:0,0:0:0:0:
209,151,59504,2,0,P|176:183|160:228,1,94.4999971160889,8|0,0:0|0:0,0:0:0:0:
373,276,59691,1,2,0:0:0:0:
448,238,59785,1,2,0:0:0:0:
403,103,59879,5,4,3:0:0:0:
380,93,59972,2,0,L|385:216,1,94.4999971160889,2|0,0:0|0:0,0:0:0:0:
288,314,60160,5,2,0:0:0:0:
245,233,60254,2,0,L|255:75,1,94.4999971160889,8|0,0:0|0:0,0:0:0:0:
47,276,60441,2,0,L|52:370,1,94.4999971160889,2|0,0:0|0:0,0:0:0:0:
5,28,60629,6,0,B|136:16|60:92|215:71,1,188.999994232178,6|0,0:0|0:0,0:0:0:0:
250,138,60910,1,2,0:0:0:0:
141,247,61004,2,0,P|121:198|122:122,1,94.4999971160889,8|0,0:0|0:0,0:0:0:0:
273,38,61191,1,8,0:0:0:0:
351,67,61285,1,8,0:0:0:0:
253,50,61379,6,0,L|267:172,1,94.4999971160889,12|0,0:0|0:0,0:0:0:0:
288,314,61566,1,8,3:0:0:0:
373,331,61660,1,8,3:0:0:0:
450,282,61754,5,8,0:0:0:0:
440,251,61847,1,8,0:0:0:0:
405,177,61941,1,4,3:0:0:0:
415,146,62034,1,4,3:0:0:0:
453,72,62129,6,0,B|370:49|406:103|293:59,1,121.499996292114,6|0,0:0|0:0,0:0:0:0:
96,47,62316,5,8,3:0:0:0:
81,72,62410,1,8,3:0:0:0:
79,102,62504,1,8,3:0:0:0:
196,294,62691,1,8,3:0:0:0:
218,243,62785,1,8,3:0:0:0:
202,189,62879,6,0,L|69:202,1,121.499996292114,6|0,0:0|0:0,0:0:0:0:
300,379,63066,5,8,3:0:0:0:
278,328,63160,1,8,3:0:0:0:
294,274,63254,1,8,3:0:0:0:
294,274,63441,5,4,3:0:0:0:
310,221,63535,1,4,3:0:0:0:
300,169,63629,6,0,B|346:174|346:174|373:167|373:167|482:183,1,121.499996292114,6|0,0:0|0:0,0:0:0:0:
135,1,63816,1,8,0:0:0:0:
52,31,63910,1,8,0:0:0:0:
145,31,64004,6,0,P|137:92|138:217,1,121.499996292114,8|0,0:0|0:0,0:0:0:0:
217,343,64191,1,8,0:0:0:0:
322,323,64285,1,8,0:0:0:0:
228,311,64379,6,0,B|158:291|68:318|68:318|125:302|149:223,1,242.999992584229,4|8,3:0|0:0,0:0:0:0:
134,151,64660,1,8,0:0:0:0:
162,161,64754,2,0,L|186:160,1,20.2499993820191,4|0,3:0|0:0,0:0:0:0:
220,146,64847,1,4,3:0:0:0:
276,167,64941,1,4,3:0:0:0:
348,137,65035,1,4,3:0:0:0:
411,197,65129,5,8,0:0:0:0:
441,184,65222,1,8,0:0:0:0:
94,11,65410,5,4,3:0:0:0:
81,88,65504,2,0,B|49:85|31:60|31:60|65:130|44:220,1,188.999994232178,12|4,0:0|3:0,0:0:0:0:
215,352,65879,5,4,3:0:0:0:
229,295,65972,1,8,0:0:0:0:
166,62,66160,5,4,3:0:0:0:
234,110,66254,2,0,B|357:84|281:157|432:116,1,188.999994232178,12|4,0:0|3:0,0:0:0:0:
143,298,66629,5,4,3:0:0:0:
131,217,66722,1,8,0:0:0:0:
428,39,66910,5,4,3:0:0:0:
416,120,67004,2,0,B|405:188|405:188|422:229|422:229|400:338,1,188.999994232178,12|4,0:0|3:0,0:0:0:0:
323,303,67285,5,8,0:0:0:0:
269,239,67379,2,0,P|296:224|406:317,1,188.999994232178,4|0,3:0|0:0,0:0:0:0:
78,343,67754,5,8,0:0:0:0:
10,268,67847,1,8,0:0:0:0:
60,181,67941,1,8,0:0:0:0:
158,202,68035,1,8,0:0:0:0:
168,301,68129,5,8,0:0:0:0:
158,202,68879,5,8,0:0:0:0:
148,103,69629,5,8,0:0:0:0:
158,202,69910,1,8,0:0:0:0:
168,301,70191,1,8,0:0:0:0:
148,103,70379,6,0,B|267:83|202:162|353:123,1,188.999994232178,8|0,0:0|0:0,0:0:0:0:
469,66,70660,1,2,0:0:0:0:
376,26,70754,2,0,P|364:108|344:312,1,283.499991348267,12|0,0:0|0:0,0:0:0:0:
286,373,71129,5,8,0:0:0:0:
376,26,71504,1,4,0:0:0:0:
344,307,71879,5,8,0:0:0:0:
328,128,72254,1,2,0:0:0:0:
417,368,72629,5,8,0:0:0:0:
220,340,72910,1,8,0:0:0:0:
25,302,73191,1,8,0:0:0:0:
417,368,73379,6,0,P|408:282|404:149,1,188.999994232178,8|8,0:0|3:0,0:0:0:0:
480,104,73660,1,8,3:0:0:0:
347,18,73754,6,2,B|289:23|289:23|261:36|261:36|224:28|224:28|175:48|175:48|122:33|122:33|61:52|61:52|128:64|138:154|81:180|20:163|16:83,1,506.25,6|0,0:0|0:0,1:0:0:0:
80,227,74129,6,0,B|116:232|145:202|145:202|177:233|245:229,1,135,6|0,0:0|0:0,0:0:0:0:
216,151,74410,1,0,0:0:0:0:
307,268,74504,2,0,P|300:197|296:126,1,135,8|0,0:0|0:0,0:0:0:0:
261,35,74785,1,0,0:0:0:0:
403,36,74879,6,0,P|371:56|332:64,1,67.5,4|0,3:0|0:0,0:0:0:0:
178,56,75066,1,2,0:0:0:0:
153,47,75160,1,2,0:0:0:0:
88,96,75254,2,0,P|92:133|98:196,1,67.5,8|0,0:0|0:0,0:0:0:0:
209,218,75441,2,0,P|212:179|215:150,1,67.5,2|0,0:0|0:0,0:0:0:0:
170,319,75629,6,0,P|199:311|264:302,1,67.5,4|0,3:0|0:0,0:0:0:0:
371,383,75816,2,0,P|349:361|309:310,1,67.5,2|0,0:0|0:0,0:0:0:0:
321,181,76004,2,0,P|313:210|288:270,1,67.5,8|0,0:0|0:0,0:0:0:0:
167,333,76191,2,0,P|196:325|261:316,1,67.5,2|0,0:0|0:0,0:0:0:0:
215,150,76379,5,4,3:0:0:0:
137,123,76472,2,0,B|129:158|129:158|146:204,2,67.5,2|2|0,0:0|0:0|0:0,0:0:0:0:
205,66,76754,2,0,L|286:76,1,67.5,8|0,0:0|0:0,0:0:0:0:
446,153,76941,1,2,0:0:0:0:
453,232,77035,1,2,0:0:0:0:
460,313,77129,6,0,B|378:336|413:280|300:313,1,135,4|0,3:0|0:0,0:0:0:0:
358,380,77410,1,0,0:0:0:0:
242,344,77504,2,0,P|246:276|240:209,1,135,8|0,0:0|0:0,0:0:0:0:
159,207,77785,1,0,0:0:0:0:
297,146,77879,6,0,P|308:151|324:174,1,33.75,4|0,3:0|0:0,0:0:0:0:
324,166,77972,2,0,P|325:185|324:212,1,33.75,2|0,0:0|0:0,0:0:0:0:
330,198,78066,2,0,P|324:222|317:242,3,33.75,2|0|2|0,0:0|0:0|0:0|0:0,0:0:0:0:
207,129,78254,5,10,0:0:0:0:
205,95,78348,1,2,0:0:0:0:
210,62,78442,1,2,0:0:0:0:
223,31,78535,1,2,0:0:0:0:
307,10,78629,6,0,B|442:23|442:23|396:27|354:66,1,202.500007724762,6|0,0:0|0:0,0:0:0:0:
418,230,78910,6,0,P|484:238|434:133,1,229.500004377365,6|0,0:0|0:0,0:0:0:0:
319,134,79191,6,0,B|273:136|273:136|249:126|249:126|168:130,1,114.750002188683,6|0,0:0|0:0,0:0:0:0:
159,282,79379,6,0,B|198:260|208:226|208:226|262:246|324:234|324:234|324:279|405:335,1,270,6|4,0:0|3:0,0:0:0:0:
252,368,79660,1,4,3:0:0:0:
123,193,79754,6,2,B|96:141|105:50|148:23|148:23|207:43|207:43|269:23|269:23|307:67|322:148|257:236,1,506.25,14|0,0:0|0:0,1:0:0:0:
206,128,80129,5,8,3:2:0:0:
244,113,80222,1,0,3:0:0:0:
283,114,80316,1,0,3:0:0:0:
319,134,80410,1,0,3:0:0:0:
389,199,80504,5,8,3:2:0:0:
353,219,80598,1,0,3:0:0:0:
314,220,80692,1,0,3:0:0:0:
276,205,80785,1,0,3:0:0:0:
443,113,80879,5,8,0:0:0:0:
475,151,80972,1,0,3:0:0:0:
488,199,81066,1,0,3:0:0:0:
478,249,81160,1,0,3:0:0:0:
425,335,81254,5,8,0:0:0:0:
392,297,81347,1,0,3:0:0:0:
379,249,81441,1,0,3:0:0:0:
389,199,81535,1,0,3:0:0:0:
443,113,81629,5,8,0:0:0:0:
412,121,81722,1,0,3:0:0:0:
331,42,81816,5,0,3:0:0:0:
362,50,81909,1,0,3:0:0:0:
315,185,82004,5,8,0:0:0:0:
284,177,82097,1,0,3:0:0:0:
216,28,82191,5,0,3:0:0:0:
247,20,82284,1,0,3:0:0:0:
217,239,82379,5,8,0:0:0:0:
196,193,82472,1,0,3:0:0:0:
202,143,82566,1,0,3:0:0:0:
233,104,82660,1,0,3:0:0:0:
304,272,82754,5,8,0:0:0:0:
274,312,82847,1,0,3:0:0:0:
228,332,82941,1,0,3:0:0:0:
179,324,83035,1,0,3:0:0:0:
284,177,83129,5,8,0:0:0:0:
333,182,83222,1,0,3:0:0:0:
412,183,83316,5,8,0:0:0:0:
430,230,83410,1,0,3:0:0:0:
494,281,83503,5,8,0:0:0:0:
485,330,83597,1,0,3:0:0:0:
368,338,83691,5,8,0:0:0:0:
359,289,83785,1,0,3:0:0:0:
245,286,83879,5,8,0:0:0:0:
228,332,83972,1,0,3:0:0:0:
186,358,84066,1,8,0:0:0:0:
136,352,84160,1,0,3:0:0:0:
49,204,84254,5,8,0:0:0:0:
142,196,84347,1,0,3:0:0:0:
236,189,84441,1,8,0:0:0:0:
333,182,84535,1,0,3:0:0:0:
427,176,84629,5,14,0:0:0:0:
123,25,84816,5,8,3:0:0:0:
134,109,84910,1,4,3:0:0:0:
293,378,85097,5,4,3:0:0:0:
311,297,85191,1,4,3:0:0:0:
152,20,85379,5,8,3:0:0:0:
161,108,85472,1,4,3:0:0:0:
322,378,85660,5,8,3:0:0:0:
341,297,85753,1,4,3:0:0:0:
303,224,85847,1,4,3:0:0:0:
225,195,85941,1,4,3:0:0:0:
148,224,86035,1,8,3:0:0:0:
109,297,86129,6,2,B|101:222|243:286|260:161|267:116|225:91|183:61|134:93|134:93|94:16|8:26|-49:115|-28:187|88:218|31:281,1,708.749978370667,14|0,0:0|0:0,1:0:0:0:
39,270,87629,6,0,L|105:258,1,67.5,6|0,0:0|0:0,0:0:0:0:
