osu file format v14

[General]
AudioFilename: audio.mp3
AudioLeadIn: 0
PreviewTime: 42949
Countdown: 0
SampleSet: Normal
StackLeniency: 0.7
Mode: 3
LetterboxInBreaks: 0
SpecialStyle: 0
WidescreenStoryboard: 1

[Editor]
DistanceSpacing: 0.6
BeatDivisor: 4
GridSize: 32
TimelineZoom: 1.3

[Metadata]
Title:Spatto! Spy & Spyce (TV Size)
TitleUnicode:スパッと!スパイ&スパイス (TV Size)
Artist:Tsukikage
ArtistUnicode:ツキカゲ
Creator:Hidden is fun
Version:Easy
Source:RELEASE THE SPYCE
Tags:op jpop j-pop pop [RT]Alleyne リリース ザ スパイス ヒゲドライバー hige driver moe Japanese Anime Opening PCCG-01728 PCCG-70436 源モモ Minamoto Momo 安齋由香里 Anzai Yukari 半蔵門雪 Hanzoumon Yuki 沼倉愛美 Numakura Manami 相模楓 Sagami Fuu 藤田茜 Fujita Akane 八千代命 Yachiyo Mei 洲崎綾 Suzaki Aya 石川五恵 Ishikawa Goe のぐちゆり Noguchi Yuri 青葉初芽 Aoba Hatsume 内田彩 Uchida Aya Alleyne-Angel Alleyne
BeatmapID:2296708
BeatmapSetID:1094309

[Difficulty]
HPDrainRate:6.5
CircleSize:4
OverallDifficulty:6.5
ApproachRate:9.3
SliderMultiplier:1.40000000596046
SliderTickRate:1

[Events]
//Background and Video events
0,0,"bg.jpg",0,0
//Break Periods
//Storyboard Layer 0 (Background)
//Storyboard Layer 1 (Fail)
//Storyboard Layer 2 (Pass)
//Storyboard Layer 3 (Foreground)
//Storyboard Layer 4 (Overlay)
//Storyboard Sound Samples

[TimingPoints]
621,375,4,1,1,70,1,0
44121,-100,4,1,1,70,0,1
50027,-100,4,1,1,70,0,0
50121,-100,4,1,1,70,0,1
56027,-100,4,1,1,70,0,0
56121,-100,4,1,1,70,0,1
68121,-100,4,1,1,70,0,0

[HitObjects]
320,192,621,5,4,2:2:0:0:
448,192,621,1,2,2:2:0:0:
64,192,902,1,2,2:2:0:0:
320,192,1183,1,2,2:2:0:0:
192,192,1371,1,8,2:2:0:0:
448,192,1621,1,8,2:2:0:0:
64,192,1871,1,8,2:2:0:0:
320,192,2121,1,8,2:2:0:0:
192,192,2371,1,2,2:2:0:0:
64,192,2621,1,2,2:2:0:0:
320,192,2871,1,4,2:2:0:0:
448,192,2871,128,8,4371:2:2:0:0:
320,192,4746,1,12,2:2:0:0:
64,192,5121,1,2,2:2:0:0:
192,192,5121,1,4,2:2:0:0:
448,192,5496,1,8,2:2:0:0:
64,192,5871,1,2,2:2:0:0:
320,192,6246,1,8,2:2:0:0:
64,192,6621,1,2,2:2:0:0:
320,192,6996,1,8,2:2:0:0:
192,192,7371,1,2,2:2:0:0:
448,192,7746,1,8,2:2:0:0:
64,192,8121,1,2,2:2:0:0:
448,192,8496,1,8,2:2:0:0:
192,192,8871,1,2,2:2:0:0:
320,192,9246,1,8,2:2:0:0:
64,192,9621,1,10,2:2:0:0:
320,192,9902,1,10,2:2:0:0:
192,192,10183,1,10,2:2:0:0:
448,192,10371,1,10,2:2:0:0:
64,192,10746,1,8,2:2:0:0:
192,192,10746,1,4,2:2:0:0:
320,192,11121,1,4,2:2:0:0:
448,192,11121,1,2,2:2:0:0:
64,192,11496,1,8,2:2:0:0:
320,192,11871,1,2,2:2:0:0:
192,192,12246,1,8,2:2:0:0:
448,192,12621,1,2,2:2:0:0:
192,192,12996,1,8,2:2:0:0:
320,192,13371,1,2,2:2:0:0:
64,192,13746,1,8,2:2:0:0:
320,192,14121,1,2,2:2:0:0:
64,192,14496,1,8,2:2:0:0:
448,192,14871,1,2,2:2:0:0:
192,192,15246,1,8,2:2:0:0:
64,192,15621,1,4,2:2:0:0:
448,192,15621,1,8,2:2:0:0:
320,192,15902,1,8,2:2:0:0:
192,192,16183,1,8,2:2:0:0:
448,192,16371,1,10,2:2:0:0:
64,192,16652,1,10,2:2:0:0:
320,192,16933,1,10,2:2:0:0:
64,192,18621,1,8,2:2:0:0:
320,192,18621,1,2,2:2:0:0:
192,192,19371,1,8,2:2:0:0:
320,192,19371,1,2,2:2:0:0:
192,192,20121,1,8,2:2:0:0:
448,192,20121,1,2,2:2:0:0:
320,192,20496,1,8,2:2:0:0:
64,192,20871,1,6,2:2:0:0:
448,192,21246,128,2,21621:2:2:0:0:
64,192,21621,1,4,2:2:0:0:
192,192,21621,1,2,2:2:0:0:
320,192,21996,1,8,2:2:0:0:
192,192,22371,1,2,2:2:0:0:
448,192,22746,1,8,2:2:0:0:
320,192,23121,1,2,2:2:0:0:
64,192,23496,1,8,2:2:0:0:
448,192,23871,1,2,2:2:0:0:
192,192,24246,1,8,2:2:0:0:
320,192,24621,1,2,2:2:0:0:
448,192,24621,1,4,2:2:0:0:
192,192,24996,1,2,2:2:0:0:
64,192,25371,1,2,2:2:0:0:
320,192,25746,1,2,2:2:0:0:
192,192,26121,1,2,2:2:0:0:
448,192,26496,1,2,2:2:0:0:
320,192,26871,1,2,2:2:0:0:
64,192,27058,1,8,2:2:0:0:
448,192,27246,1,8,2:2:0:0:
192,192,27621,1,2,2:2:0:0:
320,192,27621,1,4,2:2:0:0:
64,192,27996,1,8,2:2:0:0:
448,192,28371,1,2,2:2:0:0:
320,192,28746,1,8,2:2:0:0:
192,192,29121,1,2,2:2:0:0:
448,192,29496,1,8,2:2:0:0:
64,192,29871,128,8,30246:2:2:0:0:
320,192,30246,128,2,30621:2:2:0:0:
64,192,30621,1,4,2:2:0:0:
448,192,30621,128,2,31183:2:2:0:0:
320,192,31183,1,8,2:2:0:0:
64,192,31746,1,8,2:2:0:0:
320,192,32121,128,2,32683:2:2:0:0:
192,192,32683,1,8,2:2:0:0:
448,192,33246,1,8,2:2:0:0:
192,192,33621,128,2,34183:2:2:0:0:
320,192,34183,1,8,2:2:0:0:
448,192,34746,1,8,2:2:0:0:
64,192,35121,128,2,35683:2:2:0:0:
320,192,35683,1,8,2:2:0:0:
192,192,36246,1,8,2:2:0:0:
320,192,36621,1,6,2:2:0:0:
448,192,36996,1,12,2:2:0:0:
192,192,37371,1,2,2:2:0:0:
64,192,37746,1,12,2:2:0:0:
320,192,38121,1,2,2:2:0:0:
192,192,38496,1,12,2:2:0:0:
448,192,38871,1,6,2:2:0:0:
320,192,39246,1,10,2:2:0:0:
192,192,39621,128,6,39996:2:2:0:0:
320,192,40371,128,2,40746:2:2:0:0:
64,192,41121,128,2,41496:2:2:0:0:
448,192,41496,128,12,41871:2:2:0:0:
192,192,41871,128,2,42246:2:2:0:0:
320,192,42246,128,10,42621:2:2:0:0:
192,192,43746,1,12,2:2:0:0:
320,192,44121,1,4,2:2:0:0:
448,192,44121,1,2,2:2:0:0:
64,192,44496,1,8,2:2:0:0:
448,192,44871,1,2,2:2:0:0:
192,192,45246,1,8,2:2:0:0:
64,192,45621,1,2,2:2:0:0:
448,192,45996,1,8,2:2:0:0:
192,192,46371,1,2,2:2:0:0:
320,192,46746,1,8,2:2:0:0:
64,192,47121,1,2,2:2:0:0:
320,192,47496,1,8,2:2:0:0:
192,192,47871,1,2,2:2:0:0:
448,192,48246,1,8,2:2:0:0:
192,192,48621,1,2,2:2:0:0:
448,192,48902,1,0,0:0:0:0:
64,192,49183,1,8,2:2:0:0:
320,192,49371,1,6,2:2:0:0:
192,192,49746,1,10,2:2:0:0:
64,192,50121,1,4,2:2:0:0:
448,192,50121,1,2,2:2:0:0:
192,192,50496,1,8,2:2:0:0:
320,192,50871,1,2,2:2:0:0:
64,192,51246,1,8,2:2:0:0:
320,192,51621,1,2,2:2:0:0:
64,192,51996,1,8,2:2:0:0:
448,192,52371,1,2,2:2:0:0:
192,192,52746,1,8,2:2:0:0:
448,192,53121,1,2,2:2:0:0:
192,192,53496,1,8,2:2:0:0:
320,192,53871,1,2,2:2:0:0:
64,192,54246,1,8,2:2:0:0:
320,192,54621,128,2,55183:2:2:0:0:
192,192,55183,1,8,2:2:0:0:
448,192,55371,1,6,2:2:0:0:
64,192,55746,128,10,56121:2:2:0:0:
192,192,56121,1,4,2:2:0:0:
320,192,56121,1,2,2:2:0:0:
448,192,56496,1,8,2:2:0:0:
64,192,56871,1,2,2:2:0:0:
320,192,57246,1,8,2:2:0:0:
64,192,57621,1,2,2:2:0:0:
320,192,57996,1,8,2:2:0:0:
192,192,58371,1,2,2:2:0:0:
448,192,58746,1,8,2:2:0:0:
192,192,59121,1,2,2:2:0:0:
448,192,59496,1,8,2:2:0:0:
64,192,59871,1,2,2:2:0:0:
320,192,60246,1,8,2:2:0:0:
448,192,60621,1,2,2:2:0:0:
64,192,60902,1,0,0:0:0:0:
320,192,61183,1,8,2:2:0:0:
192,192,61371,1,6,2:2:0:0:
64,192,61746,128,10,62121:2:2:0:0:
320,192,62121,1,2,2:2:0:0:
448,192,62121,1,4,2:2:0:0:
64,192,62871,1,10,2:2:0:0:
192,192,62871,1,4,2:2:0:0:
448,192,63621,128,6,63996:2:2:0:0:
64,192,63996,128,6,64371:2:2:0:0:
320,192,64371,128,6,64746:2:2:0:0:
192,192,64746,1,2,2:2:0:0:
448,192,65121,1,2,2:2:0:0:
64,192,65496,1,4,2:2:0:0:
192,192,65496,1,8,2:2:0:0:
320,192,65871,1,2,2:2:0:0:
64,192,66246,1,4,2:2:0:0:
448,192,66246,1,8,2:2:0:0:
192,192,66621,1,2,2:2:0:0:
320,192,66996,1,4,2:2:0:0:
448,192,66996,1,8,2:2:0:0:
64,192,67371,1,2,2:2:0:0:
320,192,67746,1,2,2:2:0:0:
448,192,68121,1,2,2:2:0:0:
64,192,68121,1,8,2:2:0:0:
448,192,68871,1,8,2:2:0:0:
448,192,69621,1,8,2:2:0:0:
192,192,69902,1,8,2:2:0:0:
320,192,70183,1,8,2:2:0:0:
64,192,70371,1,8,2:2:0:0:
192,192,70746,1,6,2:2:0:0:
320,192,70746,1,8,2:2:0:0:
448,192,71121,1,8,2:2:0:0:
192,192,71496,1,4,2:2:0:0:
448,192,71871,1,8,2:2:0:0:
320,192,72246,1,4,3:3:0:0:
448,192,72621,1,8,2:2:0:0:
64,192,72902,1,8,2:2:0:0:
320,192,73183,1,8,2:2:0:0:
192,192,73371,1,8,2:2:0:0:
64,192,73746,128,12,74121:2:2:0:0:
320,192,74121,1,2,2:2:0:0:
448,192,74121,1,4,2:2:0:0:
64,192,74496,1,8,2:2:0:0:
320,192,74871,1,2,2:2:0:0:
192,192,75246,1,8,2:2:0:0:
64,192,75621,1,2,2:2:0:0:
320,192,75996,1,8,2:2:0:0:
192,192,76371,1,2,2:2:0:0:
448,192,76746,1,8,2:2:0:0:
64,192,77121,1,2,2:2:0:0:
448,192,77496,1,8,2:2:0:0:
192,192,77871,1,2,2:2:0:0:
320,192,78246,1,8,2:2:0:0:
64,192,78621,1,8,2:2:0:0:
320,192,78902,1,8,2:2:0:0:
192,192,79183,1,8,2:2:0:0:
448,192,79371,1,8,2:2:0:0:
64,192,79746,1,8,2:2:0:0:
192,192,79746,1,0,1:2:0:0:
320,192,80121,1,4,2:2:0:0:
448,192,80121,1,8,2:2:0:0:
64,192,80496,1,10,2:2:0:0:
320,192,80871,1,10,2:2:0:0:
192,192,81246,1,10,2:2:0:0:
64,192,81621,1,10,2:2:0:0:
320,192,81996,1,10,2:2:0:0:
192,192,82371,1,10,2:2:0:0:
448,192,82746,1,10,2:2:0:0:
192,192,83121,1,12,2:2:0:0:
320,192,83496,1,8,2:2:0:0:
192,192,83871,1,8,2:2:0:0:
320,192,84246,1,8,2:2:0:0:
64,192,84621,1,12,2:2:0:0:
320,192,84902,1,2,2:2:0:0:
192,192,85183,1,2,2:2:0:0:
448,192,85371,1,10,2:2:0:0:
64,192,85652,1,2,2:2:0:0:
320,192,85933,1,2,2:2:0:0:
64,192,86121,128,4,87621:2:2:0:0:
448,192,86121,1,2,2:2:0:0:
320,192,87621,1,8,2:2:0:0:
448,192,87621,1,4,2:2:0:0:
