osu file format v14

[General]
AudioFilename: audio.mp3
AudioLeadIn: 0
PreviewTime: 43277
Countdown: 0
SampleSet: Normal
StackLeniency: 0.7
Mode: 1
LetterboxInBreaks: 0
WidescreenStoryboard: 0

[Editor]
DistanceSpacing: 0.6
BeatDivisor: 4
GridSize: 32
TimelineZoom: 1.8

[Metadata]
Title:Spatto! Spy & Spyce (TV Size)
TitleUnicode:スパッと!スパイ&スパイス (TV Size)
Artist:Tsukikage
ArtistUnicode:ツキカゲ
Creator:Fleure De Lapin
Version:Muzukashii
Source:RELEASE THE SPYCE
Tags:anime opening Yukari Anzai Manami Numakura Akane Fujita Aya Suzaki Yuri Noguchi Uchida スパッと!スパイ&スパイス/Hide & Seek Japanese リリスパ OP 安齋由香里 沼倉愛美 藤田茜 洲崎綾 のぐちゆり 内田彩 PONY CANYON franklin_dejavu fdjv Luqua yuki_momoiro722
BeatmapID:2203996
BeatmapSetID:1054806

[Difficulty]
HPDrainRate:7
CircleSize:5.2
OverallDifficulty:4.5
ApproachRate:9.8
SliderMultiplier:1.4
SliderTickRate:1

[Events]
//Background and Video events
0,0,"latarbelakang.jpg",0,70
//Break Periods
//Storyboard Layer 0 (Background)
//Storyboard Layer 1 (Fail)
//Storyboard Layer 2 (Pass)
//Storyboard Layer 3 (Foreground)
//Storyboard Layer 4 (Overlay)
//Storyboard Sound Samples

[TimingPoints]
629,375,4,1,0,80,1,0
629,-100,4,1,0,80,0,0
3066,-100,4,1,0,70,0,0
4566,-100,4,1,0,80,0,0
17129,-100,4,1,0,70,0,0
18629,-100,4,1,0,80,0,0
44129,-100,4,1,0,90,0,1
68129,-100,4,1,0,85,0,0
80129,-100,4,1,0,90,0,1
86129,-100,4,1,0,90,0,0
86316,-100,4,1,0,70,0,0
87441,-100,4,1,0,70,0,0
87629,-100,4,1,0,90,0,0

[HitObjects]
128,288,629,5,4,0:0:0:0:
128,96,1191,1,0,0:0:0:0:
384,96,1379,1,8,0:0:0:0:
128,96,1879,1,0,0:0:0:0:
384,96,2129,1,8,0:0:0:0:
384,96,2629,1,8,0:0:0:0:
128,288,2879,1,4,0:0:0:0:
256,192,3066,12,0,4379,0:0:0:0:
384,96,4754,5,8,0:0:0:0:
128,288,5129,1,4,0:0:0:0:
384,96,5504,1,8,0:0:0:0:
384,96,5879,1,8,0:0:0:0:
128,96,6066,1,0,0:0:0:0:
384,96,6254,1,8,0:0:0:0:
384,96,6629,1,8,0:0:0:0:
384,96,6816,1,8,0:0:0:0:
128,96,7004,1,0,0:0:0:0:
128,96,7191,1,0,0:0:0:0:
384,96,7379,1,8,0:0:0:0:
128,96,7566,1,0,0:0:0:0:
128,96,7660,1,0,0:0:0:0:
128,96,7754,1,0,0:0:0:0:
384,96,7941,1,8,0:0:0:0:
128,96,8129,1,0,0:0:0:0:
384,96,8504,1,8,0:0:0:0:
128,96,8879,1,0,0:0:0:0:
128,96,9066,1,0,0:0:0:0:
384,96,9254,1,8,0:0:0:0:
384,288,9629,1,12,0:0:0:0:
128,96,10191,1,0,0:0:0:0:
384,96,10379,1,8,0:0:0:0:
384,96,10754,1,8,0:0:0:0:
128,288,11129,1,4,0:0:0:0:
384,96,11504,1,8,0:0:0:0:
384,96,11879,1,8,0:0:0:0:
128,96,12066,1,0,0:0:0:0:
384,96,12254,1,8,0:0:0:0:
384,96,12629,1,8,0:0:0:0:
384,96,12816,1,8,0:0:0:0:
128,96,13004,1,0,0:0:0:0:
128,96,13191,1,0,0:0:0:0:
384,96,13379,1,8,0:0:0:0:
128,96,13566,1,0,0:0:0:0:
128,96,13660,1,0,0:0:0:0:
128,96,13754,1,0,0:0:0:0:
384,96,13941,1,8,0:0:0:0:
128,96,14129,1,0,0:0:0:0:
384,96,14504,1,8,0:0:0:0:
128,96,14879,1,0,0:0:0:0:
128,96,15066,1,0,0:0:0:0:
384,96,15254,1,8,0:0:0:0:
384,288,15629,1,12,0:0:0:0:
128,96,16191,1,0,0:0:0:0:
384,96,16379,1,8,0:0:0:0:
384,96,16660,1,8,0:0:0:0:
128,96,16941,1,0,0:0:0:0:
256,192,17316,12,0,18441,0:0:0:0:
128,96,18629,5,0,0:0:0:0:
128,96,19379,1,0,0:0:0:0:
128,96,20129,1,0,0:0:0:0:
384,96,20504,1,8,0:0:0:0:
128,96,20691,1,0,0:0:0:0:
128,96,20785,1,0,0:0:0:0:
128,96,20879,1,0,0:0:0:0:
128,96,21066,1,0,0:0:0:0:
384,96,21254,1,8,0:0:0:0:
128,288,21629,1,4,0:0:0:0:
128,96,22004,1,0,0:0:0:0:
384,96,22379,1,8,0:0:0:0:
128,96,22566,1,0,0:0:0:0:
384,96,22754,1,8,0:0:0:0:
384,96,23129,1,8,0:0:0:0:
384,96,23316,1,8,0:0:0:0:
128,96,23504,1,0,0:0:0:0:
128,96,23691,1,0,0:0:0:0:
384,96,23879,1,8,0:0:0:0:
128,96,24066,1,0,0:0:0:0:
128,96,24160,1,0,0:0:0:0:
128,96,24254,1,0,0:0:0:0:
384,96,24441,1,8,0:0:0:0:
128,288,24629,1,4,0:0:0:0:
128,96,25379,1,0,0:0:0:0:
128,96,26129,1,0,0:0:0:0:
384,96,26504,1,8,0:0:0:0:
128,96,26691,1,0,0:0:0:0:
128,96,26785,1,0,0:0:0:0:
128,96,26879,1,0,0:0:0:0:
128,96,27066,1,0,0:0:0:0:
384,96,27254,1,8,0:0:0:0:
128,288,27629,1,4,0:0:0:0:
384,96,28004,1,8,0:0:0:0:
384,96,28379,1,8,0:0:0:0:
128,96,28566,1,0,0:0:0:0:
384,96,28754,1,8,0:0:0:0:
384,96,29129,1,8,0:0:0:0:
384,96,29316,1,8,0:0:0:0:
128,96,29504,1,0,0:0:0:0:
384,96,29691,1,8,0:0:0:0:
384,96,29785,1,8,0:0:0:0:
384,96,29879,1,8,0:0:0:0:
128,96,30066,1,0,0:0:0:0:
128,96,30254,1,0,0:0:0:0:
384,96,30441,1,8,0:0:0:0:
128,288,30629,1,4,0:0:0:0:
384,96,31191,1,8,0:0:0:0:
128,96,31379,1,0,0:0:0:0:
128,96,31754,1,0,0:0:0:0:
128,96,31941,1,0,0:0:0:0:
384,96,32129,1,8,0:0:0:0:
128,96,32691,1,0,0:0:0:0:
384,96,32879,1,8,0:0:0:0:
384,96,33254,1,8,0:0:0:0:
384,96,33441,1,8,0:0:0:0:
128,96,33629,1,0,0:0:0:0:
384,96,34191,1,8,0:0:0:0:
128,96,34379,1,0,0:0:0:0:
128,96,34754,1,0,0:0:0:0:
128,96,34941,1,0,0:0:0:0:
384,96,35129,1,8,0:0:0:0:
128,96,35691,1,0,0:0:0:0:
384,96,35879,1,8,0:0:0:0:
384,96,36254,1,8,0:0:0:0:
384,96,36441,1,8,0:0:0:0:
128,96,36629,1,0,0:0:0:0:
384,288,37004,1,12,0:0:0:0:
128,96,37379,1,0,0:0:0:0:
128,96,37566,1,0,0:0:0:0:
384,288,37754,1,12,0:0:0:0:
128,96,38129,1,0,0:0:0:0:
384,288,38504,1,12,0:0:0:0:
128,96,38879,1,0,0:0:0:0:
128,96,39066,1,0,0:0:0:0:
384,96,39254,1,8,0:0:0:0:
384,288,39629,1,12,0:0:0:0:
384,96,40004,1,8,0:0:0:0:
128,96,40191,1,0,0:0:0:0:
128,96,40285,1,0,0:0:0:0:
128,96,40379,1,0,0:0:0:0:
384,96,40566,1,8,0:0:0:0:
128,96,40754,1,0,0:0:0:0:
384,96,41129,1,8,0:0:0:0:
384,96,41222,1,8,0:0:0:0:
384,96,41504,1,8,0:0:0:0:
128,96,41691,1,0,0:0:0:0:
128,96,41879,1,0,0:0:0:0:
128,96,41972,1,0,0:0:0:0:
128,96,42066,1,0,0:0:0:0:
384,96,42254,1,8,0:0:0:0:
384,96,42347,1,8,0:0:0:0:
384,96,42441,1,8,0:0:0:0:
384,96,42535,1,8,0:0:0:0:
384,96,43379,1,8,0:0:0:0:
128,96,43566,1,0,0:0:0:0:
384,96,43754,1,8,0:0:0:0:
384,288,44129,1,12,0:0:0:0:
128,96,44504,1,0,0:0:0:0:
384,96,44879,1,8,0:0:0:0:
128,96,45066,1,0,0:0:0:0:
384,96,45254,1,8,0:0:0:0:
384,96,45629,1,8,0:0:0:0:
128,96,45816,1,0,0:0:0:0:
384,96,46004,1,8,0:0:0:0:
384,96,46191,1,8,0:0:0:0:
384,96,46285,1,8,0:0:0:0:
384,96,46379,1,8,0:0:0:0:
128,96,46566,1,0,0:0:0:0:
384,96,46754,1,8,0:0:0:0:
384,96,47129,1,8,0:0:0:0:
384,96,47316,1,8,0:0:0:0:
128,96,47504,1,0,0:0:0:0:
128,96,47691,1,0,0:0:0:0:
384,96,47879,1,8,0:0:0:0:
128,96,48254,1,0,0:0:0:0:
384,96,48629,1,8,0:0:0:0:
384,96,49191,1,8,0:0:0:0:
128,96,49379,1,0,0:0:0:0:
384,96,49566,1,8,0:0:0:0:
384,96,49660,1,8,0:0:0:0:
384,96,49754,1,8,0:0:0:0:
128,96,49941,1,0,0:0:0:0:
128,288,50129,1,4,0:0:0:0:
384,96,50504,1,8,0:0:0:0:
128,96,50879,1,0,0:0:0:0:
128,96,51066,1,0,0:0:0:0:
384,96,51254,1,8,0:0:0:0:
384,96,51441,1,8,0:0:0:0:
128,96,51629,1,0,0:0:0:0:
384,96,52004,1,8,0:0:0:0:
128,96,52191,1,0,0:0:0:0:
384,96,52379,1,8,0:0:0:0:
128,96,52754,1,0,0:0:0:0:
384,96,53129,1,8,0:0:0:0:
128,96,53316,1,0,0:0:0:0:
128,96,53504,1,0,0:0:0:0:
384,96,53879,1,8,0:0:0:0:
128,96,54254,1,0,0:0:0:0:
384,96,54629,1,8,0:0:0:0:
384,96,55191,1,8,0:0:0:0:
128,96,55379,1,0,0:0:0:0:
384,96,55566,1,8,0:0:0:0:
384,96,55660,1,8,0:0:0:0:
384,96,55754,1,8,0:0:0:0:
128,96,55941,1,0,0:0:0:0:
384,288,56129,1,12,0:0:0:0:
384,96,56504,1,8,0:0:0:0:
128,96,56879,1,0,0:0:0:0:
384,96,57066,1,8,0:0:0:0:
384,96,57254,1,8,0:0:0:0:
384,96,57629,1,8,0:0:0:0:
128,96,57816,1,0,0:0:0:0:
384,96,58004,1,8,0:0:0:0:
128,96,58191,1,0,0:0:0:0:
128,96,58285,1,0,0:0:0:0:
128,96,58379,1,0,0:0:0:0:
384,96,58566,1,8,0:0:0:0:
128,96,58754,1,0,0:0:0:0:
384,96,59129,1,8,0:0:0:0:
128,96,59316,1,0,0:0:0:0:
384,96,59504,1,8,0:0:0:0:
384,96,59691,1,8,0:0:0:0:
128,96,59879,1,0,0:0:0:0:
384,96,60254,1,8,0:0:0:0:
128,96,60629,1,0,0:0:0:0:
128,96,61191,1,0,0:0:0:0:
384,96,61379,1,8,0:0:0:0:
384,96,61566,1,8,0:0:0:0:
384,96,61660,1,8,0:0:0:0:
384,96,61754,1,8,0:0:0:0:
384,96,61941,1,8,0:0:0:0:
128,288,62129,1,4,0:0:0:0:
128,96,62504,1,0,0:0:0:0:
128,96,62691,1,0,0:0:0:0:
384,288,62879,1,12,0:0:0:0:
128,96,63254,1,0,0:0:0:0:
384,288,63629,1,12,0:0:0:0:
128,96,63816,1,0,0:0:0:0:
128,96,63910,1,0,0:0:0:0:
128,96,64004,1,0,0:0:0:0:
128,96,64191,1,0,0:0:0:0:
384,288,64379,1,12,0:0:0:0:
128,96,64754,1,0,0:0:0:0:
384,96,65129,1,8,0:0:0:0:
128,96,65316,1,0,0:0:0:0:
384,288,65504,1,12,0:0:0:0:
128,96,65879,1,0,0:0:0:0:
128,96,66066,1,0,0:0:0:0:
384,288,66254,1,12,0:0:0:0:
128,96,66629,1,0,0:0:0:0:
384,288,67004,1,12,0:0:0:0:
384,96,67379,1,8,0:0:0:0:
384,96,67566,1,8,0:0:0:0:
128,96,67754,1,0,0:0:0:0:
384,96,68129,1,8,0:0:0:0:
384,96,68879,1,8,0:0:0:0:
384,96,69629,1,8,0:0:0:0:
128,96,69910,1,0,0:0:0:0:
128,96,70191,1,0,0:0:0:0:
384,96,70379,1,8,0:0:0:0:
128,96,70754,1,0,0:0:0:0:
384,96,71129,1,8,0:0:0:0:
384,96,71879,1,8,0:0:0:0:
384,96,72629,1,8,0:0:0:0:
384,96,72910,1,8,0:0:0:0:
128,96,73191,1,0,0:0:0:0:
384,96,73379,1,8,0:0:0:0:
384,96,73754,1,8,0:0:0:0:
128,288,74129,1,4,0:0:0:0:
384,96,74504,1,8,0:0:0:0:
384,96,74879,1,8,0:0:0:0:
128,96,75066,1,0,0:0:0:0:
384,96,75254,1,8,0:0:0:0:
384,96,75629,1,8,0:0:0:0:
384,96,75816,1,8,0:0:0:0:
128,96,76004,1,0,0:0:0:0:
128,96,76191,1,0,0:0:0:0:
384,96,76379,1,8,0:0:0:0:
128,96,76566,1,0,0:0:0:0:
128,96,76660,1,0,0:0:0:0:
128,96,76754,1,0,0:0:0:0:
384,96,76941,1,8,0:0:0:0:
128,96,77129,1,0,0:0:0:0:
384,96,77504,1,8,0:0:0:0:
128,96,77879,1,0,0:0:0:0:
128,96,78066,1,0,0:0:0:0:
384,96,78254,1,8,0:0:0:0:
384,288,78629,1,12,0:0:0:0:
128,96,79191,1,0,0:0:0:0:
384,96,79379,1,8,0:0:0:0:
384,96,79754,1,8,0:0:0:0:
128,288,80129,1,4,0:0:0:0:
384,96,80504,1,8,0:0:0:0:
384,96,80879,1,8,0:0:0:0:
128,96,81066,1,0,0:0:0:0:
384,96,81254,1,8,0:0:0:0:
384,96,81629,1,8,0:0:0:0:
384,96,81816,1,8,0:0:0:0:
128,96,82004,1,0,0:0:0:0:
128,96,82191,1,0,0:0:0:0:
384,96,82379,1,8,0:0:0:0:
128,96,82566,1,0,0:0:0:0:
128,96,82660,1,0,0:0:0:0:
128,96,82754,1,0,0:0:0:0:
384,96,82941,1,8,0:0:0:0:
128,96,83129,1,0,0:0:0:0:
384,96,83504,1,8,0:0:0:0:
128,96,83691,1,0,0:0:0:0:
128,96,83879,1,0,0:0:0:0:
128,96,83972,1,0,0:0:0:0:
128,96,84066,1,0,0:0:0:0:
384,96,84254,1,8,0:0:0:0:
384,288,84629,1,12,0:0:0:0:
384,96,84910,1,8,0:0:0:0:
128,96,85191,1,0,0:0:0:0:
384,96,85379,1,8,0:0:0:0:
384,96,85660,1,8,0:0:0:0:
384,96,85941,1,8,0:0:0:0:
128,288,86129,1,4,0:0:0:0:
256,192,86316,12,0,87629,0:0:0:0:
