osu file format v14

[General]
AudioFilename: audio.mp3
AudioLeadIn: 0
PreviewTime: 43277
Countdown: 0
SampleSet: Normal
StackLeniency: 0.7
Mode: 1
LetterboxInBreaks: 0
WidescreenStoryboard: 0

[Editor]
DistanceSpacing: 0.6
BeatDivisor: 1
GridSize: 32
TimelineZoom: 1.1

[Metadata]
Title:Spatto! Spy & Spyce (TV Size)
TitleUnicode:スパッと!スパイ&スパイス (TV Size)
Artist:Tsukikage
ArtistUnicode:ツキカゲ
Creator:Fleure De Lapin
Version:Kantan
Source:RELEASE THE SPYCE
Tags:anime opening Yukari Anzai Manami Numakura Akane Fujita Aya Suzaki Yuri Noguchi Aya Uchida スパッと!スパイ&スパイス/Hide & Seek Japanese リリスパ OP 安齋由香里 沼倉愛美 藤田茜 洲崎綾 のぐちゆり 内田彩 PONY CANYON franklin_dejavu fdjv Luqua yuki_momoiro722
BeatmapID:2203998
BeatmapSetID:1054806

[Difficulty]
HPDrainRate:8
CircleSize:5.2
OverallDifficulty:3
ApproachRate:9.8
SliderMultiplier:1.4
SliderTickRate:1

[Events]
//Background and Video events
0,0,"latarbelakang.jpg",0,70
//Break Periods
//Storyboard Layer 0 (Background)
//Storyboard Layer 1 (Fail)
//Storyboard Layer 2 (Pass)
//Storyboard Layer 3 (Foreground)
//Storyboard Layer 4 (Overlay)
//Storyboard Sound Samples

[TimingPoints]
629,375,4,1,0,80,1,0
629,-100,4,1,0,80,0,0
3066,-100,4,1,0,70,0,0
4566,-100,4,1,0,80,0,0
17129,-100,4,1,0,70,0,0
18629,-100,4,1,0,80,0,0
44129,-100,4,1,0,90,0,1
68129,-100,4,1,0,85,0,0
80129,-100,4,1,0,90,0,1
86129,-100,4,1,0,90,0,0
86316,-100,4,1,0,70,0,0
87441,-100,4,1,0,70,0,0
87629,-100,4,1,0,90,0,0

[HitObjects]
128,288,629,5,4,0:0:0:0:
128,96,1379,1,0,0:0:0:0:
384,96,2129,1,8,0:0:0:0:
384,288,2879,1,12,0:0:0:0:
256,192,3066,12,0,4379,0:0:0:0:
128,288,5129,5,4,0:0:0:0:
384,96,5879,1,8,0:0:0:0:
128,96,6629,1,0,0:0:0:0:
128,96,7004,1,0,0:0:0:0:
384,96,7379,1,8,0:0:0:0:
128,96,8129,1,0,0:0:0:0:
384,96,8504,1,8,0:0:0:0:
128,96,8879,1,0,0:0:0:0:
384,288,9629,1,12,0:0:0:0:
128,288,11129,1,4,0:0:0:0:
384,96,11879,1,8,0:0:0:0:
128,96,12629,1,0,0:0:0:0:
128,96,13004,1,0,0:0:0:0:
384,96,13379,1,8,0:0:0:0:
128,96,14129,1,0,0:0:0:0:
384,96,14504,1,8,0:0:0:0:
128,96,14879,1,0,0:0:0:0:
384,288,15629,1,12,0:0:0:0:
384,288,16379,1,12,0:0:0:0:
128,96,18629,1,0,0:0:0:0:
128,96,19379,1,0,0:0:0:0:
128,96,20129,1,0,0:0:0:0:
384,96,21254,1,8,0:0:0:0:
128,288,21629,1,4,0:0:0:0:
384,96,22379,1,8,0:0:0:0:
128,96,23129,1,0,0:0:0:0:
128,96,23504,1,0,0:0:0:0:
384,96,23879,1,8,0:0:0:0:
384,288,24629,1,12,0:0:0:0:
128,96,25379,1,0,0:0:0:0:
128,96,26129,1,0,0:0:0:0:
384,96,27254,1,8,0:0:0:0:
128,288,27629,1,4,0:0:0:0:
384,96,28379,1,8,0:0:0:0:
128,96,29129,1,0,0:0:0:0:
128,96,29504,1,0,0:0:0:0:
384,96,29879,1,8,0:0:0:0:
128,288,30629,1,4,0:0:0:0:
384,96,32129,1,8,0:0:0:0:
128,96,33629,1,0,0:0:0:0:
384,96,35129,1,8,0:0:0:0:
384,96,36629,1,8,0:0:0:0:
384,96,37379,1,8,0:0:0:0:
128,96,37754,1,0,0:0:0:0:
384,96,38129,1,8,0:0:0:0:
384,96,38879,1,8,0:0:0:0:
384,96,39254,1,8,0:0:0:0:
128,96,39629,1,0,0:0:0:0:
128,96,40379,1,0,0:0:0:0:
384,96,41129,1,8,0:0:0:0:
128,96,41879,1,0,0:0:0:0:
384,96,43379,1,8,0:0:0:0:
128,96,43754,1,0,0:0:0:0:
384,288,44129,1,12,0:0:0:0:
384,96,44879,1,8,0:0:0:0:
128,96,45629,1,0,0:0:0:0:
384,96,46004,1,8,0:0:0:0:
128,96,46379,1,0,0:0:0:0:
384,96,47129,1,8,0:0:0:0:
128,96,47879,1,0,0:0:0:0:
384,96,48629,1,8,0:0:0:0:
384,96,49004,1,8,0:0:0:0:
128,96,49379,1,0,0:0:0:0:
128,288,50129,1,4,0:0:0:0:
384,96,50879,1,8,0:0:0:0:
384,96,51629,1,8,0:0:0:0:
128,96,52004,1,0,0:0:0:0:
384,96,52379,1,8,0:0:0:0:
384,96,53129,1,8,0:0:0:0:
128,96,53879,1,0,0:0:0:0:
384,96,54629,1,8,0:0:0:0:
384,288,56129,1,12,0:0:0:0:
384,96,56879,1,8,0:0:0:0:
128,96,57629,1,0,0:0:0:0:
384,96,58004,1,8,0:0:0:0:
128,96,58379,1,0,0:0:0:0:
384,96,59129,1,8,0:0:0:0:
384,96,59879,1,8,0:0:0:0:
128,96,60629,1,0,0:0:0:0:
128,96,61004,1,0,0:0:0:0:
384,96,61379,1,8,0:0:0:0:
128,288,62129,1,4,0:0:0:0:
128,288,62879,1,4,0:0:0:0:
384,96,63629,1,8,0:0:0:0:
128,96,64004,1,0,0:0:0:0:
384,96,64379,1,8,0:0:0:0:
128,96,65129,1,0,0:0:0:0:
384,96,65879,1,8,0:0:0:0:
384,96,66254,1,8,0:0:0:0:
128,96,66629,1,0,0:0:0:0:
384,96,67379,1,8,0:0:0:0:
128,96,68129,1,0,0:0:0:0:
128,96,68879,1,0,0:0:0:0:
384,96,69629,1,8,0:0:0:0:
384,96,70754,1,8,0:0:0:0:
128,96,71129,1,0,0:0:0:0:
128,96,71879,1,0,0:0:0:0:
384,96,72629,1,8,0:0:0:0:
384,96,73754,1,8,0:0:0:0:
128,288,74129,1,4,0:0:0:0:
384,96,74879,1,8,0:0:0:0:
128,96,75629,1,0,0:0:0:0:
128,96,76004,1,0,0:0:0:0:
384,96,76379,1,8,0:0:0:0:
128,96,77129,1,0,0:0:0:0:
384,96,77504,1,8,0:0:0:0:
128,96,77879,1,0,0:0:0:0:
384,288,78629,1,12,0:0:0:0:
128,288,80129,1,4,0:0:0:0:
384,96,80879,1,8,0:0:0:0:
384,96,81629,1,8,0:0:0:0:
128,96,82004,1,0,0:0:0:0:
384,96,82379,1,8,0:0:0:0:
128,96,83129,1,0,0:0:0:0:
128,96,83504,1,0,0:0:0:0:
384,96,83879,1,8,0:0:0:0:
384,288,84629,1,12,0:0:0:0:
128,96,85379,1,0,0:0:0:0:
128,288,86129,1,4,0:0:0:0:
256,192,86316,12,0,87629,0:0:0:0:
