osu file format v14

[General]
AudioFilename: audio.mp3
AudioLeadIn: 0
PreviewTime: 43277
Countdown: 0
SampleSet: Normal
StackLeniency: 0.7
Mode: 1
LetterboxInBreaks: 0
WidescreenStoryboard: 0

[Editor]
DistanceSpacing: 0.6
BeatDivisor: 4
GridSize: 32
TimelineZoom: 1.8

[Metadata]
Title:Spatto! Spy & Spyce (TV Size)
TitleUnicode:スパッと!スパイ&スパイス (TV Size)
Artist:Tsukikage
ArtistUnicode:ツキカゲ
Creator:Fleure De Lapin
Version:Inner Oni
Source:RELEASE THE SPYCE
Tags:anime opening Yukari Anzai Manami Numakura Akane Fujita Aya Suzaki Yuri Noguchi Aya Uchida スパッと!スパイ&スパイス/Hide & Seek Japanese リリスパ OP 安齋由香里 沼倉愛美 藤田茜 洲崎綾 のぐちゆり 内田彩 PONY CANYON franklin_dejavu fdjv Luqua yuki_momoiro722
BeatmapID:2203997
BeatmapSetID:1054806

[Difficulty]
HPDrainRate:6
CircleSize:5.2
OverallDifficulty:6
ApproachRate:9.8
SliderMultiplier:1.4
SliderTickRate:1

[Events]
//Background and Video events
0,0,"latarbelakang.jpg",0,70
//Break Periods
//Storyboard Layer 0 (Background)
//Storyboard Layer 1 (Fail)
//Storyboard Layer 2 (Pass)
//Storyboard Layer 3 (Foreground)
//Storyboard Layer 4 (Overlay)
//Storyboard Sound Samples

[TimingPoints]
629,375,4,1,0,80,1,0
629,-91.743119266055,4,1,0,80,0,0
816,-92.5925925925926,4,1,0,80,0,0
910,-93.4579439252336,4,1,0,80,0,0
1004,-94.3396226415094,4,1,0,80,0,0
1191,-95.2380952380952,4,1,0,80,0,0
1379,-97.0873786407767,4,1,0,80,0,0
1504,-99.009900990099,4,1,0,80,0,0
1629,-101.010101010101,4,1,0,80,0,0
1754,-103.092783505155,4,1,0,80,0,0
1879,-105.263157894737,4,1,0,80,0,0
2004,-107.52688172043,4,1,0,80,0,0
2129,-109.89010989011,4,1,0,80,0,0
2254,-112.359550561798,4,1,0,80,0,0
2379,-114.942528735632,4,1,0,80,0,0
2504,-117.647058823529,4,1,0,80,0,0
2629,-120.481927710843,4,1,0,80,0,0
2754,-123.456790123457,4,1,0,80,0,0
2879,-126.582278481013,4,1,0,80,0,0
3066,-129.87012987013,4,1,0,70,0,0
4566,-100,4,1,0,80,0,0
17129,-100,4,1,0,70,0,0
18629,-100,4,1,0,80,0,0
30066,-101.010101010101,4,1,0,80,0,0
30160,-102.040816326531,4,1,0,80,0,0
30254,-103.092783505155,4,1,0,80,0,0
30347,-104.166666666667,4,1,0,80,0,0
30441,-105.263157894737,4,1,0,80,0,0
30535,-106.382978723404,4,1,0,80,0,0
30629,-107.52688172043,4,1,0,80,0,0
36441,-105.263157894737,4,1,0,80,0,0
36535,-102.564102564103,4,1,0,80,0,0
36629,-100,4,1,0,80,0,0
44129,-93.4579439252336,4,1,0,90,0,1
68129,-100,4,1,0,85,0,0
80129,-93.4579439252336,4,1,0,90,0,1
86129,-100,4,1,0,90,0,0
86316,-100,4,1,0,70,0,0
87441,-100,4,1,0,70,0,0
87629,-83.3333333333333,4,1,0,90,0,0

[HitObjects]
128,288,629,5,4,0:0:0:0:
128,96,816,1,0,0:0:0:0:
128,96,910,1,0,0:0:0:0:
384,96,1004,1,8,0:0:0:0:
128,96,1191,1,0,0:0:0:0:
384,96,1379,1,8,0:0:0:0:
128,96,1504,1,0,0:0:0:0:
384,96,1629,1,8,0:0:0:0:
384,96,1754,1,8,0:0:0:0:
128,96,1879,1,0,0:0:0:0:
128,96,2004,1,0,0:0:0:0:
384,96,2129,1,8,0:0:0:0:
128,96,2254,1,0,0:0:0:0:
384,96,2379,1,8,0:0:0:0:
384,96,2504,1,8,0:0:0:0:
128,96,2629,1,0,0:0:0:0:
128,96,2754,1,0,0:0:0:0:
384,288,2879,1,12,0:0:0:0:
256,192,3066,12,0,4379,0:0:0:0:
128,96,4566,5,0,0:0:0:0:
128,96,4629,1,0,0:0:0:0:
128,96,4691,1,0,0:0:0:0:
384,96,4754,1,8,0:0:0:0:
128,288,5129,1,4,0:0:0:0:
128,96,5316,1,0,0:0:0:0:
128,96,5410,1,0,0:0:0:0:
384,96,5504,1,8,0:0:0:0:
384,96,5597,1,8,0:0:0:0:
128,96,5691,1,0,0:0:0:0:
384,96,5879,1,8,0:0:0:0:
384,96,5972,1,8,0:0:0:0:
128,96,6066,1,0,0:0:0:0:
384,96,6160,1,8,0:0:0:0:
384,96,6254,1,8,0:0:0:0:
384,96,6347,1,8,0:0:0:0:
128,96,6441,1,0,0:0:0:0:
128,96,6535,1,0,0:0:0:0:
384,96,6629,1,8,0:0:0:0:
384,96,6816,1,8,0:0:0:0:
384,96,7004,1,8,0:0:0:0:
128,96,7097,1,0,0:0:0:0:
384,96,7191,1,8,0:0:0:0:
384,96,7379,1,8,0:0:0:0:
384,96,7472,1,8,0:0:0:0:
128,96,7566,1,0,0:0:0:0:
128,96,7660,1,0,0:0:0:0:
384,96,7754,1,8,0:0:0:0:
384,96,7847,1,8,0:0:0:0:
384,96,7941,1,8,0:0:0:0:
128,96,8035,1,0,0:0:0:0:
384,96,8129,1,8,0:0:0:0:
128,96,8316,1,0,0:0:0:0:
128,96,8410,1,0,0:0:0:0:
384,96,8504,1,8,0:0:0:0:
384,96,8597,1,8,0:0:0:0:
128,96,8691,1,0,0:0:0:0:
384,96,8879,1,8,0:0:0:0:
384,96,8972,1,8,0:0:0:0:
128,96,9066,1,0,0:0:0:0:
384,96,9160,1,8,0:0:0:0:
384,96,9254,1,8,0:0:0:0:
128,96,9347,1,0,0:0:0:0:
128,96,9441,1,0,0:0:0:0:
384,288,9629,1,12,0:0:0:0:
384,96,9910,1,8,0:0:0:0:
128,96,10191,1,0,0:0:0:0:
384,96,10379,1,8,0:0:0:0:
128,96,10566,1,0,0:0:0:0:
128,96,10629,1,0,0:0:0:0:
128,96,10691,1,0,0:0:0:0:
384,96,10754,1,8,0:0:0:0:
128,288,11129,1,4,0:0:0:0:
128,96,11316,1,0,0:0:0:0:
128,96,11410,1,0,0:0:0:0:
384,96,11504,1,8,0:0:0:0:
384,96,11597,1,8,0:0:0:0:
128,96,11691,1,0,0:0:0:0:
384,96,11879,1,8,0:0:0:0:
384,96,11972,1,8,0:0:0:0:
128,96,12066,1,0,0:0:0:0:
384,96,12160,1,8,0:0:0:0:
384,96,12254,1,8,0:0:0:0:
384,96,12347,1,8,0:0:0:0:
128,96,12441,1,0,0:0:0:0:
128,96,12535,1,0,0:0:0:0:
384,96,12629,1,8,0:0:0:0:
384,96,12816,1,8,0:0:0:0:
384,96,13004,1,8,0:0:0:0:
128,96,13097,1,0,0:0:0:0:
384,96,13191,1,8,0:0:0:0:
384,96,13379,1,8,0:0:0:0:
384,96,13472,1,8,0:0:0:0:
128,96,13566,1,0,0:0:0:0:
128,96,13660,1,0,0:0:0:0:
384,96,13754,1,8,0:0:0:0:
384,96,13847,1,8,0:0:0:0:
384,96,13941,1,8,0:0:0:0:
128,96,14035,1,0,0:0:0:0:
384,96,14129,1,8,0:0:0:0:
128,96,14316,1,0,0:0:0:0:
128,96,14410,1,0,0:0:0:0:
384,96,14504,1,8,0:0:0:0:
384,96,14597,1,8,0:0:0:0:
128,96,14691,1,0,0:0:0:0:
384,96,14879,1,8,0:0:0:0:
384,96,14972,1,8,0:0:0:0:
128,96,15066,1,0,0:0:0:0:
384,96,15160,1,8,0:0:0:0:
384,96,15254,1,8,0:0:0:0:
128,96,15347,1,0,0:0:0:0:
128,96,15441,1,0,0:0:0:0:
384,288,15629,1,12,0:0:0:0:
384,96,15910,1,8,0:0:0:0:
128,96,16191,1,0,0:0:0:0:
384,96,16379,1,8,0:0:0:0:
128,96,16566,1,0,0:0:0:0:
384,96,16660,1,8,0:0:0:0:
384,96,16941,1,8,0:0:0:0:
128,96,17129,1,0,0:0:0:0:
128,96,17410,1,0,0:0:0:0:
128,96,17597,1,0,0:0:0:0:
128,96,17785,1,0,0:0:0:0:
128,96,17972,1,0,0:0:0:0:
128,96,18066,1,0,0:0:0:0:
128,96,18160,1,0,0:0:0:0:
128,96,18254,1,0,0:0:0:0:
384,96,18316,1,8,0:0:0:0:
384,96,18379,1,8,0:0:0:0:
384,96,18441,1,8,0:0:0:0:
384,96,18504,1,8,0:0:0:0:
384,96,18566,1,8,0:0:0:0:
128,96,18629,1,0,0:0:0:0:
128,96,19004,1,0,0:0:0:0:
384,96,19379,1,8,0:0:0:0:
128,96,19754,1,0,0:0:0:0:
384,96,20129,1,8,0:0:0:0:
128,96,20316,1,0,0:0:0:0:
384,96,20504,1,8,0:0:0:0:
384,96,20691,1,8,0:0:0:0:
384,96,20785,1,8,0:0:0:0:
128,96,20879,1,0,0:0:0:0:
128,96,21066,1,0,0:0:0:0:
128,96,21254,1,0,0:0:0:0:
128,96,21347,1,0,0:0:0:0:
128,96,21441,1,0,0:0:0:0:
128,96,21535,1,0,0:0:0:0:
384,96,21629,1,8,0:0:0:0:
128,96,21816,1,0,0:0:0:0:
128,96,21910,1,0,0:0:0:0:
384,96,22004,1,8,0:0:0:0:
384,96,22191,1,8,0:0:0:0:
384,96,22379,1,8,0:0:0:0:
384,96,22472,1,8,0:0:0:0:
128,96,22566,1,0,0:0:0:0:
384,96,22660,1,8,0:0:0:0:
384,96,22754,1,8,0:0:0:0:
384,96,22847,1,8,0:0:0:0:
128,96,22941,1,0,0:0:0:0:
128,96,23035,1,0,0:0:0:0:
384,96,23129,1,8,0:0:0:0:
384,96,23316,1,8,0:0:0:0:
384,96,23504,1,8,0:0:0:0:
128,96,23597,1,0,0:0:0:0:
384,96,23691,1,8,0:0:0:0:
384,96,23879,1,8,0:0:0:0:
384,96,23972,1,8,0:0:0:0:
128,96,24066,1,0,0:0:0:0:
128,96,24160,1,0,0:0:0:0:
384,96,24254,1,8,0:0:0:0:
384,96,24347,1,8,0:0:0:0:
128,96,24441,1,0,0:0:0:0:
384,96,24535,1,8,0:0:0:0:
128,96,24629,1,0,0:0:0:0:
128,96,25004,1,0,0:0:0:0:
384,96,25379,1,8,0:0:0:0:
128,96,25754,1,0,0:0:0:0:
384,96,26129,1,8,0:0:0:0:
128,96,26504,1,0,0:0:0:0:
384,96,26879,1,8,0:0:0:0:
128,96,27066,1,0,0:0:0:0:
128,96,27254,1,0,0:0:0:0:
128,96,27347,1,0,0:0:0:0:
128,96,27441,1,0,0:0:0:0:
128,96,27535,1,0,0:0:0:0:
384,96,27629,1,8,0:0:0:0:
128,96,27816,1,0,0:0:0:0:
128,96,27910,1,0,0:0:0:0:
384,96,28004,1,8,0:0:0:0:
384,96,28191,1,8,0:0:0:0:
384,96,28379,1,8,0:0:0:0:
384,96,28472,1,8,0:0:0:0:
128,96,28566,1,0,0:0:0:0:
384,96,28660,1,8,0:0:0:0:
384,96,28754,1,8,0:0:0:0:
128,96,28847,1,0,0:0:0:0:
128,96,28941,1,0,0:0:0:0:
128,96,29035,1,0,0:0:0:0:
384,96,29129,1,8,0:0:0:0:
384,96,29316,1,8,0:0:0:0:
384,96,29504,1,8,0:0:0:0:
128,96,29597,1,0,0:0:0:0:
384,96,29691,1,8,0:0:0:0:
384,96,29785,1,8,0:0:0:0:
128,96,29879,1,0,0:0:0:0:
384,96,29972,1,8,0:0:0:0:
128,96,30066,1,0,0:0:0:0:
128,96,30160,1,0,0:0:0:0:
384,96,30254,1,8,0:0:0:0:
128,96,30347,1,0,0:0:0:0:
128,96,30441,1,0,0:0:0:0:
128,96,30535,1,0,0:0:0:0:
384,96,30629,1,8,0:0:0:0:
128,96,31004,1,0,0:0:0:0:
384,96,31191,1,8,0:0:0:0:
128,96,31379,1,0,0:0:0:0:
128,96,31566,1,0,0:0:0:0:
384,96,31754,1,8,0:0:0:0:
384,96,31941,1,8,0:0:0:0:
128,96,32129,1,0,0:0:0:0:
128,96,32504,1,0,0:0:0:0:
384,96,32691,1,8,0:0:0:0:
384,96,32879,1,8,0:0:0:0:
128,96,33066,1,0,0:0:0:0:
384,96,33254,1,8,0:0:0:0:
384,96,33441,1,8,0:0:0:0:
128,96,33629,1,0,0:0:0:0:
128,96,34004,1,0,0:0:0:0:
384,96,34191,1,8,0:0:0:0:
128,96,34379,1,0,0:0:0:0:
128,96,34566,1,0,0:0:0:0:
384,96,34754,1,8,0:0:0:0:
128,96,34941,1,0,0:0:0:0:
384,96,35129,1,8,0:0:0:0:
128,96,35504,1,0,0:0:0:0:
384,96,35691,1,8,0:0:0:0:
384,96,35879,1,8,0:0:0:0:
128,96,36066,1,0,0:0:0:0:
384,96,36254,1,8,0:0:0:0:
128,96,36441,1,0,0:0:0:0:
128,96,36535,1,0,0:0:0:0:
384,96,36629,1,8,0:0:0:0:
128,96,36816,1,0,0:0:0:0:
384,288,37004,1,12,0:0:0:0:
128,96,37379,1,0,0:0:0:0:
128,96,37566,1,0,0:0:0:0:
384,288,37754,1,12,0:0:0:0:
128,96,38129,1,0,0:0:0:0:
128,96,38316,1,0,0:0:0:0:
384,288,38504,1,12,0:0:0:0:
384,96,38691,1,8,0:0:0:0:
384,96,38785,1,8,0:0:0:0:
128,96,38879,1,0,0:0:0:0:
128,96,39066,1,0,0:0:0:0:
128,96,39160,1,0,0:0:0:0:
384,96,39254,1,8,0:0:0:0:
384,96,39347,1,8,0:0:0:0:
128,96,39441,1,0,0:0:0:0:
384,288,39629,1,12,0:0:0:0:
128,96,39816,1,0,0:0:0:0:
128,96,39910,1,0,0:0:0:0:
384,96,40004,1,8,0:0:0:0:
128,96,40191,1,0,0:0:0:0:
128,96,40285,1,0,0:0:0:0:
384,96,40379,1,8,0:0:0:0:
384,96,40472,1,8,0:0:0:0:
128,96,40566,1,0,0:0:0:0:
128,96,40660,1,0,0:0:0:0:
384,96,40754,1,8,0:0:0:0:
128,96,40941,1,0,0:0:0:0:
128,96,41035,1,0,0:0:0:0:
384,96,41129,1,8,0:0:0:0:
384,96,41222,1,8,0:0:0:0:
128,96,41316,1,0,0:0:0:0:
128,96,41410,1,0,0:0:0:0:
384,96,41504,1,8,0:0:0:0:
384,96,41691,1,8,0:0:0:0:
384,96,41785,1,8,0:0:0:0:
128,96,41879,1,0,0:0:0:0:
128,96,41941,1,0,0:0:0:0:
128,96,42004,1,0,0:0:0:0:
384,96,42066,1,8,0:0:0:0:
128,96,42160,1,0,0:0:0:0:
384,96,42254,1,8,0:0:0:0:
384,96,42347,1,8,0:0:0:0:
384,96,42441,1,8,0:0:0:0:
128,96,42535,1,0,0:0:0:0:
384,96,43379,1,8,0:0:0:0:
128,96,43566,1,0,0:0:0:0:
128,96,43660,1,0,0:0:0:0:
384,96,43754,1,8,0:0:0:0:
384,288,44129,1,12,0:0:0:0:
384,96,44316,1,8,0:0:0:0:
384,96,44410,1,8,0:0:0:0:
128,96,44504,1,0,0:0:0:0:
384,96,44691,1,8,0:0:0:0:
128,96,44785,1,0,0:0:0:0:
384,96,44879,1,8,0:0:0:0:
128,96,44972,1,0,0:0:0:0:
384,96,45066,1,8,0:0:0:0:
384,96,45160,1,8,0:0:0:0:
128,96,45254,1,0,0:0:0:0:
384,96,45441,1,8,0:0:0:0:
128,96,45629,1,0,0:0:0:0:
128,96,45722,1,0,0:0:0:0:
384,96,45816,1,8,0:0:0:0:
128,96,45910,1,0,0:0:0:0:
384,96,46004,1,8,0:0:0:0:
384,96,46191,1,8,0:0:0:0:
384,96,46379,1,8,0:0:0:0:
384,96,46472,1,8,0:0:0:0:
128,96,46566,1,0,0:0:0:0:
384,96,46660,1,8,0:0:0:0:
384,96,46754,1,8,0:0:0:0:
128,96,46847,1,0,0:0:0:0:
128,96,46941,1,0,0:0:0:0:
384,96,47129,1,8,0:0:0:0:
384,96,47316,1,8,0:0:0:0:
384,96,47410,1,8,0:0:0:0:
128,96,47504,1,0,0:0:0:0:
128,96,47691,1,0,0:0:0:0:
128,96,47785,1,0,0:0:0:0:
384,96,47879,1,8,0:0:0:0:
384,96,47972,1,8,0:0:0:0:
128,96,48066,1,0,0:0:0:0:
384,96,48254,1,8,0:0:0:0:
128,96,48441,1,0,0:0:0:0:
128,96,48535,1,0,0:0:0:0:
384,96,48629,1,8,0:0:0:0:
128,96,48816,1,0,0:0:0:0:
384,96,48910,1,8,0:0:0:0:
384,96,49004,1,8,0:0:0:0:
384,96,49191,1,8,0:0:0:0:
128,96,49285,1,0,0:0:0:0:
384,96,49379,1,8,0:0:0:0:
384,96,49566,1,8,0:0:0:0:
128,96,49660,1,0,0:0:0:0:
384,96,49754,1,8,0:0:0:0:
384,96,49847,1,8,0:0:0:0:
128,96,49941,1,0,0:0:0:0:
128,96,50035,1,0,0:0:0:0:
384,96,50129,1,8,0:0:0:0:
384,96,50316,1,8,0:0:0:0:
128,96,50504,1,0,0:0:0:0:
384,96,50597,1,8,0:0:0:0:
128,96,50691,1,0,0:0:0:0:
384,96,50879,1,8,0:0:0:0:
384,96,50972,1,8,0:0:0:0:
128,96,51066,1,0,0:0:0:0:
128,96,51160,1,0,0:0:0:0:
384,96,51254,1,8,0:0:0:0:
128,96,51441,1,0,0:0:0:0:
384,96,51629,1,8,0:0:0:0:
384,96,51722,1,8,0:0:0:0:
128,96,51816,1,0,0:0:0:0:
384,96,52004,1,8,0:0:0:0:
128,96,52097,1,0,0:0:0:0:
384,96,52191,1,8,0:0:0:0:
384,96,52285,1,8,0:0:0:0:
128,96,52379,1,0,0:0:0:0:
128,96,52566,1,0,0:0:0:0:
128,96,52660,1,0,0:0:0:0:
384,96,52754,1,8,0:0:0:0:
384,96,52847,1,8,0:0:0:0:
128,96,52941,1,0,0:0:0:0:
384,96,53129,1,8,0:0:0:0:
128,96,53316,1,0,0:0:0:0:
128,96,53410,1,0,0:0:0:0:
384,96,53504,1,8,0:0:0:0:
128,96,53691,1,0,0:0:0:0:
384,96,53879,1,8,0:0:0:0:
128,96,54066,1,0,0:0:0:0:
128,96,54160,1,0,0:0:0:0:
384,96,54254,1,8,0:0:0:0:
128,96,54441,1,0,0:0:0:0:
384,96,54629,1,8,0:0:0:0:
128,96,54816,1,0,0:0:0:0:
384,96,54910,1,8,0:0:0:0:
384,96,55004,1,8,0:0:0:0:
384,96,55191,1,8,0:0:0:0:
128,96,55285,1,0,0:0:0:0:
384,96,55379,1,8,0:0:0:0:
128,96,55472,1,0,0:0:0:0:
128,96,55566,1,0,0:0:0:0:
384,96,55660,1,8,0:0:0:0:
384,96,55754,1,8,0:0:0:0:
384,96,55847,1,8,0:0:0:0:
128,96,55941,1,0,0:0:0:0:
384,288,56129,1,12,0:0:0:0:
128,96,56316,1,0,0:0:0:0:
384,96,56504,1,8,0:0:0:0:
128,96,56597,1,0,0:0:0:0:
128,96,56691,1,0,0:0:0:0:
384,96,56879,1,8,0:0:0:0:
384,96,56972,1,8,0:0:0:0:
128,96,57066,1,0,0:0:0:0:
128,96,57160,1,0,0:0:0:0:
384,96,57254,1,8,0:0:0:0:
384,96,57347,1,8,0:0:0:0:
128,96,57441,1,0,0:0:0:0:
384,96,57629,1,8,0:0:0:0:
128,96,57816,1,0,0:0:0:0:
128,96,57910,1,0,0:0:0:0:
384,96,58004,1,8,0:0:0:0:
128,96,58191,1,0,0:0:0:0:
384,96,58379,1,8,0:0:0:0:
128,96,58472,1,0,0:0:0:0:
128,96,58566,1,0,0:0:0:0:
384,96,58660,1,8,0:0:0:0:
384,96,58754,1,8,0:0:0:0:
384,96,58847,1,8,0:0:0:0:
128,96,58941,1,0,0:0:0:0:
128,96,59035,1,0,0:0:0:0:
384,96,59129,1,8,0:0:0:0:
128,96,59316,1,0,0:0:0:0:
128,96,59410,1,0,0:0:0:0:
384,96,59504,1,8,0:0:0:0:
384,96,59691,1,8,0:0:0:0:
384,96,59785,1,8,0:0:0:0:
128,96,59879,1,0,0:0:0:0:
128,96,59972,1,0,0:0:0:0:
384,96,60066,1,8,0:0:0:0:
384,96,60160,1,8,0:0:0:0:
128,96,60254,1,0,0:0:0:0:
128,96,60441,1,0,0:0:0:0:
384,96,60629,1,8,0:0:0:0:
128,96,60816,1,0,0:0:0:0:
128,96,60910,1,0,0:0:0:0:
384,96,61004,1,8,0:0:0:0:
384,96,61191,1,8,0:0:0:0:
384,96,61285,1,8,0:0:0:0:
128,96,61379,1,0,0:0:0:0:
128,96,61566,1,0,0:0:0:0:
128,96,61660,1,0,0:0:0:0:
384,96,61754,1,8,0:0:0:0:
384,96,61847,1,8,0:0:0:0:
128,96,61941,1,0,0:0:0:0:
128,288,62129,1,4,0:0:0:0:
128,96,62316,1,0,0:0:0:0:
128,96,62410,1,0,0:0:0:0:
384,96,62504,1,8,0:0:0:0:
128,96,62597,1,0,0:0:0:0:
128,96,62691,1,0,0:0:0:0:
128,96,62785,1,0,0:0:0:0:
384,96,62879,1,8,0:0:0:0:
128,96,63066,1,0,0:0:0:0:
128,96,63160,1,0,0:0:0:0:
128,96,63254,1,0,0:0:0:0:
128,96,63441,1,0,0:0:0:0:
128,96,63535,1,0,0:0:0:0:
384,96,63629,1,8,0:0:0:0:
384,96,63816,1,8,0:0:0:0:
384,96,63910,1,8,0:0:0:0:
128,96,64004,1,0,0:0:0:0:
384,96,64191,1,8,0:0:0:0:
384,96,64285,1,8,0:0:0:0:
128,96,64379,1,0,0:0:0:0:
128,96,64566,1,0,0:0:0:0:
384,96,64660,1,8,0:0:0:0:
384,96,64754,1,8,0:0:0:0:
128,96,64941,1,0,0:0:0:0:
128,96,65035,1,0,0:0:0:0:
384,96,65129,1,8,0:0:0:0:
128,96,65222,1,0,0:0:0:0:
128,96,65316,1,0,0:0:0:0:
128,96,65410,1,0,0:0:0:0:
384,96,65504,1,8,0:0:0:0:
384,96,65691,1,8,0:0:0:0:
384,96,65879,1,8,0:0:0:0:
128,96,65972,1,0,0:0:0:0:
128,96,66160,1,0,0:0:0:0:
384,96,66254,1,8,0:0:0:0:
128,96,66441,1,0,0:0:0:0:
384,96,66629,1,8,0:0:0:0:
128,96,66722,1,0,0:0:0:0:
128,96,66910,1,0,0:0:0:0:
384,96,67004,1,8,0:0:0:0:
128,96,67191,1,0,0:0:0:0:
128,96,67285,1,0,0:0:0:0:
384,96,67379,1,8,0:0:0:0:
128,96,67472,1,0,0:0:0:0:
128,96,67566,1,0,0:0:0:0:
128,96,67660,1,0,0:0:0:0:
384,96,67754,1,8,0:0:0:0:
128,96,67847,1,0,0:0:0:0:
128,96,67941,1,0,0:0:0:0:
384,96,68129,1,8,0:0:0:0:
384,96,68879,1,8,0:0:0:0:
384,96,69629,1,8,0:0:0:0:
128,96,69910,1,0,0:0:0:0:
128,96,70191,1,0,0:0:0:0:
384,96,70379,1,8,0:0:0:0:
384,96,70754,1,8,0:0:0:0:
384,96,70816,1,8,0:0:0:0:
384,96,70879,1,8,0:0:0:0:
128,96,70941,1,0,0:0:0:0:
384,96,71129,1,8,0:0:0:0:
128,96,71504,1,0,0:0:0:0:
384,96,71879,1,8,0:0:0:0:
128,96,72254,1,0,0:0:0:0:
384,96,72629,1,8,0:0:0:0:
384,96,72910,1,8,0:0:0:0:
128,96,73191,1,0,0:0:0:0:
384,96,73379,1,8,0:0:0:0:
128,96,73566,1,0,0:0:0:0:
128,96,73629,1,0,0:0:0:0:
128,96,73691,1,0,0:0:0:0:
384,96,73754,1,8,0:0:0:0:
128,288,74129,1,4,0:0:0:0:
128,96,74316,1,0,0:0:0:0:
128,96,74410,1,0,0:0:0:0:
384,96,74504,1,8,0:0:0:0:
384,96,74597,1,8,0:0:0:0:
128,96,74691,1,0,0:0:0:0:
384,96,74879,1,8,0:0:0:0:
384,96,74972,1,8,0:0:0:0:
128,96,75066,1,0,0:0:0:0:
384,96,75160,1,8,0:0:0:0:
384,96,75254,1,8,0:0:0:0:
384,96,75347,1,8,0:0:0:0:
128,96,75441,1,0,0:0:0:0:
128,96,75535,1,0,0:0:0:0:
384,96,75629,1,8,0:0:0:0:
384,96,75816,1,8,0:0:0:0:
384,96,76004,1,8,0:0:0:0:
128,96,76097,1,0,0:0:0:0:
384,96,76191,1,8,0:0:0:0:
384,96,76379,1,8,0:0:0:0:
384,96,76472,1,8,0:0:0:0:
128,96,76566,1,0,0:0:0:0:
128,96,76660,1,0,0:0:0:0:
384,96,76754,1,8,0:0:0:0:
384,96,76847,1,8,0:0:0:0:
384,96,76941,1,8,0:0:0:0:
128,96,77035,1,0,0:0:0:0:
384,96,77129,1,8,0:0:0:0:
128,96,77316,1,0,0:0:0:0:
128,96,77410,1,0,0:0:0:0:
384,96,77504,1,8,0:0:0:0:
384,96,77691,1,8,0:0:0:0:
384,96,77879,1,8,0:0:0:0:
384,96,77972,1,8,0:0:0:0:
128,96,78066,1,0,0:0:0:0:
384,96,78160,1,8,0:0:0:0:
384,96,78254,1,8,0:0:0:0:
128,96,78347,1,0,0:0:0:0:
128,96,78441,1,0,0:0:0:0:
384,288,78629,1,12,0:0:0:0:
384,96,78910,1,8,0:0:0:0:
128,96,79191,1,0,0:0:0:0:
384,96,79379,1,8,0:0:0:0:
128,96,79566,1,0,0:0:0:0:
128,96,79629,1,0,0:0:0:0:
128,96,79691,1,0,0:0:0:0:
384,96,79754,1,8,0:0:0:0:
128,288,80129,1,4,0:0:0:0:
128,96,80316,1,0,0:0:0:0:
128,96,80410,1,0,0:0:0:0:
384,96,80504,1,8,0:0:0:0:
128,96,80597,1,0,0:0:0:0:
384,96,80691,1,8,0:0:0:0:
128,96,80785,1,0,0:0:0:0:
384,96,80879,1,8,0:0:0:0:
384,96,80972,1,8,0:0:0:0:
128,96,81066,1,0,0:0:0:0:
384,96,81160,1,8,0:0:0:0:
384,96,81254,1,8,0:0:0:0:
384,96,81347,1,8,0:0:0:0:
128,96,81441,1,0,0:0:0:0:
128,96,81535,1,0,0:0:0:0:
384,96,81629,1,8,0:0:0:0:
128,96,81722,1,0,0:0:0:0:
384,96,81816,1,8,0:0:0:0:
128,96,81910,1,0,0:0:0:0:
384,96,82004,1,8,0:0:0:0:
128,96,82097,1,0,0:0:0:0:
384,96,82191,1,8,0:0:0:0:
128,96,82285,1,0,0:0:0:0:
384,96,82379,1,8,0:0:0:0:
384,96,82472,1,8,0:0:0:0:
128,96,82566,1,0,0:0:0:0:
128,96,82660,1,0,0:0:0:0:
384,96,82754,1,8,0:0:0:0:
384,96,82847,1,8,0:0:0:0:
384,96,82941,1,8,0:0:0:0:
128,96,83035,1,0,0:0:0:0:
384,96,83129,1,8,0:0:0:0:
128,96,83316,1,0,0:0:0:0:
128,96,83410,1,0,0:0:0:0:
384,96,83504,1,8,0:0:0:0:
128,96,83597,1,0,0:0:0:0:
384,96,83691,1,8,0:0:0:0:
384,96,83879,1,8,0:0:0:0:
384,96,83972,1,8,0:0:0:0:
128,96,84066,1,0,0:0:0:0:
384,96,84160,1,8,0:0:0:0:
384,96,84254,1,8,0:0:0:0:
128,96,84347,1,0,0:0:0:0:
128,96,84441,1,0,0:0:0:0:
384,288,84629,1,12,0:0:0:0:
128,96,84816,1,0,0:0:0:0:
384,96,84910,1,8,0:0:0:0:
128,96,85097,1,0,0:0:0:0:
128,96,85191,1,0,0:0:0:0:
128,96,85285,1,0,0:0:0:0:
384,96,85379,1,8,0:0:0:0:
128,96,85472,1,0,0:0:0:0:
128,96,85566,1,0,0:0:0:0:
384,96,85660,1,8,0:0:0:0:
128,96,85754,1,0,0:0:0:0:
128,96,85847,1,0,0:0:0:0:
384,96,85941,1,8,0:0:0:0:
128,288,86129,1,4,0:0:0:0:
256,192,86316,12,0,87441,0:0:0:0:
384,288,87629,5,12,0:0:0:0:
