osu file format v14

[General]
AudioFilename: supapaparappa.mp3
AudioLeadIn: 0
PreviewTime: 43872
Countdown: 0
SampleSet: Soft
StackLeniency: 0.7
Mode: 3
LetterboxInBreaks: 0
SpecialStyle: 0
WidescreenStoryboard: 0

[Editor]
Bookmarks: 22310,74810,80810,91310,113060,137810,143810,149810,161810,167810,173810,179810,185810,187310
DistanceSpacing: 0.6
BeatDivisor: 4
GridSize: 32
TimelineZoom: 1.5

[Metadata]
Title:Spatto! Spy & Spyce
TitleUnicode:スパッと!スパイ&スパイス
Artist:Tsukikage
ArtistUnicode:月影
Creator:Shiina Yuuki
Version:Tsukikage
Source:RELEASE THE SPYCE
Tags:ramli ln longnote anime opening moe spies spice spy ツキカゲ Tsukikage hige driver ヒゲドライバー Anzai Yukari Numakura Manami Fujita Akane Suzaki Aya Noguchi Yuri Uchida Aya 安齋由香里 沼倉愛美 藤田茜 洲崎綾 のぐちゆり 内田彩 shoujo ai
BeatmapID:1872814
BeatmapSetID:896408

[Difficulty]
HPDrainRate:8
CircleSize:4
OverallDifficulty:0
ApproachRate:5
SliderMultiplier:1.8
SliderTickRate:1

[Events]
//Background and Video events
0,0,"__hanzoumon_yuki_and_minamoto_momo_release_the_spyce_and_etc_drawn_by_nagasaku_tomokatsu__650cd8d50632718063158c40d1d702fd.jpg",0,0
//Break Periods
//Storyboard Layer 0 (Background)
//Storyboard Layer 1 (Fail)
//Storyboard Layer 2 (Pass)
//Storyboard Layer 3 (Foreground)
//Storyboard Sound Samples

[TimingPoints]
1310,375,4,2,1,20,1,0
44810,-100,4,2,1,20,0,1
68810,-100,4,2,1,20,0,0
113810,-100,4,2,1,20,0,1
137810,-100,4,2,1,20,0,0
199310,-100,4,2,1,20,0,1
211310,-100,4,2,1,20,0,0
217310,-100,4,2,1,20,0,1
229310,-100,4,2,1,20,0,0

[HitObjects]
320,192,747,5,0,0:0:0:0:
448,192,747,1,0,0:0:0:0:
192,192,841,1,0,0:0:0:0:
64,192,935,1,0,0:0:0:0:
448,192,935,1,0,0:0:0:0:
320,192,1028,1,0,0:0:0:0:
192,192,1122,1,0,0:0:0:0:
64,192,1122,1,0,0:0:0:0:
320,192,1216,1,0,0:0:0:0:
448,192,1216,1,0,0:0:0:0:
320,192,1310,1,0,0:0:0:0:
448,192,1310,1,0,0:0:0:0:
64,192,1310,128,0,1403:0:0:0:0:
192,192,1310,128,0,1403:0:0:0:0:
320,192,1497,128,0,1591:0:0:0:0:
448,192,1497,128,0,1591:0:0:0:0:
192,192,1591,1,0,0:0:0:0:
64,192,1591,1,0,0:0:0:0:
64,192,1685,1,0,0:0:0:0:
192,192,1685,1,0,0:0:0:0:
320,192,1685,1,0,0:0:0:0:
448,192,1685,1,0,0:0:0:0:
64,192,1872,128,0,1966:0:0:0:0:
320,192,1872,128,0,1966:0:0:0:0:
448,192,2060,1,0,0:0:0:0:
320,192,2060,1,0,0:0:0:0:
192,192,2060,128,0,2185:0:0:0:0:
64,192,2060,128,0,2185:0:0:0:0:
320,192,2185,128,0,2310:0:0:0:0:
448,192,2185,128,0,2310:0:0:0:0:
192,192,2310,128,0,2435:0:0:0:0:
64,192,2310,128,0,2435:0:0:0:0:
320,192,2435,128,0,2560:0:0:0:0:
448,192,2435,128,0,2560:0:0:0:0:
64,192,2560,128,0,2685:0:0:0:0:
192,192,2560,128,0,2685:0:0:0:0:
448,192,2810,1,0,0:0:0:0:
320,192,2810,1,0,0:0:0:0:
192,192,2903,1,0,0:0:0:0:
64,192,2950,1,0,0:0:0:0:
320,192,2997,1,0,0:0:0:0:
448,192,3044,1,0,0:0:0:0:
192,192,3091,1,0,0:0:0:0:
64,192,3138,1,0,0:0:0:0:
448,192,3185,1,0,0:0:0:0:
320,192,3185,1,0,0:0:0:0:
192,192,3278,1,0,0:0:0:0:
64,192,3325,1,0,0:0:0:0:
320,192,3372,1,0,0:0:0:0:
448,192,3419,1,0,0:0:0:0:
64,192,3466,1,0,0:0:0:0:
192,192,3466,1,0,0:0:0:0:
64,192,3560,128,0,5060:0:0:0:0:
192,192,3560,128,0,5060:0:0:0:0:
320,192,3560,128,0,5060:0:0:0:0:
448,192,3560,128,0,5060:0:0:0:0:
64,192,5247,1,0,0:0:0:0:
192,192,5247,1,0,0:0:0:0:
320,192,5341,1,0,0:0:0:0:
448,192,5341,1,0,0:0:0:0:
64,192,5435,128,0,5622:0:0:0:0:
192,192,5435,128,0,5622:0:0:0:0:
320,192,5435,128,0,5622:0:0:0:0:
448,192,5435,128,0,5622:0:0:0:0:
192,192,5810,128,0,5997:0:0:0:0:
320,192,5810,128,0,5903:0:0:0:0:
448,192,5810,128,0,5903:0:0:0:0:
64,192,5810,128,0,6091:0:0:0:0:
320,192,5997,128,0,6091:0:0:0:0:
448,192,5997,128,0,6091:0:0:0:0:
192,192,6091,128,0,6185:0:0:0:0:
64,192,6185,128,0,6278:0:0:0:0:
320,192,6185,128,0,6372:0:0:0:0:
448,192,6185,128,0,6278:0:0:0:0:
192,192,6278,128,0,6466:0:0:0:0:
448,192,6372,128,0,6560:0:0:0:0:
64,192,6372,128,0,6466:0:0:0:0:
320,192,6466,128,0,6653:0:0:0:0:
192,192,6560,128,0,6653:0:0:0:0:
64,192,6560,128,0,6747:0:0:0:0:
448,192,6653,128,0,6841:0:0:0:0:
320,192,6747,128,0,6841:0:0:0:0:
192,192,6747,128,0,6841:0:0:0:0:
64,192,6841,128,0,6935:0:0:0:0:
192,192,6935,128,0,7028:0:0:0:0:
320,192,6935,128,0,7122:0:0:0:0:
448,192,6935,128,0,7028:0:0:0:0:
64,192,7028,128,0,7216:0:0:0:0:
192,192,7122,128,0,7216:0:0:0:0:
448,192,7122,128,0,7310:0:0:0:0:
320,192,7216,128,0,7403:0:0:0:0:
192,192,7310,128,0,7497:0:0:0:0:
64,192,7310,128,0,7403:0:0:0:0:
448,192,7403,128,0,7591:0:0:0:0:
64,192,7497,128,0,7591:0:0:0:0:
320,192,7497,128,0,7591:0:0:0:0:
192,192,7591,128,0,7685:0:0:0:0:
320,192,7685,128,0,7778:0:0:0:0:
448,192,7685,128,0,7778:0:0:0:0:
64,192,7685,128,0,7872:0:0:0:0:
192,192,7778,128,0,7966:0:0:0:0:
320,192,7872,128,0,7966:0:0:0:0:
448,192,7872,128,0,8060:0:0:0:0:
64,192,7966,128,0,8153:0:0:0:0:
192,192,8060,128,0,8153:0:0:0:0:
320,192,8060,128,0,8247:0:0:0:0:
448,192,8153,128,0,8341:0:0:0:0:
64,192,8247,128,0,8341:0:0:0:0:
192,192,8247,128,0,8341:0:0:0:0:
320,192,8341,128,0,8435:0:0:0:0:
448,192,8435,128,0,8528:0:0:0:0:
192,192,8435,128,0,8622:0:0:0:0:
64,192,8435,128,0,8528:0:0:0:0:
320,192,8528,128,0,8716:0:0:0:0:
448,192,8622,128,0,8716:0:0:0:0:
64,192,8622,128,0,8810:0:0:0:0:
192,192,8716,128,0,8903:0:0:0:0:
320,192,8810,128,0,8903:0:0:0:0:
448,192,8810,128,0,8997:0:0:0:0:
64,192,8903,128,0,9091:0:0:0:0:
192,192,8997,128,0,9091:0:0:0:0:
320,192,8997,128,0,9091:0:0:0:0:
448,192,9091,128,0,9185:0:0:0:0:
320,192,9185,128,0,9278:0:0:0:0:
192,192,9185,128,0,9278:0:0:0:0:
64,192,9185,128,0,9372:0:0:0:0:
448,192,9278,128,0,9466:0:0:0:0:
320,192,9372,128,0,9466:0:0:0:0:
192,192,9372,128,0,9560:0:0:0:0:
64,192,9466,128,0,9560:0:0:0:0:
320,192,9560,128,0,9653:0:0:0:0:
448,192,9560,128,0,9653:0:0:0:0:
192,192,9653,128,0,9747:0:0:0:0:
64,192,9653,128,0,9841:0:0:0:0:
320,192,9747,128,0,9841:0:0:0:0:
448,192,9747,128,0,9841:0:0:0:0:
192,192,9841,128,0,10028:0:0:0:0:
320,192,9935,128,0,10028:0:0:0:0:
448,192,9935,128,0,10028:0:0:0:0:
64,192,9935,128,0,10028:0:0:0:0:
64,192,10122,128,0,10216:0:0:0:0:
192,192,10122,128,0,10216:0:0:0:0:
64,192,10310,1,0,0:0:0:0:
192,192,10310,1,0,0:0:0:0:
448,192,10310,1,0,0:0:0:0:
64,192,10591,1,0,0:0:0:0:
320,192,10591,1,0,0:0:0:0:
448,192,10591,1,0,0:0:0:0:
64,192,10872,1,0,0:0:0:0:
192,192,10872,1,0,0:0:0:0:
448,192,10872,1,0,0:0:0:0:
64,192,11060,1,0,0:0:0:0:
192,192,11060,1,0,0:0:0:0:
320,192,11060,1,0,0:0:0:0:
448,192,11060,1,0,0:0:0:0:
320,192,11247,1,0,0:0:0:0:
448,192,11247,1,0,0:0:0:0:
192,192,11341,1,0,0:0:0:0:
64,192,11341,1,0,0:0:0:0:
64,192,11435,128,0,11622:0:0:0:0:
192,192,11435,128,0,11622:0:0:0:0:
320,192,11435,128,0,11622:0:0:0:0:
448,192,11435,128,0,11622:0:0:0:0:
320,192,11810,128,0,11997:0:0:0:0:
192,192,11810,128,0,11903:0:0:0:0:
64,192,11810,128,0,11903:0:0:0:0:
448,192,11810,128,0,12091:0:0:0:0:
192,192,11997,128,0,12091:0:0:0:0:
64,192,11997,128,0,12091:0:0:0:0:
320,192,12091,128,0,12185:0:0:0:0:
448,192,12185,128,0,12278:0:0:0:0:
192,192,12185,128,0,12372:0:0:0:0:
64,192,12185,128,0,12278:0:0:0:0:
320,192,12278,128,0,12466:0:0:0:0:
64,192,12372,128,0,12560:0:0:0:0:
448,192,12372,128,0,12466:0:0:0:0:
192,192,12466,128,0,12653:0:0:0:0:
320,192,12560,128,0,12653:0:0:0:0:
448,192,12560,128,0,12747:0:0:0:0:
64,192,12653,128,0,12841:0:0:0:0:
192,192,12747,128,0,12841:0:0:0:0:
320,192,12747,128,0,12841:0:0:0:0:
448,192,12841,128,0,12935:0:0:0:0:
320,192,12935,128,0,13028:0:0:0:0:
192,192,12935,128,0,13122:0:0:0:0:
64,192,12935,128,0,13028:0:0:0:0:
448,192,13028,128,0,13216:0:0:0:0:
320,192,13122,128,0,13216:0:0:0:0:
64,192,13122,128,0,13310:0:0:0:0:
192,192,13216,128,0,13403:0:0:0:0:
320,192,13310,128,0,13497:0:0:0:0:
448,192,13310,128,0,13403:0:0:0:0:
64,192,13403,128,0,13591:0:0:0:0:
448,192,13497,128,0,13591:0:0:0:0:
192,192,13497,128,0,13591:0:0:0:0:
320,192,13591,128,0,13685:0:0:0:0:
192,192,13685,128,0,13778:0:0:0:0:
64,192,13685,128,0,13778:0:0:0:0:
448,192,13685,128,0,13872:0:0:0:0:
320,192,13778,128,0,13966:0:0:0:0:
192,192,13872,128,0,13966:0:0:0:0:
64,192,13872,128,0,14060:0:0:0:0:
448,192,13966,128,0,14153:0:0:0:0:
320,192,14060,128,0,14153:0:0:0:0:
192,192,14060,128,0,14247:0:0:0:0:
64,192,14153,128,0,14341:0:0:0:0:
448,192,14247,128,0,14341:0:0:0:0:
320,192,14247,128,0,14341:0:0:0:0:
192,192,14341,128,0,14435:0:0:0:0:
64,192,14435,128,0,14528:0:0:0:0:
320,192,14435,128,0,14622:0:0:0:0:
448,192,14435,128,0,14528:0:0:0:0:
192,192,14528,128,0,14716:0:0:0:0:
64,192,14622,128,0,14716:0:0:0:0:
448,192,14622,128,0,14810:0:0:0:0:
320,192,14716,128,0,14903:0:0:0:0:
192,192,14810,128,0,14903:0:0:0:0:
64,192,14810,128,0,14997:0:0:0:0:
448,192,14903,128,0,15091:0:0:0:0:
320,192,14997,128,0,15091:0:0:0:0:
192,192,14997,128,0,15091:0:0:0:0:
64,192,15091,128,0,15185:0:0:0:0:
192,192,15185,128,0,15278:0:0:0:0:
320,192,15185,128,0,15278:0:0:0:0:
448,192,15185,128,0,15372:0:0:0:0:
64,192,15278,128,0,15466:0:0:0:0:
192,192,15372,128,0,15466:0:0:0:0:
320,192,15372,128,0,15560:0:0:0:0:
448,192,15466,128,0,15560:0:0:0:0:
192,192,15560,128,0,15653:0:0:0:0:
64,192,15560,128,0,15653:0:0:0:0:
320,192,15653,128,0,15747:0:0:0:0:
448,192,15653,128,0,15841:0:0:0:0:
192,192,15747,128,0,15841:0:0:0:0:
64,192,15747,128,0,15841:0:0:0:0:
320,192,15841,128,0,16028:0:0:0:0:
192,192,15935,128,0,16028:0:0:0:0:
64,192,15935,128,0,16028:0:0:0:0:
448,192,15935,128,0,16028:0:0:0:0:
448,192,16122,128,0,16216:0:0:0:0:
320,192,16122,128,0,16216:0:0:0:0:
448,192,16310,1,0,0:0:0:0:
320,192,16310,1,0,0:0:0:0:
64,192,16310,1,0,0:0:0:0:
448,192,16591,1,0,0:0:0:0:
192,192,16591,1,0,0:0:0:0:
64,192,16591,1,0,0:0:0:0:
448,192,16872,1,0,0:0:0:0:
320,192,16872,1,0,0:0:0:0:
64,192,16872,1,0,0:0:0:0:
448,192,17060,1,0,0:0:0:0:
320,192,17060,1,0,0:0:0:0:
192,192,17060,1,0,0:0:0:0:
64,192,17060,1,0,0:0:0:0:
64,192,17341,128,0,17435:0:0:0:0:
448,192,17341,128,0,17435:0:0:0:0:
192,192,17341,128,0,17435:0:0:0:0:
64,192,17622,128,0,17716:0:0:0:0:
192,192,17622,128,0,17716:0:0:0:0:
320,192,17622,128,0,17716:0:0:0:0:
448,192,17622,128,0,17716:0:0:0:0:
192,192,17810,1,0,0:0:0:0:
64,192,17810,1,0,0:0:0:0:
320,192,17903,1,0,0:0:0:0:
448,192,17997,1,0,0:0:0:0:
64,192,17997,1,0,0:0:0:0:
192,192,18091,1,0,0:0:0:0:
448,192,18185,1,0,0:0:0:0:
320,192,18185,1,0,0:0:0:0:
64,192,18278,1,0,0:0:0:0:
192,192,18372,1,0,0:0:0:0:
320,192,18372,1,0,0:0:0:0:
448,192,18466,1,0,0:0:0:0:
64,192,18560,1,0,0:0:0:0:
192,192,18606,1,0,0:0:0:0:
320,192,18653,1,0,0:0:0:0:
448,192,18700,1,0,0:0:0:0:
64,192,18747,1,0,0:0:0:0:
192,192,18794,1,0,0:0:0:0:
320,192,18841,1,0,0:0:0:0:
448,192,18888,1,0,0:0:0:0:
64,192,18935,128,0,19028:0:0:0:0:
192,192,18981,128,0,19075:0:0:0:0:
448,192,19028,128,0,19122:0:0:0:0:
320,192,19075,128,0,19169:0:0:0:0:
192,192,19122,128,0,19216:0:0:0:0:
64,192,19169,128,0,19216:0:0:0:0:
320,192,19216,1,0,0:0:0:0:
448,192,19216,1,0,0:0:0:0:
448,192,19310,1,0,0:0:0:0:
320,192,19310,1,0,0:0:0:0:
64,192,19310,1,0,0:0:0:0:
192,192,19310,1,0,0:0:0:0:
64,192,19685,1,0,0:0:0:0:
448,192,19685,1,0,0:0:0:0:
64,192,20060,128,0,20153:0:0:0:0:
192,192,20060,128,0,20153:0:0:0:0:
448,192,20060,128,0,20153:0:0:0:0:
320,192,20435,1,0,0:0:0:0:
192,192,20435,1,0,0:0:0:0:
64,192,20810,128,0,20903:0:0:0:0:
448,192,20810,128,0,20903:0:0:0:0:
320,192,20810,128,0,20903:0:0:0:0:
64,192,20997,1,0,0:0:0:0:
192,192,20997,1,0,0:0:0:0:
320,192,21091,1,0,0:0:0:0:
448,192,21091,1,0,0:0:0:0:
448,192,21185,1,0,0:0:0:0:
320,192,21185,1,0,0:0:0:0:
192,192,21185,1,0,0:0:0:0:
64,192,21185,1,0,0:0:0:0:
320,192,21372,1,0,0:0:0:0:
448,192,21372,1,0,0:0:0:0:
192,192,21466,1,0,0:0:0:0:
64,192,21466,1,0,0:0:0:0:
64,192,21560,128,0,21653:0:0:0:0:
320,192,21560,128,0,21653:0:0:0:0:
448,192,21560,128,0,21653:0:0:0:0:
64,192,21747,1,0,0:0:0:0:
192,192,21747,1,0,0:0:0:0:
320,192,21841,1,0,0:0:0:0:
448,192,21935,1,0,0:0:0:0:
64,192,21935,1,0,0:0:0:0:
192,192,22028,1,0,0:0:0:0:
320,192,22122,1,0,0:0:0:0:
448,192,22122,1,0,0:0:0:0:
192,192,22216,1,0,0:0:0:0:
64,192,22216,1,0,0:0:0:0:
192,192,22310,128,0,22497:0:0:0:0:
320,192,22310,128,0,22403:0:0:0:0:
448,192,22310,128,0,22403:0:0:0:0:
64,192,22310,128,0,22591:0:0:0:0:
320,192,22497,128,0,22591:0:0:0:0:
448,192,22497,128,0,22591:0:0:0:0:
192,192,22591,128,0,22685:0:0:0:0:
64,192,22685,128,0,22778:0:0:0:0:
320,192,22685,128,0,22872:0:0:0:0:
448,192,22685,128,0,22778:0:0:0:0:
192,192,22778,128,0,22966:0:0:0:0:
448,192,22872,128,0,23060:0:0:0:0:
64,192,22872,128,0,22966:0:0:0:0:
320,192,22966,128,0,23153:0:0:0:0:
192,192,23060,128,0,23153:0:0:0:0:
64,192,23060,128,0,23247:0:0:0:0:
448,192,23153,128,0,23341:0:0:0:0:
320,192,23247,128,0,23341:0:0:0:0:
192,192,23247,128,0,23341:0:0:0:0:
64,192,23341,128,0,23435:0:0:0:0:
192,192,23435,128,0,23528:0:0:0:0:
320,192,23435,128,0,23622:0:0:0:0:
448,192,23435,128,0,23528:0:0:0:0:
64,192,23528,128,0,23716:0:0:0:0:
192,192,23622,128,0,23716:0:0:0:0:
448,192,23622,128,0,23810:0:0:0:0:
320,192,23716,128,0,23903:0:0:0:0:
192,192,23810,128,0,23997:0:0:0:0:
64,192,23810,128,0,23903:0:0:0:0:
448,192,23903,128,0,24091:0:0:0:0:
64,192,23997,128,0,24091:0:0:0:0:
320,192,23997,128,0,24091:0:0:0:0:
192,192,24091,128,0,24185:0:0:0:0:
320,192,24185,128,0,24278:0:0:0:0:
448,192,24185,128,0,24278:0:0:0:0:
64,192,24185,128,0,24372:0:0:0:0:
192,192,24278,128,0,24466:0:0:0:0:
320,192,24372,128,0,24466:0:0:0:0:
448,192,24372,128,0,24560:0:0:0:0:
64,192,24466,128,0,24653:0:0:0:0:
192,192,24560,128,0,24653:0:0:0:0:
320,192,24560,128,0,24747:0:0:0:0:
448,192,24653,128,0,24935:0:0:0:0:
64,192,24747,128,0,24841:0:0:0:0:
192,192,24747,128,0,24841:0:0:0:0:
320,192,24841,128,0,24935:0:0:0:0:
192,192,24935,128,0,25028:0:0:0:0:
64,192,24935,128,0,25028:0:0:0:0:
320,192,25028,128,0,25122:0:0:0:0:
448,192,25028,128,0,25122:0:0:0:0:
192,192,25122,128,0,25216:0:0:0:0:
64,192,25122,128,0,25216:0:0:0:0:
320,192,25216,1,0,0:0:0:0:
448,192,25216,1,0,0:0:0:0:
192,192,25310,1,0,0:0:0:0:
64,192,25310,1,0,0:0:0:0:
320,192,25310,128,0,25403:0:0:0:0:
448,192,25310,128,0,25403:0:0:0:0:
64,192,25497,1,0,0:0:0:0:
192,192,25497,1,0,0:0:0:0:
320,192,25591,1,0,0:0:0:0:
448,192,25685,1,0,0:0:0:0:
64,192,25685,1,0,0:0:0:0:
192,192,25778,1,0,0:0:0:0:
320,192,25872,1,0,0:0:0:0:
448,192,25872,1,0,0:0:0:0:
64,192,25966,1,0,0:0:0:0:
192,192,26060,128,0,26153:0:0:0:0:
448,192,26060,128,0,26153:0:0:0:0:
320,192,26153,1,0,0:0:0:0:
192,192,26247,1,0,0:0:0:0:
64,192,26247,1,0,0:0:0:0:
320,192,26341,1,0,0:0:0:0:
448,192,26435,1,0,0:0:0:0:
64,192,26435,1,0,0:0:0:0:
192,192,26528,1,0,0:0:0:0:
320,192,26622,1,0,0:0:0:0:
448,192,26622,1,0,0:0:0:0:
64,192,26716,1,0,0:0:0:0:
192,192,26810,128,0,26903:0:0:0:0:
320,192,26810,128,0,26903:0:0:0:0:
448,192,26903,1,0,0:0:0:0:
64,192,26997,128,0,27091:0:0:0:0:
320,192,26997,128,0,27091:0:0:0:0:
192,192,27091,1,0,0:0:0:0:
320,192,27185,128,0,27278:0:0:0:0:
448,192,27185,128,0,27278:0:0:0:0:
64,192,27278,1,0,0:0:0:0:
192,192,27372,128,0,27466:0:0:0:0:
448,192,27372,128,0,27466:0:0:0:0:
320,192,27466,1,0,0:0:0:0:
192,192,27560,128,0,27653:0:0:0:0:
64,192,27560,128,0,27653:0:0:0:0:
64,192,27747,1,0,0:0:0:0:
320,192,27747,1,0,0:0:0:0:
448,192,27747,1,0,0:0:0:0:
192,192,27747,1,0,0:0:0:0:
64,192,27935,1,0,0:0:0:0:
192,192,27935,1,0,0:0:0:0:
320,192,28028,1,0,0:0:0:0:
448,192,28028,1,0,0:0:0:0:
192,192,28122,1,0,0:0:0:0:
64,192,28122,1,0,0:0:0:0:
320,192,28216,1,0,0:0:0:0:
448,192,28216,1,0,0:0:0:0:
320,192,28310,128,0,28497:0:0:0:0:
192,192,28310,128,0,28403:0:0:0:0:
64,192,28310,128,0,28403:0:0:0:0:
448,192,28310,128,0,28591:0:0:0:0:
192,192,28497,128,0,28591:0:0:0:0:
64,192,28497,128,0,28591:0:0:0:0:
320,192,28591,128,0,28685:0:0:0:0:
448,192,28685,128,0,28778:0:0:0:0:
192,192,28685,128,0,28872:0:0:0:0:
64,192,28685,128,0,28778:0:0:0:0:
320,192,28778,128,0,28966:0:0:0:0:
64,192,28872,128,0,29060:0:0:0:0:
448,192,28872,128,0,28966:0:0:0:0:
192,192,28966,128,0,29153:0:0:0:0:
320,192,29060,128,0,29153:0:0:0:0:
448,192,29060,128,0,29247:0:0:0:0:
64,192,29153,128,0,29341:0:0:0:0:
192,192,29247,128,0,29341:0:0:0:0:
320,192,29247,128,0,29341:0:0:0:0:
448,192,29341,128,0,29435:0:0:0:0:
320,192,29435,128,0,29528:0:0:0:0:
192,192,29435,128,0,29622:0:0:0:0:
64,192,29435,128,0,29528:0:0:0:0:
448,192,29528,128,0,29716:0:0:0:0:
320,192,29622,128,0,29716:0:0:0:0:
64,192,29622,128,0,29810:0:0:0:0:
192,192,29716,128,0,29903:0:0:0:0:
320,192,29810,128,0,29997:0:0:0:0:
448,192,29810,128,0,29903:0:0:0:0:
64,192,29903,128,0,30091:0:0:0:0:
192,192,29997,128,0,30091:0:0:0:0:
448,192,29997,128,0,30091:0:0:0:0:
320,192,30091,128,0,30185:0:0:0:0:
192,192,30185,128,0,30278:0:0:0:0:
64,192,30185,128,0,30278:0:0:0:0:
448,192,30185,128,0,30372:0:0:0:0:
320,192,30278,128,0,30372:0:0:0:0:
192,192,30372,1,0,0:0:0:0:
64,192,30372,1,0,0:0:0:0:
320,192,30466,1,0,0:0:0:0:
448,192,30466,1,0,0:0:0:0:
192,192,30560,1,0,0:0:0:0:
64,192,30560,1,0,0:0:0:0:
320,192,30653,1,0,0:0:0:0:
448,192,30747,1,0,0:0:0:0:
64,192,30747,1,0,0:0:0:0:
192,192,30841,1,0,0:0:0:0:
320,192,30935,1,0,0:0:0:0:
448,192,30935,1,0,0:0:0:0:
192,192,31028,1,0,0:0:0:0:
64,192,31028,1,0,0:0:0:0:
320,192,31122,1,0,0:0:0:0:
448,192,31122,1,0,0:0:0:0:
192,192,31216,1,0,0:0:0:0:
64,192,31216,1,0,0:0:0:0:
192,192,31310,1,0,0:0:0:0:
320,192,31310,1,0,0:0:0:0:
448,192,31310,128,0,31778:0:0:0:0:
64,192,31310,128,0,31497:0:0:0:0:
192,192,31497,128,0,31685:0:0:0:0:
320,192,31685,128,0,31872:0:0:0:0:
64,192,31872,1,0,0:0:0:0:
192,192,31872,1,0,0:0:0:0:
448,192,31872,128,0,32060:0:0:0:0:
192,192,32060,128,0,32810:0:0:0:0:
64,192,32060,128,0,32247:0:0:0:0:
320,192,32247,128,0,32435:0:0:0:0:
448,192,32435,1,0,0:0:0:0:
64,192,32435,1,0,0:0:0:0:
64,192,32622,128,0,32810:0:0:0:0:
320,192,32810,128,0,33278:0:0:0:0:
448,192,32810,1,0,0:0:0:0:
192,192,32903,1,0,0:0:0:0:
64,192,32903,1,0,0:0:0:0:
64,192,32997,1,0,0:0:0:0:
448,192,32997,128,0,33185:0:0:0:0:
192,192,33185,128,0,33372:0:0:0:0:
64,192,33372,1,0,0:0:0:0:
448,192,33372,1,0,0:0:0:0:
320,192,33372,128,0,33560:0:0:0:0:
64,192,33560,128,0,34310:0:0:0:0:
448,192,33560,128,0,33747:0:0:0:0:
320,192,33747,1,0,0:0:0:0:
192,192,33747,128,0,33935:0:0:0:0:
320,192,33935,128,0,34122:0:0:0:0:
448,192,33935,1,0,0:0:0:0:
192,192,34122,128,0,34310:0:0:0:0:
448,192,34310,128,0,34778:0:0:0:0:
320,192,34310,128,0,34497:0:0:0:0:
192,192,34497,128,0,34685:0:0:0:0:
64,192,34685,128,0,34872:0:0:0:0:
192,192,34872,1,0,0:0:0:0:
320,192,34872,128,0,35060:0:0:0:0:
448,192,34872,1,0,0:0:0:0:
64,192,35060,128,0,35810:0:0:0:0:
192,192,35060,128,0,35247:0:0:0:0:
448,192,35247,1,0,0:0:0:0:
320,192,35247,128,0,35435:0:0:0:0:
192,192,35435,1,0,0:0:0:0:
448,192,35435,128,0,35622:0:0:0:0:
192,192,35622,128,0,35810:0:0:0:0:
320,192,35810,128,0,36278:0:0:0:0:
448,192,35810,1,0,0:0:0:0:
192,192,35903,1,0,0:0:0:0:
64,192,35903,1,0,0:0:0:0:
64,192,35997,1,0,0:0:0:0:
448,192,35997,128,0,36185:0:0:0:0:
192,192,36185,128,0,36372:0:0:0:0:
64,192,36372,128,0,36560:0:0:0:0:
448,192,36372,1,0,0:0:0:0:
320,192,36372,1,0,0:0:0:0:
192,192,36560,128,0,37028:0:0:0:0:
448,192,36560,128,0,36747:0:0:0:0:
64,192,36747,1,0,0:0:0:0:
320,192,36747,1,0,0:0:0:0:
64,192,36935,128,0,37028:0:0:0:0:
448,192,36935,128,0,37028:0:0:0:0:
320,192,36935,128,0,37028:0:0:0:0:
64,192,37122,1,0,0:0:0:0:
192,192,37122,1,0,0:0:0:0:
320,192,37216,1,0,0:0:0:0:
448,192,37216,1,0,0:0:0:0:
448,192,37310,1,0,0:0:0:0:
64,192,37310,1,0,0:0:0:0:
192,192,37310,1,0,0:0:0:0:
64,192,37497,1,0,0:0:0:0:
192,192,37497,1,0,0:0:0:0:
448,192,37497,1,0,0:0:0:0:
64,192,37685,128,0,37872:0:0:0:0:
192,192,37685,128,0,37872:0:0:0:0:
320,192,37685,128,0,37872:0:0:0:0:
448,192,37685,128,0,37872:0:0:0:0:
64,192,38060,1,0,0:0:0:0:
320,192,38060,1,0,0:0:0:0:
448,192,38060,1,0,0:0:0:0:
64,192,38247,1,0,0:0:0:0:
320,192,38247,1,0,0:0:0:0:
448,192,38247,1,0,0:0:0:0:
64,192,38435,128,0,38622:0:0:0:0:
192,192,38435,128,0,38622:0:0:0:0:
448,192,38435,128,0,38622:0:0:0:0:
320,192,38435,128,0,38622:0:0:0:0:
64,192,38810,1,0,0:0:0:0:
192,192,38810,1,0,0:0:0:0:
448,192,38810,1,0,0:0:0:0:
64,192,38997,1,0,0:0:0:0:
320,192,38997,1,0,0:0:0:0:
448,192,38997,1,0,0:0:0:0:
64,192,39185,128,0,39278:0:0:0:0:
192,192,39185,128,0,39278:0:0:0:0:
320,192,39185,128,0,39278:0:0:0:0:
448,192,39185,128,0,39278:0:0:0:0:
320,192,39372,1,0,0:0:0:0:
448,192,39372,1,0,0:0:0:0:
192,192,39466,1,0,0:0:0:0:
64,192,39560,1,0,0:0:0:0:
320,192,39560,1,0,0:0:0:0:
448,192,39560,1,0,0:0:0:0:
192,192,39653,1,0,0:0:0:0:
64,192,39747,1,0,0:0:0:0:
320,192,39841,1,0,0:0:0:0:
448,192,39935,1,0,0:0:0:0:
64,192,39935,1,0,0:0:0:0:
192,192,40028,1,0,0:0:0:0:
320,192,40122,1,0,0:0:0:0:
448,192,40122,1,0,0:0:0:0:
64,192,40216,1,0,0:0:0:0:
192,192,40216,1,0,0:0:0:0:
64,192,40310,1,0,0:0:0:0:
320,192,40310,1,0,0:0:0:0:
448,192,40310,1,0,0:0:0:0:
64,192,40497,1,0,0:0:0:0:
192,192,40497,1,0,0:0:0:0:
320,192,40591,1,0,0:0:0:0:
448,192,40591,1,0,0:0:0:0:
448,192,40685,1,0,0:0:0:0:
192,192,40685,1,0,0:0:0:0:
64,192,40685,1,0,0:0:0:0:
320,192,40872,1,0,0:0:0:0:
448,192,40872,1,0,0:0:0:0:
192,192,40966,1,0,0:0:0:0:
320,192,41060,1,0,0:0:0:0:
448,192,41060,1,0,0:0:0:0:
64,192,41060,1,0,0:0:0:0:
192,192,41153,1,0,0:0:0:0:
64,192,41153,1,0,0:0:0:0:
320,192,41247,1,0,0:0:0:0:
448,192,41247,1,0,0:0:0:0:
192,192,41341,1,0,0:0:0:0:
64,192,41341,1,0,0:0:0:0:
64,192,41435,1,0,0:0:0:0:
192,192,41435,1,0,0:0:0:0:
320,192,41435,1,0,0:0:0:0:
448,192,41435,1,0,0:0:0:0:
192,192,41622,128,0,41716:0:0:0:0:
448,192,41622,128,0,41716:0:0:0:0:
64,192,41810,1,0,0:0:0:0:
192,192,41810,1,0,0:0:0:0:
64,192,41903,1,0,0:0:0:0:
192,192,41903,1,0,0:0:0:0:
320,192,41903,1,0,0:0:0:0:
448,192,41903,1,0,0:0:0:0:
320,192,42091,1,0,0:0:0:0:
448,192,42091,1,0,0:0:0:0:
192,192,42185,1,0,0:0:0:0:
64,192,42185,1,0,0:0:0:0:
320,192,42185,1,0,0:0:0:0:
448,192,42185,1,0,0:0:0:0:
320,192,42372,1,0,0:0:0:0:
448,192,42372,1,0,0:0:0:0:
192,192,42466,1,0,0:0:0:0:
64,192,42466,1,0,0:0:0:0:
320,192,42560,1,0,0:0:0:0:
448,192,42560,1,0,0:0:0:0:
64,192,42653,1,0,0:0:0:0:
192,192,42700,1,0,0:0:0:0:
320,192,42747,1,0,0:0:0:0:
448,192,42794,1,0,0:0:0:0:
64,192,42841,1,0,0:0:0:0:
192,192,42841,1,0,0:0:0:0:
320,192,42935,1,0,0:0:0:0:
448,192,42935,1,0,0:0:0:0:
192,192,43028,1,0,0:0:0:0:
64,192,43028,1,0,0:0:0:0:
320,192,43122,1,0,0:0:0:0:
448,192,43122,1,0,0:0:0:0:
192,192,43216,1,0,0:0:0:0:
64,192,43216,1,0,0:0:0:0:
320,192,43310,128,0,43403:0:0:0:0:
448,192,43310,128,0,43403:0:0:0:0:
64,192,44060,128,0,44247:0:0:0:0:
320,192,44247,1,0,0:0:0:0:
448,192,44247,1,0,0:0:0:0:
192,192,44341,1,0,0:0:0:0:
64,192,44341,1,0,0:0:0:0:
64,192,44435,128,0,44622:0:0:0:0:
192,192,44435,128,0,44622:0:0:0:0:
320,192,44435,128,0,44622:0:0:0:0:
448,192,44435,128,0,44622:0:0:0:0:
320,192,44810,128,0,44997:0:0:0:0:
192,192,44810,128,0,44903:0:0:0:0:
64,192,44810,128,0,44903:0:0:0:0:
448,192,44810,128,0,45091:0:0:0:0:
192,192,44997,128,0,45091:0:0:0:0:
64,192,44997,128,0,45091:0:0:0:0:
320,192,45091,128,0,45185:0:0:0:0:
448,192,45185,128,0,45278:0:0:0:0:
192,192,45185,128,0,45372:0:0:0:0:
64,192,45185,128,0,45278:0:0:0:0:
320,192,45278,128,0,45466:0:0:0:0:
64,192,45372,128,0,45560:0:0:0:0:
448,192,45372,128,0,45466:0:0:0:0:
192,192,45466,128,0,45653:0:0:0:0:
320,192,45560,128,0,45653:0:0:0:0:
448,192,45560,128,0,45747:0:0:0:0:
64,192,45653,128,0,45841:0:0:0:0:
192,192,45747,128,0,45841:0:0:0:0:
320,192,45747,128,0,45841:0:0:0:0:
448,192,45841,128,0,45935:0:0:0:0:
320,192,45935,128,0,46028:0:0:0:0:
192,192,45935,128,0,46122:0:0:0:0:
64,192,45935,128,0,46028:0:0:0:0:
448,192,46028,128,0,46216:0:0:0:0:
320,192,46122,128,0,46216:0:0:0:0:
64,192,46122,128,0,46310:0:0:0:0:
192,192,46216,128,0,46403:0:0:0:0:
320,192,46310,128,0,46497:0:0:0:0:
448,192,46310,128,0,46403:0:0:0:0:
64,192,46403,128,0,46591:0:0:0:0:
448,192,46497,128,0,46591:0:0:0:0:
192,192,46497,128,0,46591:0:0:0:0:
320,192,46591,128,0,46685:0:0:0:0:
192,192,46685,128,0,46778:0:0:0:0:
64,192,46685,128,0,46778:0:0:0:0:
448,192,46685,128,0,46872:0:0:0:0:
320,192,46778,128,0,46966:0:0:0:0:
192,192,46872,128,0,46966:0:0:0:0:
64,192,46872,128,0,47060:0:0:0:0:
448,192,46966,128,0,47153:0:0:0:0:
320,192,47060,128,0,47153:0:0:0:0:
192,192,47060,128,0,47247:0:0:0:0:
64,192,47153,128,0,47341:0:0:0:0:
448,192,47247,128,0,47341:0:0:0:0:
320,192,47247,128,0,47341:0:0:0:0:
192,192,47341,128,0,47435:0:0:0:0:
64,192,47435,128,0,47528:0:0:0:0:
320,192,47435,128,0,47622:0:0:0:0:
448,192,47435,128,0,47528:0:0:0:0:
192,192,47528,128,0,47716:0:0:0:0:
64,192,47622,128,0,47716:0:0:0:0:
448,192,47622,128,0,47810:0:0:0:0:
320,192,47716,128,0,47903:0:0:0:0:
192,192,47810,128,0,47903:0:0:0:0:
64,192,47810,128,0,47997:0:0:0:0:
448,192,47903,128,0,48091:0:0:0:0:
320,192,47997,128,0,48091:0:0:0:0:
192,192,47997,128,0,48091:0:0:0:0:
64,192,48091,128,0,48185:0:0:0:0:
192,192,48185,128,0,48278:0:0:0:0:
320,192,48185,128,0,48278:0:0:0:0:
448,192,48185,128,0,48372:0:0:0:0:
64,192,48278,128,0,48466:0:0:0:0:
192,192,48372,128,0,48466:0:0:0:0:
320,192,48372,128,0,48560:0:0:0:0:
448,192,48466,128,0,48560:0:0:0:0:
192,192,48560,128,0,48653:0:0:0:0:
64,192,48560,128,0,48653:0:0:0:0:
320,192,48653,128,0,48747:0:0:0:0:
448,192,48653,128,0,48841:0:0:0:0:
192,192,48747,128,0,48841:0:0:0:0:
64,192,48747,128,0,48841:0:0:0:0:
320,192,48841,128,0,48935:0:0:0:0:
192,192,48935,128,0,49122:0:0:0:0:
64,192,48935,128,0,49028:0:0:0:0:
448,192,48935,128,0,49028:0:0:0:0:
320,192,49028,128,0,49216:0:0:0:0:
448,192,49122,128,0,49216:0:0:0:0:
64,192,49122,128,0,49310:0:0:0:0:
192,192,49216,128,0,49403:0:0:0:0:
320,192,49310,128,0,49403:0:0:0:0:
448,192,49310,128,0,49403:0:0:0:0:
64,192,49403,128,0,49497:0:0:0:0:
192,192,49497,128,0,49591:0:0:0:0:
320,192,49497,128,0,49591:0:0:0:0:
448,192,49591,128,0,49685:0:0:0:0:
64,192,49685,128,0,49778:0:0:0:0:
192,192,49685,128,0,49778:0:0:0:0:
320,192,49685,128,0,49778:0:0:0:0:
448,192,49778,128,0,49872:0:0:0:0:
64,192,49872,128,0,49966:0:0:0:0:
320,192,49872,128,0,49966:0:0:0:0:
192,192,49966,128,0,50060:0:0:0:0:
320,192,50060,128,0,50153:0:0:0:0:
448,192,50060,128,0,50153:0:0:0:0:
192,192,50153,128,0,50247:0:0:0:0:
64,192,50247,128,0,50341:0:0:0:0:
448,192,50247,128,0,50341:0:0:0:0:
320,192,50341,128,0,50435:0:0:0:0:
64,192,50435,128,0,50528:0:0:0:0:
192,192,50435,128,0,50528:0:0:0:0:
320,192,50528,128,0,50622:0:0:0:0:
448,192,50528,128,0,50622:0:0:0:0:
192,192,50622,128,0,50716:0:0:0:0:
64,192,50622,128,0,50716:0:0:0:0:
320,192,50716,1,0,0:0:0:0:
448,192,50716,1,0,0:0:0:0:
192,192,50810,128,0,50997:0:0:0:0:
320,192,50810,128,0,50903:0:0:0:0:
448,192,50810,128,0,50903:0:0:0:0:
64,192,50810,128,0,51091:0:0:0:0:
320,192,50997,128,0,51091:0:0:0:0:
448,192,50997,128,0,51091:0:0:0:0:
192,192,51091,128,0,51185:0:0:0:0:
64,192,51185,128,0,51278:0:0:0:0:
320,192,51185,128,0,51372:0:0:0:0:
448,192,51185,128,0,51278:0:0:0:0:
192,192,51278,128,0,51466:0:0:0:0:
448,192,51372,128,0,51560:0:0:0:0:
64,192,51372,128,0,51466:0:0:0:0:
320,192,51466,128,0,51653:0:0:0:0:
192,192,51560,128,0,51653:0:0:0:0:
64,192,51560,128,0,51747:0:0:0:0:
448,192,51653,128,0,51841:0:0:0:0:
320,192,51747,128,0,51841:0:0:0:0:
192,192,51747,128,0,51841:0:0:0:0:
64,192,51841,128,0,51935:0:0:0:0:
192,192,51935,128,0,52028:0:0:0:0:
320,192,51935,128,0,52122:0:0:0:0:
448,192,51935,128,0,52028:0:0:0:0:
64,192,52028,128,0,52216:0:0:0:0:
192,192,52122,128,0,52216:0:0:0:0:
448,192,52122,128,0,52310:0:0:0:0:
320,192,52216,128,0,52403:0:0:0:0:
192,192,52310,128,0,52497:0:0:0:0:
64,192,52310,128,0,52403:0:0:0:0:
448,192,52403,128,0,52591:0:0:0:0:
64,192,52497,128,0,52591:0:0:0:0:
320,192,52497,128,0,52591:0:0:0:0:
192,192,52591,128,0,52685:0:0:0:0:
320,192,52685,128,0,52778:0:0:0:0:
448,192,52685,128,0,52778:0:0:0:0:
64,192,52685,128,0,52872:0:0:0:0:
192,192,52778,128,0,52966:0:0:0:0:
320,192,52872,128,0,52966:0:0:0:0:
448,192,52872,128,0,53060:0:0:0:0:
64,192,52966,128,0,53153:0:0:0:0:
192,192,53060,128,0,53153:0:0:0:0:
320,192,53060,128,0,53247:0:0:0:0:
448,192,53153,128,0,53341:0:0:0:0:
64,192,53247,128,0,53341:0:0:0:0:
192,192,53247,128,0,53341:0:0:0:0:
320,192,53341,128,0,53435:0:0:0:0:
448,192,53435,128,0,53528:0:0:0:0:
192,192,53435,128,0,53622:0:0:0:0:
64,192,53435,128,0,53528:0:0:0:0:
320,192,53528,128,0,53716:0:0:0:0:
448,192,53622,128,0,53716:0:0:0:0:
64,192,53622,128,0,53810:0:0:0:0:
192,192,53716,128,0,53903:0:0:0:0:
320,192,53810,128,0,53903:0:0:0:0:
448,192,53810,128,0,53997:0:0:0:0:
64,192,53903,128,0,54091:0:0:0:0:
192,192,53997,128,0,54091:0:0:0:0:
320,192,53997,128,0,54091:0:0:0:0:
448,192,54091,128,0,54185:0:0:0:0:
320,192,54185,128,0,54278:0:0:0:0:
192,192,54185,128,0,54278:0:0:0:0:
64,192,54185,128,0,54372:0:0:0:0:
448,192,54278,128,0,54466:0:0:0:0:
320,192,54372,128,0,54466:0:0:0:0:
192,192,54372,128,0,54560:0:0:0:0:
64,192,54466,128,0,54560:0:0:0:0:
320,192,54560,128,0,54653:0:0:0:0:
448,192,54560,128,0,54653:0:0:0:0:
192,192,54653,128,0,54747:0:0:0:0:
64,192,54653,128,0,54841:0:0:0:0:
320,192,54747,128,0,54841:0:0:0:0:
448,192,54747,128,0,54841:0:0:0:0:
192,192,54841,128,0,54935:0:0:0:0:
320,192,54935,128,0,55122:0:0:0:0:
448,192,54935,128,0,55028:0:0:0:0:
64,192,54935,128,0,55028:0:0:0:0:
192,192,55028,128,0,55216:0:0:0:0:
64,192,55122,128,0,55216:0:0:0:0:
448,192,55122,128,0,55310:0:0:0:0:
320,192,55216,128,0,55403:0:0:0:0:
192,192,55310,128,0,55403:0:0:0:0:
64,192,55310,128,0,55497:0:0:0:0:
448,192,55403,128,0,55591:0:0:0:0:
320,192,55497,128,0,55591:0:0:0:0:
192,192,55497,128,0,55591:0:0:0:0:
64,192,55591,128,0,55685:0:0:0:0:
448,192,55685,128,0,55778:0:0:0:0:
320,192,55685,128,0,55778:0:0:0:0:
192,192,55685,128,0,55872:0:0:0:0:
64,192,55778,128,0,55872:0:0:0:0:
320,192,55872,1,0,0:0:0:0:
448,192,55872,1,0,0:0:0:0:
64,192,55966,1,0,0:0:0:0:
192,192,55966,1,0,0:0:0:0:
320,192,56060,1,0,0:0:0:0:
448,192,56060,1,0,0:0:0:0:
64,192,56060,1,0,0:0:0:0:
192,192,56153,1,0,0:0:0:0:
64,192,56153,1,0,0:0:0:0:
320,192,56247,128,0,56341:0:0:0:0:
448,192,56247,128,0,56341:0:0:0:0:
192,192,56341,128,0,56435:0:0:0:0:
64,192,56341,128,0,56435:0:0:0:0:
320,192,56435,1,0,0:0:0:0:
448,192,56435,1,0,0:0:0:0:
192,192,56528,1,0,0:0:0:0:
64,192,56528,1,0,0:0:0:0:
320,192,56622,128,0,56716:0:0:0:0:
448,192,56622,128,0,56716:0:0:0:0:
192,192,56716,1,0,0:0:0:0:
64,192,56716,1,0,0:0:0:0:
320,192,56810,128,0,56997:0:0:0:0:
192,192,56810,128,0,56903:0:0:0:0:
64,192,56810,128,0,56903:0:0:0:0:
448,192,56810,128,0,57091:0:0:0:0:
192,192,56997,128,0,57091:0:0:0:0:
64,192,56997,128,0,57091:0:0:0:0:
320,192,57091,128,0,57185:0:0:0:0:
448,192,57185,128,0,57278:0:0:0:0:
192,192,57185,128,0,57372:0:0:0:0:
64,192,57185,128,0,57278:0:0:0:0:
320,192,57278,128,0,57466:0:0:0:0:
64,192,57372,128,0,57560:0:0:0:0:
448,192,57372,128,0,57466:0:0:0:0:
192,192,57466,128,0,57653:0:0:0:0:
320,192,57560,128,0,57653:0:0:0:0:
448,192,57560,128,0,57747:0:0:0:0:
64,192,57653,128,0,57841:0:0:0:0:
192,192,57747,128,0,57841:0:0:0:0:
320,192,57747,128,0,57841:0:0:0:0:
448,192,57841,128,0,57935:0:0:0:0:
320,192,57935,128,0,58028:0:0:0:0:
192,192,57935,128,0,58122:0:0:0:0:
64,192,57935,128,0,58028:0:0:0:0:
448,192,58028,128,0,58216:0:0:0:0:
320,192,58122,128,0,58216:0:0:0:0:
64,192,58122,128,0,58310:0:0:0:0:
192,192,58216,128,0,58403:0:0:0:0:
320,192,58310,128,0,58497:0:0:0:0:
448,192,58310,128,0,58403:0:0:0:0:
64,192,58403,128,0,58591:0:0:0:0:
448,192,58497,128,0,58591:0:0:0:0:
192,192,58497,128,0,58591:0:0:0:0:
320,192,58591,128,0,58685:0:0:0:0:
192,192,58685,128,0,58778:0:0:0:0:
64,192,58685,128,0,58778:0:0:0:0:
448,192,58685,128,0,58872:0:0:0:0:
320,192,58778,128,0,58966:0:0:0:0:
192,192,58872,128,0,58966:0:0:0:0:
64,192,58872,128,0,59060:0:0:0:0:
448,192,58966,128,0,59153:0:0:0:0:
320,192,59060,128,0,59153:0:0:0:0:
192,192,59060,128,0,59247:0:0:0:0:
64,192,59153,128,0,59341:0:0:0:0:
448,192,59247,128,0,59341:0:0:0:0:
320,192,59247,128,0,59341:0:0:0:0:
192,192,59341,128,0,59435:0:0:0:0:
64,192,59435,128,0,59528:0:0:0:0:
320,192,59435,128,0,59622:0:0:0:0:
448,192,59435,128,0,59528:0:0:0:0:
192,192,59528,128,0,59716:0:0:0:0:
64,192,59622,128,0,59716:0:0:0:0:
448,192,59622,128,0,59810:0:0:0:0:
320,192,59716,128,0,59903:0:0:0:0:
192,192,59810,128,0,59903:0:0:0:0:
64,192,59810,128,0,59997:0:0:0:0:
448,192,59903,128,0,60091:0:0:0:0:
320,192,59997,128,0,60091:0:0:0:0:
192,192,59997,128,0,60091:0:0:0:0:
64,192,60091,128,0,60185:0:0:0:0:
192,192,60185,128,0,60278:0:0:0:0:
320,192,60185,128,0,60278:0:0:0:0:
448,192,60185,128,0,60372:0:0:0:0:
64,192,60278,128,0,60466:0:0:0:0:
192,192,60372,128,0,60466:0:0:0:0:
320,192,60372,128,0,60560:0:0:0:0:
448,192,60466,128,0,60560:0:0:0:0:
192,192,60560,128,0,60653:0:0:0:0:
64,192,60560,128,0,60653:0:0:0:0:
320,192,60653,128,0,60747:0:0:0:0:
448,192,60653,128,0,60841:0:0:0:0:
192,192,60747,128,0,60841:0:0:0:0:
64,192,60747,128,0,60841:0:0:0:0:
320,192,60841,128,0,60935:0:0:0:0:
192,192,60935,128,0,61122:0:0:0:0:
64,192,60935,128,0,61028:0:0:0:0:
448,192,60935,128,0,61028:0:0:0:0:
320,192,61028,128,0,61216:0:0:0:0:
448,192,61122,128,0,61216:0:0:0:0:
64,192,61122,128,0,61310:0:0:0:0:
192,192,61216,128,0,61403:0:0:0:0:
320,192,61310,128,0,61403:0:0:0:0:
448,192,61310,128,0,61403:0:0:0:0:
64,192,61403,128,0,61497:0:0:0:0:
192,192,61497,128,0,61591:0:0:0:0:
320,192,61497,128,0,61591:0:0:0:0:
448,192,61591,128,0,61685:0:0:0:0:
64,192,61685,128,0,61778:0:0:0:0:
192,192,61685,128,0,61778:0:0:0:0:
320,192,61685,128,0,61778:0:0:0:0:
448,192,61778,128,0,61872:0:0:0:0:
192,192,61872,1,0,0:0:0:0:
64,192,61872,1,0,0:0:0:0:
448,192,61966,1,0,0:0:0:0:
320,192,61966,1,0,0:0:0:0:
448,192,62060,1,0,0:0:0:0:
64,192,62060,128,0,62153:0:0:0:0:
192,192,62060,128,0,62153:0:0:0:0:
320,192,62153,1,0,0:0:0:0:
448,192,62153,1,0,0:0:0:0:
64,192,62247,1,0,0:0:0:0:
192,192,62247,1,0,0:0:0:0:
448,192,62341,1,0,0:0:0:0:
320,192,62341,1,0,0:0:0:0:
64,192,62435,128,0,62528:0:0:0:0:
192,192,62435,128,0,62528:0:0:0:0:
320,192,62528,1,0,0:0:0:0:
448,192,62528,1,0,0:0:0:0:
64,192,62622,128,0,62716:0:0:0:0:
192,192,62622,128,0,62716:0:0:0:0:
320,192,62716,1,0,0:0:0:0:
448,192,62716,1,0,0:0:0:0:
64,192,62810,1,0,0:0:0:0:
192,192,62810,1,0,0:0:0:0:
320,192,62810,1,0,0:0:0:0:
448,192,62810,1,0,0:0:0:0:
64,192,62903,1,0,0:0:0:0:
192,192,62997,1,0,0:0:0:0:
320,192,62997,1,0,0:0:0:0:
448,192,63091,1,0,0:0:0:0:
64,192,63185,1,0,0:0:0:0:
192,192,63185,1,0,0:0:0:0:
320,192,63185,1,0,0:0:0:0:
448,192,63278,1,0,0:0:0:0:
64,192,63372,1,0,0:0:0:0:
320,192,63372,1,0,0:0:0:0:
192,192,63466,1,0,0:0:0:0:
192,192,63560,1,0,0:0:0:0:
448,192,63560,1,0,0:0:0:0:
320,192,63560,1,0,0:0:0:0:
64,192,63560,1,0,0:0:0:0:
64,192,63653,1,0,0:0:0:0:
192,192,63747,1,0,0:0:0:0:
320,192,63747,1,0,0:0:0:0:
448,192,63841,1,0,0:0:0:0:
64,192,63935,1,0,0:0:0:0:
192,192,63935,1,0,0:0:0:0:
320,192,64028,1,0,0:0:0:0:
64,192,64122,1,0,0:0:0:0:
448,192,64122,1,0,0:0:0:0:
192,192,64216,1,0,0:0:0:0:
320,192,64310,1,0,0:0:0:0:
448,192,64310,1,0,0:0:0:0:
192,192,64310,1,0,0:0:0:0:
64,192,64310,1,0,0:0:0:0:
448,192,64403,1,0,0:0:0:0:
192,192,64497,1,0,0:0:0:0:
64,192,64497,1,0,0:0:0:0:
320,192,64591,1,0,0:0:0:0:
448,192,64591,1,0,0:0:0:0:
448,192,64685,1,0,0:0:0:0:
320,192,64685,1,0,0:0:0:0:
192,192,64685,1,0,0:0:0:0:
64,192,64685,1,0,0:0:0:0:
64,192,64778,1,0,0:0:0:0:
320,192,64872,1,0,0:0:0:0:
448,192,64872,1,0,0:0:0:0:
192,192,64966,1,0,0:0:0:0:
64,192,64966,1,0,0:0:0:0:
64,192,65060,1,0,0:0:0:0:
192,192,65060,1,0,0:0:0:0:
320,192,65060,1,0,0:0:0:0:
448,192,65060,1,0,0:0:0:0:
448,192,65153,1,0,0:0:0:0:
192,192,65247,1,0,0:0:0:0:
320,192,65247,1,0,0:0:0:0:
64,192,65341,1,0,0:0:0:0:
192,192,65435,1,0,0:0:0:0:
448,192,65435,1,0,0:0:0:0:
320,192,65528,1,0,0:0:0:0:
192,192,65622,1,0,0:0:0:0:
64,192,65622,1,0,0:0:0:0:
448,192,65716,1,0,0:0:0:0:
64,192,65810,1,0,0:0:0:0:
320,192,65810,1,0,0:0:0:0:
192,192,65903,1,0,0:0:0:0:
320,192,65997,1,0,0:0:0:0:
448,192,65997,1,0,0:0:0:0:
192,192,66091,1,0,0:0:0:0:
64,192,66091,1,0,0:0:0:0:
64,192,66185,1,0,0:0:0:0:
192,192,66185,1,0,0:0:0:0:
320,192,66185,1,0,0:0:0:0:
448,192,66185,1,0,0:0:0:0:
448,192,66372,1,0,0:0:0:0:
320,192,66372,1,0,0:0:0:0:
192,192,66466,1,0,0:0:0:0:
64,192,66560,1,0,0:0:0:0:
448,192,66560,1,0,0:0:0:0:
320,192,66653,1,0,0:0:0:0:
448,192,66653,1,0,0:0:0:0:
192,192,66747,1,0,0:0:0:0:
64,192,66747,1,0,0:0:0:0:
320,192,66841,1,0,0:0:0:0:
448,192,66841,1,0,0:0:0:0:
448,192,66935,1,0,0:0:0:0:
320,192,66935,1,0,0:0:0:0:
192,192,66935,1,0,0:0:0:0:
64,192,66935,1,0,0:0:0:0:
64,192,67122,1,0,0:0:0:0:
192,192,67122,1,0,0:0:0:0:
448,192,67122,1,0,0:0:0:0:
320,192,67310,1,0,0:0:0:0:
448,192,67310,1,0,0:0:0:0:
64,192,67403,1,0,0:0:0:0:
192,192,67403,1,0,0:0:0:0:
320,192,67403,1,0,0:0:0:0:
448,192,67403,1,0,0:0:0:0:
64,192,67591,1,0,0:0:0:0:
192,192,67591,1,0,0:0:0:0:
320,192,67685,1,0,0:0:0:0:
448,192,67685,1,0,0:0:0:0:
192,192,67685,1,0,0:0:0:0:
64,192,67685,1,0,0:0:0:0:
320,192,67872,1,0,0:0:0:0:
448,192,67872,1,0,0:0:0:0:
192,192,67966,1,0,0:0:0:0:
64,192,68060,1,0,0:0:0:0:
448,192,68060,1,0,0:0:0:0:
320,192,68153,1,0,0:0:0:0:
192,192,68247,1,0,0:0:0:0:
64,192,68247,1,0,0:0:0:0:
320,192,68341,1,0,0:0:0:0:
448,192,68341,1,0,0:0:0:0:
192,192,68435,1,0,0:0:0:0:
64,192,68435,1,0,0:0:0:0:
320,192,68528,1,0,0:0:0:0:
448,192,68528,1,0,0:0:0:0:
192,192,68622,1,0,0:0:0:0:
64,192,68622,1,0,0:0:0:0:
320,192,68716,1,0,0:0:0:0:
448,192,68716,1,0,0:0:0:0:
64,192,68810,128,0,68903:0:0:0:0:
192,192,68810,128,0,68903:0:0:0:0:
320,192,68810,128,0,68903:0:0:0:0:
448,192,68810,128,0,68903:0:0:0:0:
64,192,69560,128,0,69653:0:0:0:0:
320,192,69560,128,0,69653:0:0:0:0:
448,192,69560,128,0,69653:0:0:0:0:
64,192,70310,128,0,70403:0:0:0:0:
192,192,70310,128,0,70403:0:0:0:0:
448,192,70310,128,0,70403:0:0:0:0:
448,192,70591,128,0,70685:0:0:0:0:
320,192,70591,128,0,70685:0:0:0:0:
64,192,70591,128,0,70685:0:0:0:0:
64,192,70872,128,0,70966:0:0:0:0:
192,192,70872,128,0,70966:0:0:0:0:
448,192,70872,128,0,70966:0:0:0:0:
192,192,71060,128,0,71153:0:0:0:0:
64,192,71060,128,0,71153:0:0:0:0:
448,192,71060,128,0,71153:0:0:0:0:
64,192,71435,128,0,71716:0:0:0:0:
192,192,71435,128,0,71716:0:0:0:0:
448,192,71435,128,0,71716:0:0:0:0:
320,192,71435,128,0,71716:0:0:0:0:
64,192,71810,1,0,0:0:0:0:
192,192,71810,1,0,0:0:0:0:
320,192,71810,1,0,0:0:0:0:
448,192,71810,1,0,0:0:0:0:
64,192,72185,128,0,72278:0:0:0:0:
448,192,72185,128,0,72278:0:0:0:0:
64,192,72560,128,0,72653:0:0:0:0:
320,192,72560,128,0,72653:0:0:0:0:
448,192,72560,128,0,72653:0:0:0:0:
64,192,72935,1,0,0:0:0:0:
448,192,72935,1,0,0:0:0:0:
64,192,73310,128,0,73403:0:0:0:0:
192,192,73310,128,0,73403:0:0:0:0:
320,192,73310,128,0,73403:0:0:0:0:
448,192,73310,128,0,73403:0:0:0:0:
64,192,73591,128,0,73685:0:0:0:0:
192,192,73591,128,0,73685:0:0:0:0:
448,192,73591,128,0,73685:0:0:0:0:
64,192,73872,128,0,73966:0:0:0:0:
320,192,73872,128,0,73966:0:0:0:0:
448,192,73872,128,0,73966:0:0:0:0:
64,192,74060,128,0,74153:0:0:0:0:
192,192,74060,128,0,74153:0:0:0:0:
448,192,74060,128,0,74153:0:0:0:0:
320,192,74247,1,0,0:0:0:0:
448,192,74247,1,0,0:0:0:0:
192,192,74341,1,0,0:0:0:0:
64,192,74341,1,0,0:0:0:0:
64,192,74435,128,0,74622:0:0:0:0:
192,192,74435,128,0,74622:0:0:0:0:
320,192,74435,128,0,74622:0:0:0:0:
448,192,74435,128,0,74622:0:0:0:0:
320,192,74810,128,0,74997:0:0:0:0:
192,192,74810,128,0,74903:0:0:0:0:
64,192,74810,128,0,74903:0:0:0:0:
448,192,74810,128,0,75091:0:0:0:0:
192,192,74997,128,0,75091:0:0:0:0:
64,192,74997,128,0,75091:0:0:0:0:
320,192,75091,128,0,75185:0:0:0:0:
448,192,75185,128,0,75278:0:0:0:0:
192,192,75185,128,0,75372:0:0:0:0:
64,192,75185,128,0,75278:0:0:0:0:
320,192,75278,128,0,75466:0:0:0:0:
64,192,75372,128,0,75560:0:0:0:0:
448,192,75372,128,0,75466:0:0:0:0:
192,192,75466,128,0,75653:0:0:0:0:
320,192,75560,128,0,75653:0:0:0:0:
448,192,75560,128,0,75747:0:0:0:0:
64,192,75653,128,0,75841:0:0:0:0:
192,192,75747,128,0,75841:0:0:0:0:
320,192,75747,128,0,75841:0:0:0:0:
448,192,75841,128,0,75935:0:0:0:0:
320,192,75935,128,0,76028:0:0:0:0:
192,192,75935,128,0,76122:0:0:0:0:
64,192,75935,128,0,76028:0:0:0:0:
448,192,76028,128,0,76216:0:0:0:0:
320,192,76122,128,0,76216:0:0:0:0:
64,192,76122,128,0,76310:0:0:0:0:
192,192,76216,128,0,76403:0:0:0:0:
320,192,76310,128,0,76497:0:0:0:0:
448,192,76310,128,0,76403:0:0:0:0:
64,192,76403,128,0,76591:0:0:0:0:
448,192,76497,128,0,76591:0:0:0:0:
192,192,76497,128,0,76591:0:0:0:0:
320,192,76591,128,0,76685:0:0:0:0:
192,192,76685,128,0,76778:0:0:0:0:
64,192,76685,128,0,76778:0:0:0:0:
448,192,76685,128,0,76872:0:0:0:0:
320,192,76778,128,0,76966:0:0:0:0:
192,192,76872,128,0,76966:0:0:0:0:
64,192,76872,128,0,77060:0:0:0:0:
448,192,76966,128,0,77153:0:0:0:0:
320,192,77060,128,0,77153:0:0:0:0:
192,192,77060,128,0,77247:0:0:0:0:
64,192,77153,128,0,77341:0:0:0:0:
448,192,77247,128,0,77341:0:0:0:0:
320,192,77247,128,0,77341:0:0:0:0:
192,192,77341,128,0,77435:0:0:0:0:
64,192,77435,128,0,77528:0:0:0:0:
320,192,77435,128,0,77622:0:0:0:0:
448,192,77435,128,0,77528:0:0:0:0:
192,192,77528,128,0,77716:0:0:0:0:
64,192,77622,128,0,77716:0:0:0:0:
448,192,77622,128,0,77810:0:0:0:0:
320,192,77716,128,0,77903:0:0:0:0:
192,192,77810,128,0,77903:0:0:0:0:
64,192,77810,128,0,77997:0:0:0:0:
448,192,77903,128,0,78091:0:0:0:0:
320,192,77997,128,0,78091:0:0:0:0:
192,192,77997,128,0,78091:0:0:0:0:
64,192,78091,128,0,78185:0:0:0:0:
192,192,78185,128,0,78278:0:0:0:0:
320,192,78185,128,0,78278:0:0:0:0:
448,192,78185,128,0,78372:0:0:0:0:
64,192,78278,128,0,78466:0:0:0:0:
192,192,78372,128,0,78466:0:0:0:0:
320,192,78372,128,0,78560:0:0:0:0:
448,192,78466,128,0,78560:0:0:0:0:
192,192,78560,128,0,78653:0:0:0:0:
64,192,78560,128,0,78653:0:0:0:0:
320,192,78653,128,0,78747:0:0:0:0:
448,192,78653,128,0,78841:0:0:0:0:
192,192,78747,128,0,78841:0:0:0:0:
64,192,78747,128,0,78841:0:0:0:0:
320,192,78841,128,0,79028:0:0:0:0:
192,192,78935,128,0,79028:0:0:0:0:
64,192,78935,128,0,79028:0:0:0:0:
448,192,78935,128,0,79028:0:0:0:0:
448,192,79122,128,0,79216:0:0:0:0:
320,192,79122,128,0,79216:0:0:0:0:
448,192,79310,1,0,0:0:0:0:
320,192,79310,1,0,0:0:0:0:
64,192,79310,1,0,0:0:0:0:
448,192,79591,1,0,0:0:0:0:
192,192,79591,1,0,0:0:0:0:
64,192,79591,1,0,0:0:0:0:
448,192,79872,1,0,0:0:0:0:
320,192,79872,1,0,0:0:0:0:
64,192,79872,1,0,0:0:0:0:
448,192,80060,1,0,0:0:0:0:
320,192,80060,1,0,0:0:0:0:
192,192,80060,1,0,0:0:0:0:
64,192,80060,1,0,0:0:0:0:
192,192,80247,1,0,0:0:0:0:
64,192,80247,1,0,0:0:0:0:
320,192,80341,1,0,0:0:0:0:
448,192,80341,1,0,0:0:0:0:
448,192,80435,128,0,80622:0:0:0:0:
320,192,80435,128,0,80622:0:0:0:0:
192,192,80435,128,0,80622:0:0:0:0:
64,192,80435,128,0,80622:0:0:0:0:
64,192,80810,1,0,0:0:0:0:
192,192,80810,1,0,0:0:0:0:
448,192,80810,1,0,0:0:0:0:
320,192,80810,1,0,0:0:0:0:
320,192,80903,1,0,0:0:0:0:
192,192,80997,1,0,0:0:0:0:
64,192,80997,1,0,0:0:0:0:
448,192,81091,1,0,0:0:0:0:
64,192,81185,1,0,0:0:0:0:
192,192,81185,1,0,0:0:0:0:
320,192,81185,1,0,0:0:0:0:
448,192,81185,1,0,0:0:0:0:
64,192,81278,1,0,0:0:0:0:
192,192,81372,1,0,0:0:0:0:
320,192,81372,1,0,0:0:0:0:
448,192,81466,1,0,0:0:0:0:
448,192,81560,1,0,0:0:0:0:
320,192,81560,1,0,0:0:0:0:
192,192,81560,1,0,0:0:0:0:
64,192,81560,1,0,0:0:0:0:
192,192,81653,1,0,0:0:0:0:
320,192,81747,1,0,0:0:0:0:
448,192,81747,1,0,0:0:0:0:
64,192,81841,1,0,0:0:0:0:
64,192,81935,1,0,0:0:0:0:
192,192,81935,1,0,0:0:0:0:
320,192,81935,1,0,0:0:0:0:
448,192,81935,1,0,0:0:0:0:
448,192,82028,1,0,0:0:0:0:
320,192,82122,1,0,0:0:0:0:
192,192,82122,1,0,0:0:0:0:
64,192,82216,1,0,0:0:0:0:
64,192,82310,1,0,0:0:0:0:
192,192,82310,1,0,0:0:0:0:
320,192,82310,1,0,0:0:0:0:
448,192,82310,1,0,0:0:0:0:
320,192,82403,1,0,0:0:0:0:
192,192,82497,1,0,0:0:0:0:
64,192,82497,1,0,0:0:0:0:
448,192,82591,1,0,0:0:0:0:
64,192,82685,1,0,0:0:0:0:
192,192,82685,1,0,0:0:0:0:
320,192,82685,1,0,0:0:0:0:
448,192,82685,1,0,0:0:0:0:
64,192,82778,1,0,0:0:0:0:
192,192,82872,1,0,0:0:0:0:
320,192,82872,1,0,0:0:0:0:
448,192,82966,1,0,0:0:0:0:
448,192,83060,1,0,0:0:0:0:
320,192,83060,1,0,0:0:0:0:
192,192,83060,1,0,0:0:0:0:
64,192,83060,1,0,0:0:0:0:
192,192,83153,1,0,0:0:0:0:
320,192,83247,1,0,0:0:0:0:
448,192,83247,1,0,0:0:0:0:
64,192,83341,1,0,0:0:0:0:
64,192,83435,1,0,0:0:0:0:
192,192,83435,1,0,0:0:0:0:
320,192,83435,1,0,0:0:0:0:
448,192,83435,1,0,0:0:0:0:
320,192,83622,128,0,83716:0:0:0:0:
448,192,83622,128,0,83716:0:0:0:0:
64,192,83810,128,0,84278:0:0:0:0:
192,192,83810,128,0,83903:0:0:0:0:
320,192,83810,128,0,83903:0:0:0:0:
448,192,83810,128,0,83903:0:0:0:0:
192,192,83997,128,0,84091:0:0:0:0:
320,192,83997,128,0,84091:0:0:0:0:
448,192,83997,128,0,84091:0:0:0:0:
320,192,84185,128,0,84653:0:0:0:0:
192,192,84185,128,0,84278:0:0:0:0:
448,192,84185,128,0,84278:0:0:0:0:
192,192,84372,128,0,84466:0:0:0:0:
64,192,84372,128,0,84466:0:0:0:0:
448,192,84372,128,0,84466:0:0:0:0:
192,192,84560,128,0,85028:0:0:0:0:
64,192,84560,128,0,84653:0:0:0:0:
448,192,84560,128,0,84653:0:0:0:0:
320,192,84747,128,0,84841:0:0:0:0:
448,192,84747,128,0,84841:0:0:0:0:
64,192,84747,128,0,84841:0:0:0:0:
448,192,84935,128,0,85310:0:0:0:0:
320,192,84935,128,0,85028:0:0:0:0:
64,192,84935,128,0,85028:0:0:0:0:
64,192,85122,128,0,85216:0:0:0:0:
192,192,85122,128,0,85216:0:0:0:0:
320,192,85122,128,0,85310:0:0:0:0:
64,192,85310,1,0,0:0:0:0:
192,192,85310,1,0,0:0:0:0:
320,192,85372,1,0,0:0:0:0:
448,192,85435,1,0,0:0:0:0:
64,192,85435,1,0,0:0:0:0:
192,192,85497,1,0,0:0:0:0:
320,192,85560,1,0,0:0:0:0:
448,192,85560,1,0,0:0:0:0:
192,192,85622,1,0,0:0:0:0:
64,192,85685,1,0,0:0:0:0:
448,192,85685,1,0,0:0:0:0:
320,192,85747,1,0,0:0:0:0:
192,192,85810,1,0,0:0:0:0:
64,192,85810,1,0,0:0:0:0:
448,192,85872,1,0,0:0:0:0:
64,192,85935,1,0,0:0:0:0:
320,192,85935,1,0,0:0:0:0:
192,192,85997,1,0,0:0:0:0:
320,192,86060,1,0,0:0:0:0:
448,192,86060,1,0,0:0:0:0:
64,192,86122,1,0,0:0:0:0:
192,192,86185,1,0,0:0:0:0:
320,192,86185,1,0,0:0:0:0:
448,192,86247,1,0,0:0:0:0:
64,192,86310,1,0,0:0:0:0:
192,192,86310,1,0,0:0:0:0:
320,192,86372,1,0,0:0:0:0:
448,192,86435,1,0,0:0:0:0:
64,192,86435,1,0,0:0:0:0:
192,192,86497,1,0,0:0:0:0:
320,192,86560,1,0,0:0:0:0:
448,192,86560,1,0,0:0:0:0:
192,192,86622,1,0,0:0:0:0:
64,192,86622,1,0,0:0:0:0:
320,192,86685,1,0,0:0:0:0:
448,192,86685,1,0,0:0:0:0:
192,192,86747,1,0,0:0:0:0:
64,192,86747,1,0,0:0:0:0:
320,192,86810,128,0,86903:0:0:0:0:
448,192,86810,128,0,86903:0:0:0:0:
64,192,86997,128,0,87091:0:0:0:0:
192,192,86997,128,0,87091:0:0:0:0:
320,192,87091,128,0,87185:0:0:0:0:
448,192,87091,128,0,87185:0:0:0:0:
320,192,87278,128,0,87372:0:0:0:0:
448,192,87278,128,0,87372:0:0:0:0:
192,192,87372,128,0,87466:0:0:0:0:
64,192,87372,128,0,87466:0:0:0:0:
64,192,87560,128,0,87653:0:0:0:0:
192,192,87560,128,0,87653:0:0:0:0:
320,192,87653,128,0,87747:0:0:0:0:
448,192,87653,128,0,87747:0:0:0:0:
448,192,87841,128,0,87935:0:0:0:0:
320,192,87841,128,0,87935:0:0:0:0:
192,192,87935,128,0,88216:0:0:0:0:
64,192,87935,128,0,88216:0:0:0:0:
64,192,88310,128,0,88778:0:0:0:0:
192,192,88310,128,0,88778:0:0:0:0:
320,192,88310,128,0,88778:0:0:0:0:
448,192,88310,128,0,88778:0:0:0:0:
64,192,89060,128,0,89435:0:0:0:0:
192,192,89810,128,0,90185:0:0:0:0:
448,192,90560,128,0,90747:0:0:0:0:
64,192,90747,1,0,0:0:0:0:
192,192,90747,1,0,0:0:0:0:
320,192,90841,1,0,0:0:0:0:
448,192,90841,1,0,0:0:0:0:
448,192,90935,1,0,0:0:0:0:
320,192,90935,1,0,0:0:0:0:
64,192,90935,1,0,0:0:0:0:
192,192,90935,1,0,0:0:0:0:
320,192,91310,128,0,91497:0:0:0:0:
192,192,91310,128,0,91403:0:0:0:0:
64,192,91310,128,0,91403:0:0:0:0:
448,192,91310,128,0,91591:0:0:0:0:
192,192,91497,128,0,91591:0:0:0:0:
64,192,91497,128,0,91591:0:0:0:0:
320,192,91591,128,0,91685:0:0:0:0:
448,192,91685,128,0,91778:0:0:0:0:
192,192,91685,128,0,91872:0:0:0:0:
64,192,91685,128,0,91778:0:0:0:0:
320,192,91778,128,0,91966:0:0:0:0:
64,192,91872,128,0,92060:0:0:0:0:
448,192,91872,128,0,91966:0:0:0:0:
192,192,91966,128,0,92153:0:0:0:0:
320,192,92060,128,0,92153:0:0:0:0:
448,192,92060,128,0,92247:0:0:0:0:
64,192,92153,128,0,92341:0:0:0:0:
192,192,92247,128,0,92341:0:0:0:0:
320,192,92247,128,0,92341:0:0:0:0:
448,192,92341,128,0,92435:0:0:0:0:
320,192,92435,128,0,92528:0:0:0:0:
192,192,92435,128,0,92622:0:0:0:0:
64,192,92435,128,0,92528:0:0:0:0:
448,192,92528,128,0,92716:0:0:0:0:
320,192,92622,128,0,92716:0:0:0:0:
64,192,92622,128,0,92810:0:0:0:0:
192,192,92716,128,0,92903:0:0:0:0:
320,192,92810,128,0,92997:0:0:0:0:
448,192,92810,128,0,92903:0:0:0:0:
64,192,92903,128,0,93091:0:0:0:0:
448,192,92997,128,0,93091:0:0:0:0:
192,192,92997,128,0,93091:0:0:0:0:
320,192,93091,128,0,93185:0:0:0:0:
192,192,93185,128,0,93278:0:0:0:0:
64,192,93185,128,0,93278:0:0:0:0:
448,192,93185,128,0,93372:0:0:0:0:
320,192,93278,128,0,93466:0:0:0:0:
192,192,93372,128,0,93466:0:0:0:0:
64,192,93372,128,0,93560:0:0:0:0:
448,192,93466,128,0,93653:0:0:0:0:
320,192,93560,128,0,93653:0:0:0:0:
192,192,93560,128,0,93747:0:0:0:0:
64,192,93653,128,0,93935:0:0:0:0:
448,192,93747,128,0,93841:0:0:0:0:
320,192,93747,128,0,93841:0:0:0:0:
192,192,93841,128,0,93935:0:0:0:0:
320,192,93935,128,0,94028:0:0:0:0:
448,192,93935,128,0,94028:0:0:0:0:
192,192,94028,128,0,94122:0:0:0:0:
64,192,94028,128,0,94122:0:0:0:0:
320,192,94122,128,0,94216:0:0:0:0:
448,192,94122,128,0,94216:0:0:0:0:
192,192,94216,1,0,0:0:0:0:
64,192,94216,1,0,0:0:0:0:
192,192,94310,128,0,94403:0:0:0:0:
64,192,94310,128,0,94403:0:0:0:0:
448,192,94310,128,0,94403:0:0:0:0:
320,192,94310,128,0,94403:0:0:0:0:
192,192,94497,128,0,94591:0:0:0:0:
64,192,94497,128,0,94591:0:0:0:0:
320,192,94591,1,0,0:0:0:0:
448,192,94591,1,0,0:0:0:0:
64,192,94685,1,0,0:0:0:0:
448,192,94685,128,0,94778:0:0:0:0:
192,192,94685,128,0,94778:0:0:0:0:
448,192,94872,128,0,94966:0:0:0:0:
320,192,94872,128,0,94966:0:0:0:0:
448,192,95060,1,0,0:0:0:0:
320,192,95060,1,0,0:0:0:0:
192,192,95060,128,0,95153:0:0:0:0:
64,192,95060,128,0,95153:0:0:0:0:
64,192,95247,128,0,95341:0:0:0:0:
448,192,95247,128,0,95341:0:0:0:0:
192,192,95435,128,0,95528:0:0:0:0:
448,192,95435,128,0,95528:0:0:0:0:
320,192,95622,128,0,95716:0:0:0:0:
64,192,95622,128,0,95716:0:0:0:0:
64,192,95810,1,0,0:0:0:0:
448,192,95810,128,0,95903:0:0:0:0:
320,192,95810,128,0,95903:0:0:0:0:
448,192,96091,1,0,0:0:0:0:
192,192,96091,128,0,96185:0:0:0:0:
64,192,96091,128,0,96185:0:0:0:0:
320,192,96372,128,0,96466:0:0:0:0:
448,192,96372,128,0,96466:0:0:0:0:
64,192,96372,1,0,0:0:0:0:
448,192,96560,1,0,0:0:0:0:
320,192,96560,1,0,0:0:0:0:
192,192,96560,1,0,0:0:0:0:
64,192,96560,1,0,0:0:0:0:
448,192,96747,1,0,0:0:0:0:
64,192,96747,1,0,0:0:0:0:
192,192,96747,1,0,0:0:0:0:
448,192,96935,128,0,97028:0:0:0:0:
320,192,96935,128,0,97028:0:0:0:0:
192,192,96935,128,0,97028:0:0:0:0:
64,192,96935,128,0,97028:0:0:0:0:
448,192,97122,1,0,0:0:0:0:
320,192,97122,1,0,0:0:0:0:
192,192,97216,1,0,0:0:0:0:
64,192,97216,1,0,0:0:0:0:
192,192,97310,128,0,97497:0:0:0:0:
320,192,97310,128,0,97403:0:0:0:0:
448,192,97310,128,0,97403:0:0:0:0:
64,192,97310,128,0,97591:0:0:0:0:
320,192,97497,128,0,97591:0:0:0:0:
448,192,97497,128,0,97591:0:0:0:0:
192,192,97591,128,0,97685:0:0:0:0:
64,192,97685,128,0,97778:0:0:0:0:
320,192,97685,128,0,97872:0:0:0:0:
448,192,97685,128,0,97778:0:0:0:0:
192,192,97778,128,0,97966:0:0:0:0:
448,192,97872,128,0,98060:0:0:0:0:
64,192,97872,128,0,97966:0:0:0:0:
320,192,97966,128,0,98153:0:0:0:0:
192,192,98060,128,0,98153:0:0:0:0:
64,192,98060,128,0,98247:0:0:0:0:
448,192,98153,128,0,98341:0:0:0:0:
320,192,98247,128,0,98341:0:0:0:0:
192,192,98247,128,0,98341:0:0:0:0:
64,192,98341,128,0,98435:0:0:0:0:
192,192,98435,128,0,98528:0:0:0:0:
320,192,98435,128,0,98622:0:0:0:0:
448,192,98435,128,0,98528:0:0:0:0:
64,192,98528,128,0,98716:0:0:0:0:
192,192,98622,128,0,98716:0:0:0:0:
448,192,98622,128,0,98810:0:0:0:0:
320,192,98716,128,0,98903:0:0:0:0:
192,192,98810,128,0,98997:0:0:0:0:
64,192,98810,128,0,98903:0:0:0:0:
448,192,98903,128,0,99091:0:0:0:0:
320,192,98997,128,0,99091:0:0:0:0:
64,192,98997,128,0,99091:0:0:0:0:
192,192,99091,128,0,99185:0:0:0:0:
320,192,99185,128,0,99278:0:0:0:0:
448,192,99185,128,0,99278:0:0:0:0:
64,192,99185,128,0,99372:0:0:0:0:
192,192,99278,128,0,99372:0:0:0:0:
320,192,99372,1,0,0:0:0:0:
448,192,99372,1,0,0:0:0:0:
192,192,99466,1,0,0:0:0:0:
64,192,99466,1,0,0:0:0:0:
320,192,99560,1,0,0:0:0:0:
448,192,99560,1,0,0:0:0:0:
192,192,99653,1,0,0:0:0:0:
64,192,99747,1,0,0:0:0:0:
448,192,99747,1,0,0:0:0:0:
320,192,99841,1,0,0:0:0:0:
192,192,99935,1,0,0:0:0:0:
64,192,99935,1,0,0:0:0:0:
320,192,100028,1,0,0:0:0:0:
448,192,100028,1,0,0:0:0:0:
192,192,100122,1,0,0:0:0:0:
64,192,100122,1,0,0:0:0:0:
320,192,100216,1,0,0:0:0:0:
448,192,100216,1,0,0:0:0:0:
320,192,100310,1,0,0:0:0:0:
192,192,100310,1,0,0:0:0:0:
64,192,100310,128,0,100778:0:0:0:0:
448,192,100310,128,0,100497:0:0:0:0:
320,192,100497,128,0,100685:0:0:0:0:
192,192,100685,128,0,100872:0:0:0:0:
448,192,100872,1,0,0:0:0:0:
320,192,100872,1,0,0:0:0:0:
64,192,100872,128,0,101060:0:0:0:0:
320,192,101060,128,0,101810:0:0:0:0:
448,192,101060,128,0,101247:0:0:0:0:
192,192,101247,128,0,101435:0:0:0:0:
64,192,101435,1,0,0:0:0:0:
448,192,101435,1,0,0:0:0:0:
448,192,101622,128,0,101810:0:0:0:0:
192,192,101810,128,0,102278:0:0:0:0:
64,192,101810,1,0,0:0:0:0:
320,192,101903,1,0,0:0:0:0:
448,192,101903,1,0,0:0:0:0:
448,192,101997,1,0,0:0:0:0:
64,192,101997,128,0,102185:0:0:0:0:
320,192,102185,128,0,102372:0:0:0:0:
448,192,102372,1,0,0:0:0:0:
64,192,102372,1,0,0:0:0:0:
192,192,102372,128,0,102560:0:0:0:0:
448,192,102560,128,0,103310:0:0:0:0:
64,192,102560,128,0,102747:0:0:0:0:
192,192,102747,1,0,0:0:0:0:
320,192,102747,128,0,102935:0:0:0:0:
192,192,102935,128,0,103122:0:0:0:0:
64,192,102935,1,0,0:0:0:0:
320,192,103122,128,0,103310:0:0:0:0:
64,192,103310,128,0,103778:0:0:0:0:
192,192,103310,128,0,103497:0:0:0:0:
320,192,103497,128,0,103685:0:0:0:0:
448,192,103685,128,0,103872:0:0:0:0:
320,192,103872,1,0,0:0:0:0:
192,192,103872,128,0,104060:0:0:0:0:
64,192,103872,1,0,0:0:0:0:
448,192,104060,128,0,104810:0:0:0:0:
320,192,104060,128,0,104247:0:0:0:0:
64,192,104247,1,0,0:0:0:0:
192,192,104247,128,0,104435:0:0:0:0:
320,192,104435,1,0,0:0:0:0:
64,192,104435,128,0,104622:0:0:0:0:
320,192,104622,128,0,104810:0:0:0:0:
192,192,104810,128,0,105278:0:0:0:0:
64,192,104810,1,0,0:0:0:0:
320,192,104903,1,0,0:0:0:0:
448,192,104903,1,0,0:0:0:0:
448,192,104997,1,0,0:0:0:0:
64,192,104997,128,0,105185:0:0:0:0:
320,192,105185,128,0,105372:0:0:0:0:
448,192,105372,128,0,105560:0:0:0:0:
64,192,105372,1,0,0:0:0:0:
192,192,105372,1,0,0:0:0:0:
320,192,105560,128,0,106028:0:0:0:0:
64,192,105560,128,0,105747:0:0:0:0:
448,192,105747,1,0,0:0:0:0:
192,192,105747,1,0,0:0:0:0:
448,192,105935,128,0,106028:0:0:0:0:
64,192,105935,128,0,106028:0:0:0:0:
192,192,105935,128,0,106028:0:0:0:0:
448,192,106122,1,0,0:0:0:0:
320,192,106122,1,0,0:0:0:0:
192,192,106216,1,0,0:0:0:0:
64,192,106216,1,0,0:0:0:0:
64,192,106310,1,0,0:0:0:0:
448,192,106310,1,0,0:0:0:0:
320,192,106310,1,0,0:0:0:0:
448,192,106497,1,0,0:0:0:0:
320,192,106497,1,0,0:0:0:0:
64,192,106497,1,0,0:0:0:0:
448,192,106685,128,0,106872:0:0:0:0:
320,192,106685,128,0,106872:0:0:0:0:
192,192,106685,128,0,106872:0:0:0:0:
64,192,106685,128,0,106872:0:0:0:0:
448,192,107060,1,0,0:0:0:0:
192,192,107060,1,0,0:0:0:0:
64,192,107060,1,0,0:0:0:0:
448,192,107247,1,0,0:0:0:0:
192,192,107247,1,0,0:0:0:0:
64,192,107247,1,0,0:0:0:0:
448,192,107435,128,0,107622:0:0:0:0:
320,192,107435,128,0,107622:0:0:0:0:
64,192,107435,128,0,107622:0:0:0:0:
192,192,107435,128,0,107622:0:0:0:0:
448,192,107810,1,0,0:0:0:0:
320,192,107810,1,0,0:0:0:0:
64,192,107810,1,0,0:0:0:0:
448,192,107997,1,0,0:0:0:0:
192,192,107997,1,0,0:0:0:0:
64,192,107997,1,0,0:0:0:0:
448,192,108185,128,0,108278:0:0:0:0:
320,192,108185,128,0,108278:0:0:0:0:
192,192,108185,128,0,108278:0:0:0:0:
64,192,108185,128,0,108278:0:0:0:0:
192,192,108372,1,0,0:0:0:0:
64,192,108372,1,0,0:0:0:0:
320,192,108466,1,0,0:0:0:0:
448,192,108560,1,0,0:0:0:0:
192,192,108560,1,0,0:0:0:0:
64,192,108560,1,0,0:0:0:0:
320,192,108653,1,0,0:0:0:0:
448,192,108747,1,0,0:0:0:0:
192,192,108841,1,0,0:0:0:0:
64,192,108935,1,0,0:0:0:0:
448,192,108935,1,0,0:0:0:0:
320,192,109028,1,0,0:0:0:0:
192,192,109122,1,0,0:0:0:0:
64,192,109122,1,0,0:0:0:0:
448,192,109216,1,0,0:0:0:0:
320,192,109216,1,0,0:0:0:0:
448,192,109310,1,0,0:0:0:0:
192,192,109310,1,0,0:0:0:0:
64,192,109310,1,0,0:0:0:0:
448,192,109497,1,0,0:0:0:0:
320,192,109497,1,0,0:0:0:0:
192,192,109591,1,0,0:0:0:0:
64,192,109591,1,0,0:0:0:0:
64,192,109685,1,0,0:0:0:0:
320,192,109685,1,0,0:0:0:0:
448,192,109685,1,0,0:0:0:0:
192,192,109872,1,0,0:0:0:0:
64,192,109872,1,0,0:0:0:0:
320,192,109966,1,0,0:0:0:0:
192,192,110060,1,0,0:0:0:0:
64,192,110060,1,0,0:0:0:0:
448,192,110060,1,0,0:0:0:0:
320,192,110153,1,0,0:0:0:0:
448,192,110153,1,0,0:0:0:0:
192,192,110247,1,0,0:0:0:0:
64,192,110247,1,0,0:0:0:0:
320,192,110341,1,0,0:0:0:0:
448,192,110341,1,0,0:0:0:0:
448,192,110435,1,0,0:0:0:0:
320,192,110435,1,0,0:0:0:0:
192,192,110435,1,0,0:0:0:0:
64,192,110435,1,0,0:0:0:0:
320,192,110622,128,0,110716:0:0:0:0:
64,192,110622,128,0,110716:0:0:0:0:
448,192,110810,1,0,0:0:0:0:
320,192,110810,1,0,0:0:0:0:
448,192,110903,1,0,0:0:0:0:
320,192,110903,1,0,0:0:0:0:
192,192,110903,1,0,0:0:0:0:
64,192,110903,1,0,0:0:0:0:
192,192,111091,1,0,0:0:0:0:
64,192,111091,1,0,0:0:0:0:
320,192,111185,1,0,0:0:0:0:
448,192,111185,1,0,0:0:0:0:
192,192,111185,1,0,0:0:0:0:
64,192,111185,1,0,0:0:0:0:
192,192,111372,1,0,0:0:0:0:
64,192,111372,1,0,0:0:0:0:
320,192,111466,1,0,0:0:0:0:
448,192,111466,1,0,0:0:0:0:
192,192,111560,1,0,0:0:0:0:
64,192,111560,1,0,0:0:0:0:
448,192,111653,1,0,0:0:0:0:
320,192,111700,1,0,0:0:0:0:
192,192,111747,1,0,0:0:0:0:
64,192,111794,1,0,0:0:0:0:
448,192,111841,1,0,0:0:0:0:
320,192,111841,1,0,0:0:0:0:
192,192,111935,1,0,0:0:0:0:
64,192,111935,1,0,0:0:0:0:
320,192,112028,1,0,0:0:0:0:
448,192,112028,1,0,0:0:0:0:
192,192,112122,1,0,0:0:0:0:
64,192,112122,1,0,0:0:0:0:
320,192,112216,1,0,0:0:0:0:
448,192,112216,1,0,0:0:0:0:
192,192,112310,128,0,112403:0:0:0:0:
64,192,112310,128,0,112403:0:0:0:0:
448,192,112310,1,0,0:0:0:0:
320,192,112497,1,0,0:0:0:0:
448,192,112497,1,0,0:0:0:0:
64,192,112685,1,0,0:0:0:0:
320,192,112685,128,0,112778:0:0:0:0:
448,192,112685,128,0,112778:0:0:0:0:
64,192,112872,128,0,112966:0:0:0:0:
192,192,112872,128,0,112966:0:0:0:0:
448,192,113060,128,0,113153:0:0:0:0:
320,192,113106,128,0,113200:0:0:0:0:
192,192,113153,128,0,113247:0:0:0:0:
64,192,113200,128,0,113294:0:0:0:0:
320,192,113247,128,0,113341:0:0:0:0:
448,192,113294,128,0,113341:0:0:0:0:
192,192,113341,1,0,0:0:0:0:
64,192,113341,1,0,0:0:0:0:
64,192,113435,128,0,113622:0:0:0:0:
192,192,113435,128,0,113622:0:0:0:0:
320,192,113435,128,0,113622:0:0:0:0:
448,192,113435,128,0,113622:0:0:0:0:
192,192,113810,128,0,113997:0:0:0:0:
320,192,113810,128,0,113903:0:0:0:0:
448,192,113810,128,0,113903:0:0:0:0:
64,192,113810,128,0,114091:0:0:0:0:
320,192,113997,128,0,114091:0:0:0:0:
448,192,113997,128,0,114091:0:0:0:0:
192,192,114091,128,0,114185:0:0:0:0:
64,192,114185,128,0,114278:0:0:0:0:
320,192,114185,128,0,114372:0:0:0:0:
448,192,114185,128,0,114278:0:0:0:0:
192,192,114278,128,0,114466:0:0:0:0:
448,192,114372,128,0,114560:0:0:0:0:
64,192,114372,128,0,114466:0:0:0:0:
320,192,114466,128,0,114653:0:0:0:0:
192,192,114560,128,0,114653:0:0:0:0:
64,192,114560,128,0,114747:0:0:0:0:
448,192,114653,128,0,114841:0:0:0:0:
320,192,114747,128,0,114841:0:0:0:0:
192,192,114747,128,0,114841:0:0:0:0:
64,192,114841,128,0,114935:0:0:0:0:
192,192,114935,128,0,115028:0:0:0:0:
320,192,114935,128,0,115122:0:0:0:0:
448,192,114935,128,0,115028:0:0:0:0:
64,192,115028,128,0,115216:0:0:0:0:
192,192,115122,128,0,115216:0:0:0:0:
448,192,115122,128,0,115310:0:0:0:0:
320,192,115216,128,0,115403:0:0:0:0:
192,192,115310,128,0,115497:0:0:0:0:
64,192,115310,128,0,115403:0:0:0:0:
448,192,115403,128,0,115591:0:0:0:0:
64,192,115497,128,0,115591:0:0:0:0:
320,192,115497,128,0,115591:0:0:0:0:
192,192,115591,128,0,115685:0:0:0:0:
320,192,115685,128,0,115778:0:0:0:0:
448,192,115685,128,0,115778:0:0:0:0:
64,192,115685,128,0,115872:0:0:0:0:
192,192,115778,128,0,115966:0:0:0:0:
320,192,115872,128,0,115966:0:0:0:0:
448,192,115872,128,0,116060:0:0:0:0:
64,192,115966,128,0,116153:0:0:0:0:
192,192,116060,128,0,116153:0:0:0:0:
320,192,116060,128,0,116247:0:0:0:0:
448,192,116153,128,0,116341:0:0:0:0:
64,192,116247,128,0,116341:0:0:0:0:
192,192,116247,128,0,116341:0:0:0:0:
320,192,116341,128,0,116435:0:0:0:0:
448,192,116435,128,0,116528:0:0:0:0:
192,192,116435,128,0,116622:0:0:0:0:
64,192,116435,128,0,116528:0:0:0:0:
320,192,116528,128,0,116716:0:0:0:0:
448,192,116622,128,0,116716:0:0:0:0:
64,192,116622,128,0,116810:0:0:0:0:
192,192,116716,128,0,116903:0:0:0:0:
320,192,116810,128,0,116903:0:0:0:0:
448,192,116810,128,0,116997:0:0:0:0:
64,192,116903,128,0,117091:0:0:0:0:
192,192,116997,128,0,117091:0:0:0:0:
320,192,116997,128,0,117091:0:0:0:0:
448,192,117091,128,0,117185:0:0:0:0:
320,192,117185,128,0,117278:0:0:0:0:
192,192,117185,128,0,117278:0:0:0:0:
64,192,117185,128,0,117372:0:0:0:0:
448,192,117278,128,0,117466:0:0:0:0:
320,192,117372,128,0,117466:0:0:0:0:
192,192,117372,128,0,117560:0:0:0:0:
64,192,117466,128,0,117560:0:0:0:0:
320,192,117560,128,0,117653:0:0:0:0:
448,192,117560,128,0,117653:0:0:0:0:
192,192,117653,128,0,117747:0:0:0:0:
64,192,117653,128,0,117841:0:0:0:0:
320,192,117747,128,0,117841:0:0:0:0:
448,192,117747,128,0,117841:0:0:0:0:
192,192,117841,128,0,117935:0:0:0:0:
320,192,117935,128,0,118122:0:0:0:0:
448,192,117935,128,0,118028:0:0:0:0:
64,192,117935,128,0,118028:0:0:0:0:
192,192,118028,128,0,118216:0:0:0:0:
64,192,118122,128,0,118216:0:0:0:0:
448,192,118122,128,0,118310:0:0:0:0:
320,192,118216,128,0,118403:0:0:0:0:
192,192,118310,128,0,118403:0:0:0:0:
64,192,118310,128,0,118403:0:0:0:0:
448,192,118403,128,0,118497:0:0:0:0:
320,192,118497,128,0,118591:0:0:0:0:
192,192,118497,128,0,118591:0:0:0:0:
64,192,118591,128,0,118685:0:0:0:0:
448,192,118685,128,0,118778:0:0:0:0:
320,192,118685,128,0,118778:0:0:0:0:
192,192,118685,128,0,118778:0:0:0:0:
64,192,118778,128,0,118872:0:0:0:0:
448,192,118872,128,0,118966:0:0:0:0:
192,192,118872,128,0,118966:0:0:0:0:
320,192,118966,128,0,119060:0:0:0:0:
192,192,119060,128,0,119153:0:0:0:0:
64,192,119060,128,0,119153:0:0:0:0:
320,192,119153,128,0,119247:0:0:0:0:
448,192,119247,128,0,119341:0:0:0:0:
64,192,119247,128,0,119341:0:0:0:0:
192,192,119341,128,0,119435:0:0:0:0:
448,192,119435,128,0,119528:0:0:0:0:
320,192,119435,128,0,119528:0:0:0:0:
192,192,119528,128,0,119622:0:0:0:0:
64,192,119528,128,0,119622:0:0:0:0:
320,192,119622,128,0,119716:0:0:0:0:
448,192,119622,128,0,119716:0:0:0:0:
192,192,119716,1,0,0:0:0:0:
64,192,119716,1,0,0:0:0:0:
320,192,119810,128,0,119997:0:0:0:0:
192,192,119810,128,0,119903:0:0:0:0:
64,192,119810,128,0,119903:0:0:0:0:
448,192,119810,128,0,120091:0:0:0:0:
192,192,119997,128,0,120091:0:0:0:0:
64,192,119997,128,0,120091:0:0:0:0:
320,192,120091,128,0,120185:0:0:0:0:
448,192,120185,128,0,120278:0:0:0:0:
192,192,120185,128,0,120372:0:0:0:0:
64,192,120185,128,0,120278:0:0:0:0:
320,192,120278,128,0,120466:0:0:0:0:
64,192,120372,128,0,120560:0:0:0:0:
448,192,120372,128,0,120466:0:0:0:0:
192,192,120466,128,0,120653:0:0:0:0:
320,192,120560,128,0,120653:0:0:0:0:
448,192,120560,128,0,120747:0:0:0:0:
64,192,120653,128,0,120841:0:0:0:0:
192,192,120747,128,0,120841:0:0:0:0:
320,192,120747,128,0,120841:0:0:0:0:
448,192,120841,128,0,120935:0:0:0:0:
320,192,120935,128,0,121028:0:0:0:0:
192,192,120935,128,0,121122:0:0:0:0:
64,192,120935,128,0,121028:0:0:0:0:
448,192,121028,128,0,121216:0:0:0:0:
320,192,121122,128,0,121216:0:0:0:0:
64,192,121122,128,0,121310:0:0:0:0:
192,192,121216,128,0,121403:0:0:0:0:
320,192,121310,128,0,121497:0:0:0:0:
448,192,121310,128,0,121403:0:0:0:0:
64,192,121403,128,0,121591:0:0:0:0:
448,192,121497,128,0,121591:0:0:0:0:
192,192,121497,128,0,121591:0:0:0:0:
320,192,121591,128,0,121685:0:0:0:0:
192,192,121685,128,0,121778:0:0:0:0:
64,192,121685,128,0,121778:0:0:0:0:
448,192,121685,128,0,121872:0:0:0:0:
320,192,121778,128,0,121966:0:0:0:0:
192,192,121872,128,0,121966:0:0:0:0:
64,192,121872,128,0,122060:0:0:0:0:
448,192,121966,128,0,122153:0:0:0:0:
320,192,122060,128,0,122153:0:0:0:0:
192,192,122060,128,0,122247:0:0:0:0:
64,192,122153,128,0,122341:0:0:0:0:
448,192,122247,128,0,122341:0:0:0:0:
320,192,122247,128,0,122341:0:0:0:0:
192,192,122341,128,0,122435:0:0:0:0:
64,192,122435,128,0,122528:0:0:0:0:
320,192,122435,128,0,122622:0:0:0:0:
448,192,122435,128,0,122528:0:0:0:0:
192,192,122528,128,0,122716:0:0:0:0:
64,192,122622,128,0,122716:0:0:0:0:
448,192,122622,128,0,122810:0:0:0:0:
320,192,122716,128,0,122903:0:0:0:0:
192,192,122810,128,0,122903:0:0:0:0:
64,192,122810,128,0,122997:0:0:0:0:
448,192,122903,128,0,123091:0:0:0:0:
320,192,122997,128,0,123091:0:0:0:0:
192,192,122997,128,0,123091:0:0:0:0:
64,192,123091,128,0,123185:0:0:0:0:
192,192,123185,128,0,123278:0:0:0:0:
320,192,123185,128,0,123278:0:0:0:0:
448,192,123185,128,0,123372:0:0:0:0:
64,192,123278,128,0,123466:0:0:0:0:
192,192,123372,128,0,123466:0:0:0:0:
320,192,123372,128,0,123560:0:0:0:0:
448,192,123466,128,0,123560:0:0:0:0:
192,192,123560,128,0,123653:0:0:0:0:
64,192,123560,128,0,123653:0:0:0:0:
320,192,123653,128,0,123747:0:0:0:0:
448,192,123653,128,0,123841:0:0:0:0:
192,192,123747,128,0,123841:0:0:0:0:
64,192,123747,128,0,123841:0:0:0:0:
320,192,123841,128,0,123935:0:0:0:0:
192,192,123935,128,0,124122:0:0:0:0:
64,192,123935,128,0,124028:0:0:0:0:
448,192,123935,128,0,124028:0:0:0:0:
320,192,124028,128,0,124216:0:0:0:0:
448,192,124122,128,0,124216:0:0:0:0:
64,192,124122,128,0,124310:0:0:0:0:
192,192,124216,128,0,124403:0:0:0:0:
320,192,124310,128,0,124403:0:0:0:0:
448,192,124310,128,0,124497:0:0:0:0:
64,192,124403,128,0,124591:0:0:0:0:
192,192,124497,128,0,124591:0:0:0:0:
320,192,124497,128,0,124591:0:0:0:0:
448,192,124591,128,0,124685:0:0:0:0:
64,192,124685,128,0,124778:0:0:0:0:
192,192,124685,128,0,124778:0:0:0:0:
320,192,124685,128,0,124872:0:0:0:0:
448,192,124778,128,0,124872:0:0:0:0:
192,192,124872,1,0,0:0:0:0:
64,192,124872,1,0,0:0:0:0:
448,192,124966,1,0,0:0:0:0:
320,192,124966,1,0,0:0:0:0:
192,192,125060,1,0,0:0:0:0:
64,192,125060,1,0,0:0:0:0:
448,192,125060,1,0,0:0:0:0:
320,192,125153,1,0,0:0:0:0:
448,192,125153,1,0,0:0:0:0:
192,192,125247,128,0,125341:0:0:0:0:
64,192,125247,128,0,125341:0:0:0:0:
320,192,125341,128,0,125435:0:0:0:0:
448,192,125341,128,0,125435:0:0:0:0:
192,192,125435,1,0,0:0:0:0:
64,192,125435,1,0,0:0:0:0:
320,192,125528,1,0,0:0:0:0:
448,192,125528,1,0,0:0:0:0:
192,192,125622,128,0,125716:0:0:0:0:
64,192,125622,128,0,125716:0:0:0:0:
320,192,125716,1,0,0:0:0:0:
448,192,125716,1,0,0:0:0:0:
192,192,125810,128,0,125997:0:0:0:0:
320,192,125810,128,0,125903:0:0:0:0:
448,192,125810,128,0,125903:0:0:0:0:
64,192,125810,128,0,126091:0:0:0:0:
320,192,125997,128,0,126091:0:0:0:0:
448,192,125997,128,0,126091:0:0:0:0:
192,192,126091,128,0,126185:0:0:0:0:
64,192,126185,128,0,126278:0:0:0:0:
320,192,126185,128,0,126372:0:0:0:0:
448,192,126185,128,0,126278:0:0:0:0:
192,192,126278,128,0,126466:0:0:0:0:
448,192,126372,128,0,126560:0:0:0:0:
64,192,126372,128,0,126466:0:0:0:0:
320,192,126466,128,0,126653:0:0:0:0:
192,192,126560,128,0,126653:0:0:0:0:
64,192,126560,128,0,126747:0:0:0:0:
448,192,126653,128,0,126841:0:0:0:0:
320,192,126747,128,0,126841:0:0:0:0:
192,192,126747,128,0,126841:0:0:0:0:
64,192,126841,128,0,126935:0:0:0:0:
192,192,126935,128,0,127028:0:0:0:0:
320,192,126935,128,0,127122:0:0:0:0:
448,192,126935,128,0,127028:0:0:0:0:
64,192,127028,128,0,127216:0:0:0:0:
192,192,127122,128,0,127216:0:0:0:0:
448,192,127122,128,0,127310:0:0:0:0:
320,192,127216,128,0,127403:0:0:0:0:
192,192,127310,128,0,127497:0:0:0:0:
64,192,127310,128,0,127403:0:0:0:0:
448,192,127403,128,0,127591:0:0:0:0:
64,192,127497,128,0,127591:0:0:0:0:
320,192,127497,128,0,127591:0:0:0:0:
192,192,127591,128,0,127685:0:0:0:0:
320,192,127685,128,0,127778:0:0:0:0:
448,192,127685,128,0,127778:0:0:0:0:
64,192,127685,128,0,127872:0:0:0:0:
192,192,127778,128,0,127966:0:0:0:0:
320,192,127872,128,0,127966:0:0:0:0:
448,192,127872,128,0,128060:0:0:0:0:
64,192,127966,128,0,128153:0:0:0:0:
192,192,128060,128,0,128153:0:0:0:0:
320,192,128060,128,0,128247:0:0:0:0:
448,192,128153,128,0,128341:0:0:0:0:
64,192,128247,128,0,128341:0:0:0:0:
192,192,128247,128,0,128341:0:0:0:0:
320,192,128341,128,0,128435:0:0:0:0:
448,192,128435,128,0,128528:0:0:0:0:
192,192,128435,128,0,128622:0:0:0:0:
64,192,128435,128,0,128528:0:0:0:0:
320,192,128528,128,0,128716:0:0:0:0:
448,192,128622,128,0,128716:0:0:0:0:
64,192,128622,128,0,128810:0:0:0:0:
192,192,128716,128,0,128903:0:0:0:0:
320,192,128810,128,0,128903:0:0:0:0:
448,192,128810,128,0,128997:0:0:0:0:
64,192,128903,128,0,129091:0:0:0:0:
192,192,128997,128,0,129091:0:0:0:0:
320,192,128997,128,0,129091:0:0:0:0:
448,192,129091,128,0,129185:0:0:0:0:
320,192,129185,128,0,129278:0:0:0:0:
192,192,129185,128,0,129278:0:0:0:0:
64,192,129185,128,0,129372:0:0:0:0:
448,192,129278,128,0,129466:0:0:0:0:
320,192,129372,128,0,129466:0:0:0:0:
192,192,129372,128,0,129560:0:0:0:0:
64,192,129466,128,0,129560:0:0:0:0:
320,192,129560,128,0,129653:0:0:0:0:
448,192,129560,128,0,129653:0:0:0:0:
192,192,129653,128,0,129747:0:0:0:0:
64,192,129653,128,0,129841:0:0:0:0:
320,192,129747,128,0,129841:0:0:0:0:
448,192,129747,128,0,129841:0:0:0:0:
192,192,129841,128,0,129935:0:0:0:0:
320,192,129935,128,0,130122:0:0:0:0:
448,192,129935,128,0,130028:0:0:0:0:
64,192,129935,128,0,130028:0:0:0:0:
192,192,130028,128,0,130216:0:0:0:0:
64,192,130122,128,0,130216:0:0:0:0:
448,192,130122,128,0,130310:0:0:0:0:
320,192,130216,128,0,130403:0:0:0:0:
192,192,130310,128,0,130403:0:0:0:0:
64,192,130310,128,0,130403:0:0:0:0:
448,192,130403,128,0,130497:0:0:0:0:
320,192,130497,128,0,130591:0:0:0:0:
192,192,130497,128,0,130591:0:0:0:0:
64,192,130591,128,0,130685:0:0:0:0:
448,192,130685,128,0,130778:0:0:0:0:
320,192,130685,128,0,130778:0:0:0:0:
192,192,130685,128,0,130778:0:0:0:0:
64,192,130778,128,0,130872:0:0:0:0:
320,192,130872,1,0,0:0:0:0:
448,192,130872,1,0,0:0:0:0:
64,192,130966,1,0,0:0:0:0:
192,192,130966,1,0,0:0:0:0:
64,192,131060,1,0,0:0:0:0:
448,192,131060,128,0,131153:0:0:0:0:
320,192,131060,128,0,131153:0:0:0:0:
192,192,131153,1,0,0:0:0:0:
64,192,131153,1,0,0:0:0:0:
448,192,131247,1,0,0:0:0:0:
320,192,131247,1,0,0:0:0:0:
64,192,131341,1,0,0:0:0:0:
192,192,131341,1,0,0:0:0:0:
448,192,131435,128,0,131528:0:0:0:0:
320,192,131435,128,0,131528:0:0:0:0:
192,192,131528,1,0,0:0:0:0:
64,192,131528,1,0,0:0:0:0:
448,192,131622,128,0,131716:0:0:0:0:
320,192,131622,128,0,131716:0:0:0:0:
192,192,131716,1,0,0:0:0:0:
64,192,131716,1,0,0:0:0:0:
448,192,131810,1,0,0:0:0:0:
320,192,131810,1,0,0:0:0:0:
192,192,131810,1,0,0:0:0:0:
64,192,131810,1,0,0:0:0:0:
448,192,131903,1,0,0:0:0:0:
320,192,131997,1,0,0:0:0:0:
192,192,131997,1,0,0:0:0:0:
64,192,132091,1,0,0:0:0:0:
448,192,132185,1,0,0:0:0:0:
320,192,132185,1,0,0:0:0:0:
192,192,132185,1,0,0:0:0:0:
64,192,132278,1,0,0:0:0:0:
448,192,132372,1,0,0:0:0:0:
192,192,132372,1,0,0:0:0:0:
320,192,132466,1,0,0:0:0:0:
320,192,132560,1,0,0:0:0:0:
64,192,132560,1,0,0:0:0:0:
192,192,132560,1,0,0:0:0:0:
448,192,132560,1,0,0:0:0:0:
448,192,132653,1,0,0:0:0:0:
320,192,132747,1,0,0:0:0:0:
192,192,132747,1,0,0:0:0:0:
64,192,132841,1,0,0:0:0:0:
448,192,132935,1,0,0:0:0:0:
320,192,132935,1,0,0:0:0:0:
192,192,133028,1,0,0:0:0:0:
448,192,133122,1,0,0:0:0:0:
64,192,133122,1,0,0:0:0:0:
320,192,133216,1,0,0:0:0:0:
192,192,133310,1,0,0:0:0:0:
64,192,133310,1,0,0:0:0:0:
320,192,133310,1,0,0:0:0:0:
448,192,133310,1,0,0:0:0:0:
64,192,133403,1,0,0:0:0:0:
320,192,133497,1,0,0:0:0:0:
448,192,133497,1,0,0:0:0:0:
192,192,133591,1,0,0:0:0:0:
64,192,133591,1,0,0:0:0:0:
64,192,133685,1,0,0:0:0:0:
192,192,133685,1,0,0:0:0:0:
320,192,133685,1,0,0:0:0:0:
448,192,133685,1,0,0:0:0:0:
448,192,133778,1,0,0:0:0:0:
192,192,133872,1,0,0:0:0:0:
64,192,133872,1,0,0:0:0:0:
320,192,133966,1,0,0:0:0:0:
448,192,133966,1,0,0:0:0:0:
448,192,134060,1,0,0:0:0:0:
320,192,134060,1,0,0:0:0:0:
192,192,134060,1,0,0:0:0:0:
64,192,134060,1,0,0:0:0:0:
64,192,134153,1,0,0:0:0:0:
320,192,134247,1,0,0:0:0:0:
192,192,134247,1,0,0:0:0:0:
448,192,134341,1,0,0:0:0:0:
320,192,134435,1,0,0:0:0:0:
64,192,134435,1,0,0:0:0:0:
192,192,134528,1,0,0:0:0:0:
320,192,134622,1,0,0:0:0:0:
448,192,134622,1,0,0:0:0:0:
64,192,134716,1,0,0:0:0:0:
448,192,134810,1,0,0:0:0:0:
192,192,134810,1,0,0:0:0:0:
320,192,134903,1,0,0:0:0:0:
192,192,134997,1,0,0:0:0:0:
64,192,134997,1,0,0:0:0:0:
320,192,135091,1,0,0:0:0:0:
448,192,135091,1,0,0:0:0:0:
448,192,135185,1,0,0:0:0:0:
320,192,135185,1,0,0:0:0:0:
192,192,135185,1,0,0:0:0:0:
64,192,135185,1,0,0:0:0:0:
64,192,135372,1,0,0:0:0:0:
192,192,135372,1,0,0:0:0:0:
320,192,135466,1,0,0:0:0:0:
448,192,135560,1,0,0:0:0:0:
64,192,135560,1,0,0:0:0:0:
192,192,135653,1,0,0:0:0:0:
64,192,135653,1,0,0:0:0:0:
320,192,135747,1,0,0:0:0:0:
448,192,135747,1,0,0:0:0:0:
192,192,135841,1,0,0:0:0:0:
64,192,135841,1,0,0:0:0:0:
64,192,135935,1,0,0:0:0:0:
192,192,135935,1,0,0:0:0:0:
320,192,135935,1,0,0:0:0:0:
448,192,135935,1,0,0:0:0:0:
448,192,136122,1,0,0:0:0:0:
320,192,136122,1,0,0:0:0:0:
64,192,136122,1,0,0:0:0:0:
192,192,136310,1,0,0:0:0:0:
64,192,136310,1,0,0:0:0:0:
448,192,136403,1,0,0:0:0:0:
320,192,136403,1,0,0:0:0:0:
192,192,136403,1,0,0:0:0:0:
64,192,136403,1,0,0:0:0:0:
448,192,136591,1,0,0:0:0:0:
320,192,136591,1,0,0:0:0:0:
192,192,136685,1,0,0:0:0:0:
64,192,136685,1,0,0:0:0:0:
320,192,136685,1,0,0:0:0:0:
448,192,136685,1,0,0:0:0:0:
192,192,136872,1,0,0:0:0:0:
64,192,136872,1,0,0:0:0:0:
320,192,136966,1,0,0:0:0:0:
64,192,137060,128,0,137153:0:0:0:0:
448,192,137060,128,0,137153:0:0:0:0:
192,192,137153,1,0,0:0:0:0:
320,192,137247,1,0,0:0:0:0:
448,192,137247,1,0,0:0:0:0:
192,192,137341,1,0,0:0:0:0:
64,192,137341,1,0,0:0:0:0:
320,192,137435,1,0,0:0:0:0:
448,192,137435,1,0,0:0:0:0:
192,192,137528,1,0,0:0:0:0:
64,192,137528,1,0,0:0:0:0:
320,192,137622,1,0,0:0:0:0:
448,192,137622,1,0,0:0:0:0:
192,192,137716,1,0,0:0:0:0:
64,192,137716,1,0,0:0:0:0:
448,192,137810,128,0,137903:0:0:0:0:
320,192,137810,128,0,137903:0:0:0:0:
192,192,137810,128,0,137903:0:0:0:0:
64,192,137810,128,0,137903:0:0:0:0:
64,192,137997,1,0,0:0:0:0:
192,192,138091,1,0,0:0:0:0:
320,192,138185,1,0,0:0:0:0:
448,192,138278,1,0,0:0:0:0:
64,192,138372,1,0,0:0:0:0:
192,192,138372,1,0,0:0:0:0:
320,192,138372,1,0,0:0:0:0:
448,192,138466,1,0,0:0:0:0:
320,192,138560,1,0,0:0:0:0:
192,192,138653,1,0,0:0:0:0:
64,192,138747,1,0,0:0:0:0:
448,192,138747,1,0,0:0:0:0:
320,192,138841,1,0,0:0:0:0:
192,192,138935,1,0,0:0:0:0:
64,192,138935,1,0,0:0:0:0:
448,192,138935,1,0,0:0:0:0:
320,192,139028,1,0,0:0:0:0:
192,192,139122,1,0,0:0:0:0:
64,192,139216,1,0,0:0:0:0:
320,192,139310,1,0,0:0:0:0:
448,192,139310,1,0,0:0:0:0:
192,192,139403,1,0,0:0:0:0:
64,192,139403,1,0,0:0:0:0:
320,192,139497,1,0,0:0:0:0:
448,192,139591,1,0,0:0:0:0:
64,192,139685,1,0,0:0:0:0:
192,192,139778,1,0,0:0:0:0:
320,192,139872,1,0,0:0:0:0:
448,192,139872,1,0,0:0:0:0:
64,192,139872,1,0,0:0:0:0:
192,192,139966,1,0,0:0:0:0:
320,192,140060,1,0,0:0:0:0:
448,192,140153,1,0,0:0:0:0:
64,192,140247,1,0,0:0:0:0:
192,192,140247,1,0,0:0:0:0:
320,192,140341,1,0,0:0:0:0:
448,192,140435,1,0,0:0:0:0:
64,192,140435,1,0,0:0:0:0:
192,192,140528,1,0,0:0:0:0:
320,192,140622,1,0,0:0:0:0:
448,192,140622,1,0,0:0:0:0:
64,192,140622,1,0,0:0:0:0:
192,192,140716,1,0,0:0:0:0:
320,192,140810,1,0,0:0:0:0:
448,192,140810,1,0,0:0:0:0:
64,192,140903,1,0,0:0:0:0:
192,192,140997,1,0,0:0:0:0:
320,192,141091,1,0,0:0:0:0:
448,192,141185,1,0,0:0:0:0:
64,192,141278,1,0,0:0:0:0:
192,192,141372,1,0,0:0:0:0:
320,192,141372,1,0,0:0:0:0:
448,192,141372,1,0,0:0:0:0:
64,192,141466,1,0,0:0:0:0:
192,192,141560,1,0,0:0:0:0:
320,192,141653,1,0,0:0:0:0:
64,192,141747,1,0,0:0:0:0:
192,192,141747,1,0,0:0:0:0:
448,192,141841,1,0,0:0:0:0:
320,192,141935,1,0,0:0:0:0:
192,192,141935,1,0,0:0:0:0:
64,192,141935,1,0,0:0:0:0:
448,192,142028,1,0,0:0:0:0:
320,192,142122,1,0,0:0:0:0:
192,192,142216,1,0,0:0:0:0:
448,192,142310,1,0,0:0:0:0:
320,192,142310,1,0,0:0:0:0:
192,192,142403,1,0,0:0:0:0:
64,192,142403,1,0,0:0:0:0:
320,192,142497,1,0,0:0:0:0:
448,192,142591,1,0,0:0:0:0:
64,192,142685,1,0,0:0:0:0:
192,192,142778,1,0,0:0:0:0:
320,192,142872,1,0,0:0:0:0:
448,192,142872,1,0,0:0:0:0:
64,192,142872,1,0,0:0:0:0:
192,192,142966,1,0,0:0:0:0:
320,192,143060,1,0,0:0:0:0:
448,192,143153,1,0,0:0:0:0:
64,192,143247,1,0,0:0:0:0:
192,192,143247,1,0,0:0:0:0:
320,192,143341,1,0,0:0:0:0:
448,192,143435,1,0,0:0:0:0:
64,192,143435,1,0,0:0:0:0:
192,192,143528,1,0,0:0:0:0:
320,192,143622,1,0,0:0:0:0:
448,192,143622,1,0,0:0:0:0:
64,192,143622,1,0,0:0:0:0:
448,192,143810,1,0,0:0:0:0:
64,192,143810,1,0,0:0:0:0:
192,192,143903,1,0,0:0:0:0:
448,192,143997,1,0,0:0:0:0:
320,192,144091,1,0,0:0:0:0:
192,192,144185,1,0,0:0:0:0:
64,192,144278,1,0,0:0:0:0:
192,192,144372,1,0,0:0:0:0:
320,192,144372,1,0,0:0:0:0:
448,192,144372,1,0,0:0:0:0:
64,192,144466,1,0,0:0:0:0:
192,192,144560,1,0,0:0:0:0:
320,192,144653,1,0,0:0:0:0:
64,192,144747,1,0,0:0:0:0:
448,192,144747,1,0,0:0:0:0:
192,192,144841,1,0,0:0:0:0:
64,192,144935,1,0,0:0:0:0:
448,192,144935,1,0,0:0:0:0:
320,192,144935,1,0,0:0:0:0:
192,192,145028,1,0,0:0:0:0:
320,192,145122,1,0,0:0:0:0:
448,192,145216,1,0,0:0:0:0:
64,192,145310,1,0,0:0:0:0:
192,192,145310,1,0,0:0:0:0:
448,192,145403,1,0,0:0:0:0:
320,192,145403,1,0,0:0:0:0:
192,192,145497,1,0,0:0:0:0:
64,192,145591,1,0,0:0:0:0:
448,192,145685,1,0,0:0:0:0:
320,192,145778,1,0,0:0:0:0:
448,192,145872,1,0,0:0:0:0:
64,192,145872,1,0,0:0:0:0:
192,192,145872,1,0,0:0:0:0:
320,192,145966,1,0,0:0:0:0:
192,192,146060,1,0,0:0:0:0:
64,192,146153,1,0,0:0:0:0:
320,192,146247,1,0,0:0:0:0:
448,192,146247,1,0,0:0:0:0:
192,192,146341,1,0,0:0:0:0:
448,192,146435,1,0,0:0:0:0:
64,192,146435,1,0,0:0:0:0:
320,192,146528,1,0,0:0:0:0:
448,192,146622,1,0,0:0:0:0:
64,192,146622,1,0,0:0:0:0:
192,192,146622,1,0,0:0:0:0:
320,192,146716,1,0,0:0:0:0:
64,192,146810,1,0,0:0:0:0:
192,192,146810,1,0,0:0:0:0:
448,192,146903,1,0,0:0:0:0:
320,192,146997,1,0,0:0:0:0:
192,192,147091,1,0,0:0:0:0:
64,192,147185,1,0,0:0:0:0:
448,192,147278,1,0,0:0:0:0:
64,192,147372,1,0,0:0:0:0:
192,192,147372,1,0,0:0:0:0:
320,192,147372,1,0,0:0:0:0:
448,192,147466,1,0,0:0:0:0:
320,192,147560,1,0,0:0:0:0:
192,192,147653,1,0,0:0:0:0:
320,192,147747,1,0,0:0:0:0:
448,192,147747,1,0,0:0:0:0:
64,192,147841,1,0,0:0:0:0:
448,192,147935,1,0,0:0:0:0:
320,192,147935,1,0,0:0:0:0:
192,192,147935,1,0,0:0:0:0:
64,192,148028,1,0,0:0:0:0:
192,192,148122,1,0,0:0:0:0:
320,192,148216,1,0,0:0:0:0:
192,192,148310,1,0,0:0:0:0:
64,192,148310,1,0,0:0:0:0:
448,192,148403,1,0,0:0:0:0:
320,192,148403,1,0,0:0:0:0:
192,192,148497,1,0,0:0:0:0:
64,192,148591,1,0,0:0:0:0:
448,192,148685,1,0,0:0:0:0:
320,192,148778,1,0,0:0:0:0:
448,192,148872,1,0,0:0:0:0:
64,192,148872,1,0,0:0:0:0:
192,192,148872,1,0,0:0:0:0:
320,192,148966,1,0,0:0:0:0:
192,192,149060,1,0,0:0:0:0:
64,192,149153,1,0,0:0:0:0:
320,192,149247,1,0,0:0:0:0:
448,192,149247,1,0,0:0:0:0:
192,192,149341,1,0,0:0:0:0:
448,192,149435,1,0,0:0:0:0:
64,192,149435,1,0,0:0:0:0:
320,192,149528,1,0,0:0:0:0:
448,192,149622,1,0,0:0:0:0:
64,192,149622,1,0,0:0:0:0:
192,192,149622,1,0,0:0:0:0:
448,192,149810,1,0,0:0:0:0:
64,192,149810,1,0,0:0:0:0:
320,192,149903,1,0,0:0:0:0:
64,192,149997,1,0,0:0:0:0:
192,192,150091,1,0,0:0:0:0:
320,192,150185,1,0,0:0:0:0:
448,192,150278,1,0,0:0:0:0:
64,192,150372,1,0,0:0:0:0:
192,192,150372,1,0,0:0:0:0:
320,192,150372,1,0,0:0:0:0:
448,192,150466,1,0,0:0:0:0:
320,192,150560,1,0,0:0:0:0:
192,192,150653,1,0,0:0:0:0:
64,192,150747,1,0,0:0:0:0:
448,192,150747,1,0,0:0:0:0:
320,192,150841,1,0,0:0:0:0:
192,192,150935,1,0,0:0:0:0:
64,192,150935,1,0,0:0:0:0:
448,192,150935,1,0,0:0:0:0:
320,192,151028,1,0,0:0:0:0:
192,192,151122,1,0,0:0:0:0:
64,192,151216,1,0,0:0:0:0:
320,192,151310,1,0,0:0:0:0:
448,192,151310,1,0,0:0:0:0:
192,192,151403,1,0,0:0:0:0:
64,192,151403,1,0,0:0:0:0:
320,192,151497,1,0,0:0:0:0:
448,192,151591,1,0,0:0:0:0:
64,192,151685,1,0,0:0:0:0:
192,192,151778,1,0,0:0:0:0:
320,192,151872,1,0,0:0:0:0:
448,192,151872,1,0,0:0:0:0:
64,192,151872,1,0,0:0:0:0:
192,192,151966,1,0,0:0:0:0:
320,192,152060,1,0,0:0:0:0:
448,192,152153,1,0,0:0:0:0:
64,192,152247,1,0,0:0:0:0:
192,192,152247,1,0,0:0:0:0:
320,192,152341,1,0,0:0:0:0:
448,192,152435,1,0,0:0:0:0:
64,192,152435,1,0,0:0:0:0:
192,192,152528,1,0,0:0:0:0:
320,192,152622,1,0,0:0:0:0:
448,192,152622,1,0,0:0:0:0:
64,192,152622,1,0,0:0:0:0:
192,192,152716,1,0,0:0:0:0:
448,192,152810,128,0,153185:0:0:0:0:
320,192,152810,128,0,152903:0:0:0:0:
192,192,152903,128,0,152997:0:0:0:0:
64,192,152997,128,0,153091:0:0:0:0:
320,192,153091,128,0,153185:0:0:0:0:
192,192,153185,128,0,153560:0:0:0:0:
64,192,153278,128,0,153372:0:0:0:0:
320,192,153372,128,0,153466:0:0:0:0:
448,192,153372,128,0,153466:0:0:0:0:
64,192,153466,128,0,153560:0:0:0:0:
320,192,153560,128,0,153935:0:0:0:0:
448,192,153653,128,0,153747:0:0:0:0:
192,192,153747,128,0,153841:0:0:0:0:
64,192,153747,128,0,153841:0:0:0:0:
448,192,153841,128,0,153935:0:0:0:0:
64,192,153935,128,0,154122:0:0:0:0:
192,192,153935,128,0,154028:0:0:0:0:
448,192,154028,128,0,154122:0:0:0:0:
320,192,154122,128,0,154216:0:0:0:0:
192,192,154216,128,0,154310:0:0:0:0:
64,192,154216,128,0,154310:0:0:0:0:
448,192,154310,128,0,154685:0:0:0:0:
320,192,154310,128,0,154403:0:0:0:0:
64,192,154403,128,0,154497:0:0:0:0:
192,192,154497,128,0,154591:0:0:0:0:
320,192,154591,128,0,154685:0:0:0:0:
192,192,154685,128,0,155060:0:0:0:0:
64,192,154778,128,0,154872:0:0:0:0:
320,192,154872,128,0,154966:0:0:0:0:
448,192,154872,128,0,154966:0:0:0:0:
64,192,154966,128,0,155060:0:0:0:0:
320,192,155060,128,0,155435:0:0:0:0:
448,192,155153,128,0,155247:0:0:0:0:
192,192,155247,128,0,155341:0:0:0:0:
64,192,155247,128,0,155341:0:0:0:0:
448,192,155341,128,0,155435:0:0:0:0:
64,192,155435,128,0,155716:0:0:0:0:
192,192,155435,128,0,155528:0:0:0:0:
448,192,155622,128,0,155716:0:0:0:0:
192,192,155622,128,0,155716:0:0:0:0:
320,192,155622,128,0,155716:0:0:0:0:
320,192,155810,1,0,0:0:0:0:
448,192,155810,1,0,0:0:0:0:
64,192,155903,1,0,0:0:0:0:
192,192,155997,1,0,0:0:0:0:
320,192,156091,1,0,0:0:0:0:
448,192,156185,1,0,0:0:0:0:
192,192,156278,1,0,0:0:0:0:
64,192,156372,1,0,0:0:0:0:
320,192,156372,1,0,0:0:0:0:
448,192,156372,1,0,0:0:0:0:
192,192,156466,1,0,0:0:0:0:
64,192,156560,1,0,0:0:0:0:
448,192,156653,1,0,0:0:0:0:
320,192,156747,1,0,0:0:0:0:
192,192,156747,1,0,0:0:0:0:
64,192,156841,1,0,0:0:0:0:
192,192,156935,1,0,0:0:0:0:
320,192,156935,1,0,0:0:0:0:
448,192,156935,1,0,0:0:0:0:
64,192,157028,1,0,0:0:0:0:
192,192,157122,1,0,0:0:0:0:
320,192,157216,1,0,0:0:0:0:
192,192,157310,1,0,0:0:0:0:
64,192,157310,1,0,0:0:0:0:
320,192,157403,1,0,0:0:0:0:
448,192,157403,1,0,0:0:0:0:
192,192,157497,1,0,0:0:0:0:
64,192,157591,1,0,0:0:0:0:
320,192,157685,1,0,0:0:0:0:
448,192,157778,1,0,0:0:0:0:
320,192,157872,1,0,0:0:0:0:
64,192,157872,1,0,0:0:0:0:
192,192,157872,1,0,0:0:0:0:
448,192,157966,1,0,0:0:0:0:
320,192,158060,1,0,0:0:0:0:
192,192,158153,1,0,0:0:0:0:
64,192,158247,1,0,0:0:0:0:
448,192,158247,1,0,0:0:0:0:
320,192,158341,1,0,0:0:0:0:
192,192,158435,1,0,0:0:0:0:
64,192,158435,1,0,0:0:0:0:
320,192,158528,1,0,0:0:0:0:
448,192,158622,1,0,0:0:0:0:
192,192,158622,1,0,0:0:0:0:
64,192,158622,1,0,0:0:0:0:
64,192,158810,128,0,159185:0:0:0:0:
192,192,158810,128,0,158903:0:0:0:0:
320,192,158903,128,0,158997:0:0:0:0:
448,192,158997,128,0,159091:0:0:0:0:
192,192,159091,128,0,159185:0:0:0:0:
320,192,159185,128,0,159560:0:0:0:0:
448,192,159185,128,0,159278:0:0:0:0:
192,192,159278,128,0,159372:0:0:0:0:
64,192,159372,128,0,159466:0:0:0:0:
448,192,159466,128,0,159560:0:0:0:0:
192,192,159560,128,0,159935:0:0:0:0:
64,192,159560,128,0,159653:0:0:0:0:
448,192,159653,128,0,159747:0:0:0:0:
320,192,159747,128,0,159841:0:0:0:0:
64,192,159841,128,0,159935:0:0:0:0:
448,192,159935,128,0,160310:0:0:0:0:
320,192,159935,128,0,160028:0:0:0:0:
192,192,160028,128,0,160122:0:0:0:0:
64,192,160122,128,0,160216:0:0:0:0:
320,192,160216,128,0,160310:0:0:0:0:
64,192,160310,1,0,0:0:0:0:
192,192,160310,1,0,0:0:0:0:
64,192,160497,1,0,0:0:0:0:
320,192,160497,1,0,0:0:0:0:
448,192,160497,1,0,0:0:0:0:
64,192,160685,1,0,0:0:0:0:
192,192,160685,1,0,0:0:0:0:
320,192,160685,1,0,0:0:0:0:
448,192,160685,1,0,0:0:0:0:
320,192,160872,1,0,0:0:0:0:
448,192,160872,1,0,0:0:0:0:
192,192,160966,1,0,0:0:0:0:
64,192,160966,1,0,0:0:0:0:
320,192,161060,1,0,0:0:0:0:
448,192,161060,1,0,0:0:0:0:
192,192,161153,1,0,0:0:0:0:
64,192,161153,1,0,0:0:0:0:
320,192,161247,1,0,0:0:0:0:
448,192,161247,1,0,0:0:0:0:
192,192,161341,1,0,0:0:0:0:
64,192,161341,1,0,0:0:0:0:
320,192,161435,1,0,0:0:0:0:
448,192,161435,1,0,0:0:0:0:
192,192,161528,1,0,0:0:0:0:
64,192,161528,1,0,0:0:0:0:
320,192,161622,1,0,0:0:0:0:
448,192,161622,1,0,0:0:0:0:
192,192,161716,1,0,0:0:0:0:
64,192,161716,1,0,0:0:0:0:
64,192,161810,1,0,0:0:0:0:
192,192,161810,1,0,0:0:0:0:
320,192,161810,128,0,161903:0:0:0:0:
448,192,161810,128,0,161903:0:0:0:0:
64,192,161997,128,0,162091:0:0:0:0:
192,192,162091,128,0,162185:0:0:0:0:
320,192,162185,1,0,0:0:0:0:
448,192,162185,1,0,0:0:0:0:
64,192,162278,128,0,162372:0:0:0:0:
192,192,162372,128,0,162466:0:0:0:0:
320,192,162466,128,0,162560:0:0:0:0:
64,192,162560,1,0,0:0:0:0:
448,192,162560,1,0,0:0:0:0:
192,192,162653,128,0,162747:0:0:0:0:
320,192,162747,128,0,162841:0:0:0:0:
448,192,162841,128,0,162935:0:0:0:0:
64,192,162935,1,0,0:0:0:0:
192,192,162935,1,0,0:0:0:0:
448,192,163028,128,0,163122:0:0:0:0:
320,192,163122,128,0,163216:0:0:0:0:
192,192,163216,128,0,163310:0:0:0:0:
64,192,163310,1,0,0:0:0:0:
448,192,163310,1,0,0:0:0:0:
320,192,163403,128,0,163497:0:0:0:0:
192,192,163497,128,0,163591:0:0:0:0:
64,192,163591,128,0,163685:0:0:0:0:
320,192,163685,1,0,0:0:0:0:
448,192,163685,1,0,0:0:0:0:
192,192,163778,128,0,163872:0:0:0:0:
64,192,163872,128,0,163966:0:0:0:0:
320,192,163966,128,0,164060:0:0:0:0:
448,192,164060,1,0,0:0:0:0:
64,192,164060,1,0,0:0:0:0:
192,192,164153,128,0,164247:0:0:0:0:
320,192,164247,128,0,164341:0:0:0:0:
448,192,164341,128,0,164435:0:0:0:0:
64,192,164435,1,0,0:0:0:0:
192,192,164435,1,0,0:0:0:0:
320,192,164528,128,0,164622:0:0:0:0:
448,192,164622,128,0,164716:0:0:0:0:
64,192,164622,128,0,164716:0:0:0:0:
192,192,164716,128,0,164810:0:0:0:0:
320,192,164810,1,0,0:0:0:0:
448,192,164810,1,0,0:0:0:0:
64,192,164903,128,0,164997:0:0:0:0:
192,192,164997,128,0,165091:0:0:0:0:
320,192,165091,128,0,165185:0:0:0:0:
64,192,165185,1,0,0:0:0:0:
448,192,165185,1,0,0:0:0:0:
192,192,165278,128,0,165372:0:0:0:0:
320,192,165372,128,0,165466:0:0:0:0:
448,192,165466,128,0,165560:0:0:0:0:
192,192,165560,1,0,0:0:0:0:
64,192,165560,1,0,0:0:0:0:
448,192,165653,128,0,165747:0:0:0:0:
320,192,165747,128,0,165841:0:0:0:0:
192,192,165841,128,0,165935:0:0:0:0:
64,192,165935,1,0,0:0:0:0:
448,192,165935,1,0,0:0:0:0:
320,192,166028,128,0,166122:0:0:0:0:
192,192,166122,128,0,166216:0:0:0:0:
64,192,166216,128,0,166310:0:0:0:0:
320,192,166310,1,0,0:0:0:0:
448,192,166310,1,0,0:0:0:0:
64,192,166403,128,0,166497:0:0:0:0:
192,192,166497,128,0,166591:0:0:0:0:
320,192,166591,128,0,166685:0:0:0:0:
448,192,166685,1,0,0:0:0:0:
64,192,166685,1,0,0:0:0:0:
192,192,166778,128,0,166872:0:0:0:0:
320,192,166872,128,0,166966:0:0:0:0:
448,192,166966,128,0,167060:0:0:0:0:
64,192,167060,128,0,167341:0:0:0:0:
192,192,167060,128,0,167247:0:0:0:0:
448,192,167153,128,0,167341:0:0:0:0:
320,192,167247,128,0,167435:0:0:0:0:
192,192,167341,128,0,167528:0:0:0:0:
64,192,167435,128,0,167622:0:0:0:0:
448,192,167435,128,0,167622:0:0:0:0:
320,192,167528,128,0,167716:0:0:0:0:
192,192,167622,128,0,167810:0:0:0:0:
64,192,167716,128,0,167810:0:0:0:0:
448,192,167810,1,0,0:0:0:0:
320,192,167810,128,0,167997:0:0:0:0:
448,192,167997,128,0,168185:0:0:0:0:
64,192,167997,128,0,168091:0:0:0:0:
320,192,168091,128,0,168278:0:0:0:0:
192,192,168185,1,0,0:0:0:0:
64,192,168185,128,0,168372:0:0:0:0:
448,192,168278,128,0,168466:0:0:0:0:
320,192,168372,128,0,168560:0:0:0:0:
192,192,168466,128,0,168653:0:0:0:0:
64,192,168560,1,0,0:0:0:0:
448,192,168560,128,0,168747:0:0:0:0:
320,192,168653,128,0,168841:0:0:0:0:
192,192,168747,128,0,168935:0:0:0:0:
64,192,168841,128,0,168935:0:0:0:0:
320,192,168935,1,0,0:0:0:0:
448,192,168935,128,0,169122:0:0:0:0:
64,192,169028,128,0,169216:0:0:0:0:
192,192,169122,128,0,169310:0:0:0:0:
320,192,169216,128,0,169403:0:0:0:0:
448,192,169310,1,0,0:0:0:0:
64,192,169310,128,0,169591:0:0:0:0:
192,192,169403,128,0,169591:0:0:0:0:
320,192,169497,128,0,169685:0:0:0:0:
448,192,169591,128,0,169685:0:0:0:0:
64,192,169685,1,0,0:0:0:0:
192,192,169685,128,0,169872:0:0:0:0:
320,192,169778,128,0,170060:0:0:0:0:
448,192,169872,128,0,169966:0:0:0:0:
192,192,169966,128,0,170060:0:0:0:0:
64,192,170060,1,0,0:0:0:0:
448,192,170060,128,0,170341:0:0:0:0:
320,192,170153,128,0,170341:0:0:0:0:
192,192,170247,128,0,170435:0:0:0:0:
64,192,170341,128,0,170528:0:0:0:0:
448,192,170435,1,0,0:0:0:0:
320,192,170435,128,0,170622:0:0:0:0:
192,192,170528,128,0,170716:0:0:0:0:
64,192,170622,128,0,170716:0:0:0:0:
448,192,170622,128,0,170810:0:0:0:0:
320,192,170716,128,0,170903:0:0:0:0:
192,192,170810,1,0,0:0:0:0:
64,192,170810,128,0,171091:0:0:0:0:
448,192,170903,128,0,171091:0:0:0:0:
320,192,170997,128,0,171185:0:0:0:0:
192,192,171091,128,0,171185:0:0:0:0:
448,192,171185,1,0,0:0:0:0:
64,192,171185,128,0,171372:0:0:0:0:
320,192,171278,128,0,171466:0:0:0:0:
192,192,171372,128,0,171560:0:0:0:0:
64,192,171466,128,0,171560:0:0:0:0:
320,192,171560,1,0,0:0:0:0:
448,192,171560,128,0,171841:0:0:0:0:
64,192,171653,128,0,171841:0:0:0:0:
192,192,171747,128,0,171841:0:0:0:0:
320,192,171841,128,0,172028:0:0:0:0:
448,192,171935,1,0,0:0:0:0:
64,192,171935,128,0,172216:0:0:0:0:
192,192,172028,128,0,172216:0:0:0:0:
320,192,172122,128,0,172216:0:0:0:0:
448,192,172216,1,0,0:0:0:0:
64,192,172310,1,0,0:0:0:0:
448,192,172310,1,0,0:0:0:0:
320,192,172310,1,0,0:0:0:0:
192,192,172310,1,0,0:0:0:0:
64,192,172591,1,0,0:0:0:0:
192,192,172591,1,0,0:0:0:0:
320,192,172591,1,0,0:0:0:0:
448,192,172591,1,0,0:0:0:0:
64,192,172872,1,0,0:0:0:0:
192,192,172872,1,0,0:0:0:0:
448,192,172872,1,0,0:0:0:0:
64,192,173060,1,0,0:0:0:0:
320,192,173060,1,0,0:0:0:0:
448,192,173060,1,0,0:0:0:0:
448,192,173247,1,0,0:0:0:0:
64,192,173247,1,0,0:0:0:0:
192,192,173247,1,0,0:0:0:0:
320,192,173247,1,0,0:0:0:0:
64,192,173435,128,0,173528:0:0:0:0:
192,192,173481,128,0,173575:0:0:0:0:
320,192,173528,128,0,173622:0:0:0:0:
448,192,173575,128,0,173669:0:0:0:0:
64,192,173622,128,0,173716:0:0:0:0:
192,192,173669,128,0,173716:0:0:0:0:
320,192,173716,1,0,0:0:0:0:
448,192,173716,1,0,0:0:0:0:
192,192,173810,128,0,173997:0:0:0:0:
320,192,173810,128,0,173903:0:0:0:0:
448,192,173810,128,0,173903:0:0:0:0:
64,192,173810,128,0,174091:0:0:0:0:
320,192,173997,128,0,174091:0:0:0:0:
448,192,173997,128,0,174091:0:0:0:0:
192,192,174091,128,0,174185:0:0:0:0:
64,192,174185,128,0,174278:0:0:0:0:
320,192,174185,128,0,174372:0:0:0:0:
448,192,174185,128,0,174278:0:0:0:0:
192,192,174278,128,0,174466:0:0:0:0:
448,192,174372,128,0,174560:0:0:0:0:
64,192,174372,128,0,174466:0:0:0:0:
320,192,174466,128,0,174653:0:0:0:0:
192,192,174560,128,0,174653:0:0:0:0:
64,192,174560,128,0,174747:0:0:0:0:
448,192,174653,128,0,174841:0:0:0:0:
320,192,174747,128,0,174841:0:0:0:0:
192,192,174747,128,0,174841:0:0:0:0:
64,192,174841,128,0,174935:0:0:0:0:
192,192,174935,128,0,175028:0:0:0:0:
320,192,174935,128,0,175122:0:0:0:0:
448,192,174935,128,0,175028:0:0:0:0:
64,192,175028,128,0,175216:0:0:0:0:
192,192,175122,128,0,175216:0:0:0:0:
448,192,175122,128,0,175310:0:0:0:0:
320,192,175216,128,0,175403:0:0:0:0:
192,192,175310,128,0,175497:0:0:0:0:
64,192,175310,128,0,175403:0:0:0:0:
448,192,175403,128,0,175591:0:0:0:0:
64,192,175497,128,0,175591:0:0:0:0:
320,192,175497,128,0,175591:0:0:0:0:
192,192,175591,128,0,175685:0:0:0:0:
320,192,175685,128,0,175778:0:0:0:0:
448,192,175685,128,0,175778:0:0:0:0:
64,192,175685,128,0,175872:0:0:0:0:
192,192,175778,128,0,175966:0:0:0:0:
320,192,175872,128,0,175966:0:0:0:0:
448,192,175872,128,0,176060:0:0:0:0:
64,192,175966,128,0,176153:0:0:0:0:
192,192,176060,128,0,176153:0:0:0:0:
320,192,176060,128,0,176247:0:0:0:0:
448,192,176153,128,0,176435:0:0:0:0:
64,192,176247,128,0,176341:0:0:0:0:
192,192,176247,128,0,176341:0:0:0:0:
320,192,176341,128,0,176435:0:0:0:0:
192,192,176435,128,0,176528:0:0:0:0:
64,192,176435,128,0,176528:0:0:0:0:
320,192,176528,128,0,176622:0:0:0:0:
448,192,176528,128,0,176622:0:0:0:0:
192,192,176622,128,0,176716:0:0:0:0:
64,192,176622,128,0,176716:0:0:0:0:
320,192,176716,1,0,0:0:0:0:
448,192,176716,1,0,0:0:0:0:
64,192,176810,128,0,176903:0:0:0:0:
448,192,176810,128,0,177091:0:0:0:0:
320,192,176810,128,0,176997:0:0:0:0:
192,192,176810,128,0,176903:0:0:0:0:
64,192,176997,128,0,177091:0:0:0:0:
192,192,176997,128,0,177091:0:0:0:0:
320,192,177091,128,0,177185:0:0:0:0:
64,192,177185,128,0,177278:0:0:0:0:
192,192,177185,128,0,177372:0:0:0:0:
448,192,177185,128,0,177278:0:0:0:0:
320,192,177278,128,0,177466:0:0:0:0:
448,192,177372,128,0,177466:0:0:0:0:
64,192,177372,128,0,177560:0:0:0:0:
192,192,177466,128,0,177653:0:0:0:0:
448,192,177560,128,0,177747:0:0:0:0:
320,192,177560,128,0,177653:0:0:0:0:
64,192,177653,128,0,177841:0:0:0:0:
320,192,177747,128,0,177841:0:0:0:0:
192,192,177747,128,0,177841:0:0:0:0:
448,192,177841,128,0,177935:0:0:0:0:
64,192,177935,128,0,178028:0:0:0:0:
192,192,177935,128,0,178122:0:0:0:0:
320,192,177935,128,0,178028:0:0:0:0:
448,192,178028,128,0,178216:0:0:0:0:
64,192,178122,128,0,178310:0:0:0:0:
320,192,178122,128,0,178216:0:0:0:0:
192,192,178216,128,0,178403:0:0:0:0:
448,192,178310,128,0,178403:0:0:0:0:
320,192,178310,128,0,178497:0:0:0:0:
64,192,178403,128,0,178591:0:0:0:0:
192,192,178497,128,0,178591:0:0:0:0:
448,192,178497,128,0,178591:0:0:0:0:
320,192,178591,128,0,178685:0:0:0:0:
448,192,178685,128,0,178872:0:0:0:0:
64,192,178685,128,0,178778:0:0:0:0:
192,192,178685,128,0,178778:0:0:0:0:
320,192,178778,128,0,178872:0:0:0:0:
192,192,178872,128,0,178966:0:0:0:0:
64,192,178872,128,0,178966:0:0:0:0:
320,192,178966,128,0,179060:0:0:0:0:
448,192,178966,128,0,179060:0:0:0:0:
192,192,179060,128,0,179153:0:0:0:0:
64,192,179060,128,0,179153:0:0:0:0:
320,192,179153,128,0,179247:0:0:0:0:
448,192,179153,128,0,179247:0:0:0:0:
64,192,179247,128,0,179341:0:0:0:0:
192,192,179247,128,0,179341:0:0:0:0:
320,192,179341,128,0,179435:0:0:0:0:
448,192,179341,128,0,179435:0:0:0:0:
64,192,179435,128,0,179528:0:0:0:0:
192,192,179435,128,0,179528:0:0:0:0:
448,192,179528,128,0,179622:0:0:0:0:
320,192,179528,128,0,179622:0:0:0:0:
64,192,179622,128,0,179716:0:0:0:0:
192,192,179622,128,0,179716:0:0:0:0:
448,192,179716,1,0,0:0:0:0:
320,192,179716,1,0,0:0:0:0:
320,192,179810,128,0,179997:0:0:0:0:
192,192,179810,128,0,179903:0:0:0:0:
64,192,179810,128,0,179903:0:0:0:0:
448,192,179810,128,0,180091:0:0:0:0:
192,192,179997,128,0,180091:0:0:0:0:
64,192,179997,128,0,180091:0:0:0:0:
320,192,180091,128,0,180185:0:0:0:0:
448,192,180185,128,0,180278:0:0:0:0:
192,192,180185,128,0,180372:0:0:0:0:
64,192,180185,128,0,180278:0:0:0:0:
320,192,180278,128,0,180466:0:0:0:0:
64,192,180372,128,0,180560:0:0:0:0:
448,192,180372,128,0,180466:0:0:0:0:
192,192,180466,128,0,180653:0:0:0:0:
320,192,180560,128,0,180653:0:0:0:0:
448,192,180560,128,0,180747:0:0:0:0:
64,192,180653,128,0,180841:0:0:0:0:
192,192,180747,128,0,180841:0:0:0:0:
320,192,180747,128,0,180841:0:0:0:0:
448,192,180841,128,0,180935:0:0:0:0:
320,192,180935,128,0,181028:0:0:0:0:
192,192,180935,128,0,181122:0:0:0:0:
64,192,180935,128,0,181028:0:0:0:0:
448,192,181028,128,0,181216:0:0:0:0:
320,192,181122,128,0,181216:0:0:0:0:
64,192,181122,128,0,181310:0:0:0:0:
192,192,181216,128,0,181403:0:0:0:0:
320,192,181310,128,0,181497:0:0:0:0:
448,192,181310,128,0,181403:0:0:0:0:
64,192,181403,128,0,181591:0:0:0:0:
448,192,181497,128,0,181591:0:0:0:0:
192,192,181497,128,0,181591:0:0:0:0:
320,192,181591,128,0,181685:0:0:0:0:
192,192,181685,128,0,181778:0:0:0:0:
64,192,181685,128,0,181778:0:0:0:0:
448,192,181685,128,0,181872:0:0:0:0:
320,192,181778,128,0,181966:0:0:0:0:
192,192,181872,128,0,181966:0:0:0:0:
64,192,181872,128,0,182060:0:0:0:0:
448,192,181966,128,0,182153:0:0:0:0:
320,192,182060,128,0,182153:0:0:0:0:
192,192,182060,128,0,182247:0:0:0:0:
64,192,182153,128,0,182341:0:0:0:0:
448,192,182247,128,0,182341:0:0:0:0:
320,192,182247,128,0,182341:0:0:0:0:
192,192,182341,128,0,182435:0:0:0:0:
64,192,182435,128,0,182528:0:0:0:0:
320,192,182435,128,0,182622:0:0:0:0:
448,192,182435,128,0,182528:0:0:0:0:
192,192,182528,128,0,182716:0:0:0:0:
64,192,182622,128,0,182716:0:0:0:0:
448,192,182622,128,0,182810:0:0:0:0:
320,192,182716,128,0,182903:0:0:0:0:
192,192,182810,128,0,182903:0:0:0:0:
64,192,182810,128,0,182997:0:0:0:0:
448,192,182903,128,0,183091:0:0:0:0:
320,192,182997,128,0,183091:0:0:0:0:
192,192,182997,128,0,183091:0:0:0:0:
64,192,183091,128,0,183185:0:0:0:0:
192,192,183185,128,0,183278:0:0:0:0:
320,192,183185,128,0,183278:0:0:0:0:
448,192,183185,128,0,183372:0:0:0:0:
64,192,183278,128,0,183466:0:0:0:0:
192,192,183372,128,0,183466:0:0:0:0:
320,192,183372,128,0,183560:0:0:0:0:
448,192,183466,128,0,183560:0:0:0:0:
64,192,183560,128,0,183653:0:0:0:0:
192,192,183606,128,0,183700:0:0:0:0:
320,192,183653,128,0,183747:0:0:0:0:
448,192,183700,128,0,183794:0:0:0:0:
64,192,183747,128,0,183841:0:0:0:0:
192,192,183794,128,0,183888:0:0:0:0:
320,192,183841,128,0,183935:0:0:0:0:
448,192,183888,128,0,183935:0:0:0:0:
64,192,183935,1,0,0:0:0:0:
192,192,183935,1,0,0:0:0:0:
320,192,184028,1,0,0:0:0:0:
448,192,184028,1,0,0:0:0:0:
192,192,184122,1,0,0:0:0:0:
64,192,184122,1,0,0:0:0:0:
320,192,184216,1,0,0:0:0:0:
448,192,184216,1,0,0:0:0:0:
448,192,184310,1,0,0:0:0:0:
64,192,184310,128,0,184403:0:0:0:0:
192,192,184310,128,0,184403:0:0:0:0:
320,192,184403,1,0,0:0:0:0:
192,192,184497,1,0,0:0:0:0:
64,192,184497,1,0,0:0:0:0:
320,192,184591,1,0,0:0:0:0:
448,192,184591,1,0,0:0:0:0:
192,192,184685,1,0,0:0:0:0:
64,192,184685,1,0,0:0:0:0:
448,192,184685,1,0,0:0:0:0:
320,192,184778,1,0,0:0:0:0:
192,192,184872,1,0,0:0:0:0:
64,192,184872,1,0,0:0:0:0:
320,192,184966,1,0,0:0:0:0:
448,192,184966,1,0,0:0:0:0:
192,192,185060,128,0,185153:0:0:0:0:
64,192,185060,128,0,185153:0:0:0:0:
320,192,185153,1,0,0:0:0:0:
448,192,185153,1,0,0:0:0:0:
192,192,185247,1,0,0:0:0:0:
64,192,185247,1,0,0:0:0:0:
320,192,185341,1,0,0:0:0:0:
448,192,185341,1,0,0:0:0:0:
192,192,185435,1,0,0:0:0:0:
64,192,185435,1,0,0:0:0:0:
320,192,185528,1,0,0:0:0:0:
64,192,185622,1,0,0:0:0:0:
448,192,185622,1,0,0:0:0:0:
192,192,185716,1,0,0:0:0:0:
320,192,185810,128,0,185903:0:0:0:0:
448,192,185810,128,0,185903:0:0:0:0:
64,192,186560,128,0,186747:0:0:0:0:
320,192,186747,1,0,0:0:0:0:
448,192,186747,1,0,0:0:0:0:
192,192,186841,1,0,0:0:0:0:
64,192,186841,1,0,0:0:0:0:
64,192,186935,1,0,0:0:0:0:
192,192,186935,1,0,0:0:0:0:
320,192,186935,1,0,0:0:0:0:
448,192,186935,1,0,0:0:0:0:
64,192,187310,128,0,187403:0:0:0:0:
192,192,187310,128,0,187403:0:0:0:0:
320,192,187403,128,0,187497:0:0:0:0:
448,192,187497,128,0,187591:0:0:0:0:
64,192,187591,128,0,187685:0:0:0:0:
192,192,187685,128,0,187778:0:0:0:0:
320,192,187778,128,0,187872:0:0:0:0:
448,192,187872,128,0,187966:0:0:0:0:
192,192,187966,128,0,188060:0:0:0:0:
64,192,188060,128,0,188153:0:0:0:0:
448,192,188060,128,0,188153:0:0:0:0:
320,192,188153,128,0,188247:0:0:0:0:
192,192,188247,128,0,188341:0:0:0:0:
64,192,188341,128,0,188435:0:0:0:0:
448,192,188435,128,0,188528:0:0:0:0:
320,192,188528,128,0,188622:0:0:0:0:
192,192,188622,128,0,188716:0:0:0:0:
64,192,188622,128,0,188716:0:0:0:0:
448,192,188810,128,0,188903:0:0:0:0:
320,192,188810,128,0,188903:0:0:0:0:
192,192,188903,128,0,188997:0:0:0:0:
64,192,188997,128,0,189091:0:0:0:0:
448,192,189091,128,0,189185:0:0:0:0:
320,192,189185,128,0,189278:0:0:0:0:
192,192,189278,128,0,189372:0:0:0:0:
64,192,189372,128,0,189466:0:0:0:0:
320,192,189466,128,0,189560:0:0:0:0:
448,192,189560,128,0,189653:0:0:0:0:
64,192,189560,128,0,189653:0:0:0:0:
192,192,189653,128,0,189747:0:0:0:0:
320,192,189747,128,0,189841:0:0:0:0:
448,192,189841,128,0,189935:0:0:0:0:
64,192,189841,128,0,189935:0:0:0:0:
192,192,189935,128,0,190028:0:0:0:0:
320,192,190028,128,0,190122:0:0:0:0:
192,192,190122,128,0,190216:0:0:0:0:
64,192,190122,128,0,190216:0:0:0:0:
448,192,190216,128,0,190310:0:0:0:0:
192,192,190310,128,0,190403:0:0:0:0:
320,192,190310,128,0,190403:0:0:0:0:
64,192,190403,128,0,190497:0:0:0:0:
448,192,190497,128,0,190591:0:0:0:0:
320,192,190591,128,0,190685:0:0:0:0:
192,192,190685,128,0,190778:0:0:0:0:
64,192,190778,128,0,190872:0:0:0:0:
320,192,190872,128,0,190966:0:0:0:0:
448,192,190966,128,0,191060:0:0:0:0:
192,192,191060,128,0,191153:0:0:0:0:
64,192,191060,128,0,191153:0:0:0:0:
320,192,191153,128,0,191247:0:0:0:0:
448,192,191247,128,0,191341:0:0:0:0:
64,192,191341,128,0,191435:0:0:0:0:
192,192,191435,128,0,191528:0:0:0:0:
320,192,191528,128,0,191622:0:0:0:0:
448,192,191622,128,0,191716:0:0:0:0:
192,192,191716,128,0,191810:0:0:0:0:
64,192,191716,128,0,191810:0:0:0:0:
320,192,191810,128,0,191903:0:0:0:0:
448,192,191810,128,0,191903:0:0:0:0:
64,192,191903,128,0,191997:0:0:0:0:
192,192,191997,128,0,192091:0:0:0:0:
320,192,192091,128,0,192185:0:0:0:0:
448,192,192091,128,0,192185:0:0:0:0:
64,192,192185,128,0,192278:0:0:0:0:
192,192,192278,128,0,192372:0:0:0:0:
320,192,192372,128,0,192466:0:0:0:0:
448,192,192466,128,0,192560:0:0:0:0:
192,192,192560,128,0,192653:0:0:0:0:
64,192,192560,128,0,192653:0:0:0:0:
448,192,192653,128,0,192747:0:0:0:0:
320,192,192747,128,0,192841:0:0:0:0:
192,192,192841,128,0,192935:0:0:0:0:
64,192,192841,128,0,192935:0:0:0:0:
320,192,192935,128,0,193028:0:0:0:0:
448,192,193028,128,0,193122:0:0:0:0:
64,192,193122,128,0,193216:0:0:0:0:
192,192,193122,128,0,193216:0:0:0:0:
64,192,193310,1,0,0:0:0:0:
320,192,193310,1,0,0:0:0:0:
448,192,193310,1,0,0:0:0:0:
192,192,193403,1,0,0:0:0:0:
320,192,193497,1,0,0:0:0:0:
448,192,193591,1,0,0:0:0:0:
192,192,193685,1,0,0:0:0:0:
64,192,193685,1,0,0:0:0:0:
320,192,193685,1,0,0:0:0:0:
448,192,193778,1,0,0:0:0:0:
320,192,193872,1,0,0:0:0:0:
192,192,193966,1,0,0:0:0:0:
64,192,194060,1,0,0:0:0:0:
320,192,194060,1,0,0:0:0:0:
448,192,194060,1,0,0:0:0:0:
192,192,194153,1,0,0:0:0:0:
448,192,194247,1,0,0:0:0:0:
320,192,194341,1,0,0:0:0:0:
64,192,194435,1,0,0:0:0:0:
192,192,194435,1,0,0:0:0:0:
448,192,194435,1,0,0:0:0:0:
320,192,194528,1,0,0:0:0:0:
192,192,194622,1,0,0:0:0:0:
64,192,194716,1,0,0:0:0:0:
192,192,194810,1,0,0:0:0:0:
320,192,194810,1,0,0:0:0:0:
448,192,194810,1,0,0:0:0:0:
64,192,194903,1,0,0:0:0:0:
192,192,194997,1,0,0:0:0:0:
320,192,195091,1,0,0:0:0:0:
64,192,195185,1,0,0:0:0:0:
192,192,195185,1,0,0:0:0:0:
448,192,195185,1,0,0:0:0:0:
320,192,195278,1,0,0:0:0:0:
64,192,195372,1,0,0:0:0:0:
192,192,195466,1,0,0:0:0:0:
64,192,195560,1,0,0:0:0:0:
320,192,195560,1,0,0:0:0:0:
448,192,195560,1,0,0:0:0:0:
192,192,195653,1,0,0:0:0:0:
320,192,195747,1,0,0:0:0:0:
448,192,195841,1,0,0:0:0:0:
320,192,195935,1,0,0:0:0:0:
192,192,195935,1,0,0:0:0:0:
64,192,195935,1,0,0:0:0:0:
448,192,196028,1,0,0:0:0:0:
64,192,196122,1,0,0:0:0:0:
192,192,196122,1,0,0:0:0:0:
320,192,196216,1,0,0:0:0:0:
448,192,196216,1,0,0:0:0:0:
448,192,196310,1,0,0:0:0:0:
320,192,196310,1,0,0:0:0:0:
64,192,196310,1,0,0:0:0:0:
192,192,196310,1,0,0:0:0:0:
320,192,196497,1,0,0:0:0:0:
448,192,196497,1,0,0:0:0:0:
192,192,196591,1,0,0:0:0:0:
64,192,196591,1,0,0:0:0:0:
64,192,196685,1,0,0:0:0:0:
192,192,196685,1,0,0:0:0:0:
320,192,196685,1,0,0:0:0:0:
448,192,196685,1,0,0:0:0:0:
64,192,196872,1,0,0:0:0:0:
192,192,196872,1,0,0:0:0:0:
320,192,196966,1,0,0:0:0:0:
448,192,197060,1,0,0:0:0:0:
64,192,197060,1,0,0:0:0:0:
192,192,197060,1,0,0:0:0:0:
320,192,197153,1,0,0:0:0:0:
448,192,197153,1,0,0:0:0:0:
192,192,197247,1,0,0:0:0:0:
64,192,197247,1,0,0:0:0:0:
320,192,197341,1,0,0:0:0:0:
448,192,197341,1,0,0:0:0:0:
192,192,197435,1,0,0:0:0:0:
64,192,197435,1,0,0:0:0:0:
320,192,197435,1,0,0:0:0:0:
448,192,197435,1,0,0:0:0:0:
320,192,197528,1,0,0:0:0:0:
448,192,197528,1,0,0:0:0:0:
192,192,197622,1,0,0:0:0:0:
64,192,197622,1,0,0:0:0:0:
320,192,197716,1,0,0:0:0:0:
448,192,197716,1,0,0:0:0:0:
192,192,197810,1,0,0:0:0:0:
64,192,197810,1,0,0:0:0:0:
320,192,197903,1,0,0:0:0:0:
448,192,197997,1,0,0:0:0:0:
64,192,197997,1,0,0:0:0:0:
192,192,198091,1,0,0:0:0:0:
320,192,198185,1,0,0:0:0:0:
448,192,198185,1,0,0:0:0:0:
64,192,198185,1,0,0:0:0:0:
192,192,198185,1,0,0:0:0:0:
320,192,198372,1,0,0:0:0:0:
448,192,198372,1,0,0:0:0:0:
192,192,198466,1,0,0:0:0:0:
64,192,198466,1,0,0:0:0:0:
448,192,198560,128,0,198653:0:0:0:0:
320,192,198606,128,0,198700:0:0:0:0:
192,192,198653,128,0,198747:0:0:0:0:
64,192,198700,128,0,198794:0:0:0:0:
448,192,198747,128,0,198841:0:0:0:0:
320,192,198794,128,0,198888:0:0:0:0:
192,192,198841,128,0,198935:0:0:0:0:
64,192,198888,128,0,198981:0:0:0:0:
320,192,198935,128,0,199028:0:0:0:0:
448,192,198981,128,0,199075:0:0:0:0:
64,192,199028,128,0,199122:0:0:0:0:
192,192,199075,128,0,199169:0:0:0:0:
320,192,199122,128,0,199216:0:0:0:0:
448,192,199169,128,0,199216:0:0:0:0:
192,192,199216,1,0,0:0:0:0:
64,192,199216,1,0,0:0:0:0:
320,192,199310,128,0,199497:0:0:0:0:
192,192,199310,128,0,199403:0:0:0:0:
64,192,199310,128,0,199403:0:0:0:0:
448,192,199310,128,0,199591:0:0:0:0:
192,192,199497,128,0,199591:0:0:0:0:
64,192,199497,128,0,199591:0:0:0:0:
320,192,199591,128,0,199685:0:0:0:0:
448,192,199685,128,0,199778:0:0:0:0:
192,192,199685,128,0,199872:0:0:0:0:
64,192,199685,128,0,199778:0:0:0:0:
320,192,199778,128,0,199966:0:0:0:0:
64,192,199872,128,0,200060:0:0:0:0:
448,192,199872,128,0,199966:0:0:0:0:
192,192,199966,128,0,200153:0:0:0:0:
320,192,200060,128,0,200153:0:0:0:0:
448,192,200060,128,0,200247:0:0:0:0:
64,192,200153,128,0,200341:0:0:0:0:
192,192,200247,128,0,200341:0:0:0:0:
320,192,200247,128,0,200341:0:0:0:0:
448,192,200341,128,0,200435:0:0:0:0:
320,192,200435,128,0,200528:0:0:0:0:
192,192,200435,128,0,200622:0:0:0:0:
64,192,200435,128,0,200528:0:0:0:0:
448,192,200528,128,0,200716:0:0:0:0:
320,192,200622,128,0,200716:0:0:0:0:
64,192,200622,128,0,200810:0:0:0:0:
192,192,200716,128,0,200903:0:0:0:0:
320,192,200810,128,0,200997:0:0:0:0:
448,192,200810,128,0,200903:0:0:0:0:
64,192,200903,128,0,201091:0:0:0:0:
448,192,200997,128,0,201091:0:0:0:0:
192,192,200997,128,0,201091:0:0:0:0:
320,192,201091,128,0,201185:0:0:0:0:
192,192,201185,128,0,201278:0:0:0:0:
64,192,201185,128,0,201278:0:0:0:0:
448,192,201185,128,0,201372:0:0:0:0:
320,192,201278,128,0,201466:0:0:0:0:
192,192,201372,128,0,201466:0:0:0:0:
64,192,201372,128,0,201560:0:0:0:0:
448,192,201466,128,0,201653:0:0:0:0:
320,192,201560,128,0,201653:0:0:0:0:
192,192,201560,128,0,201747:0:0:0:0:
64,192,201653,128,0,201841:0:0:0:0:
448,192,201747,128,0,201841:0:0:0:0:
320,192,201747,128,0,201841:0:0:0:0:
192,192,201841,128,0,201935:0:0:0:0:
64,192,201935,128,0,202028:0:0:0:0:
320,192,201935,128,0,202122:0:0:0:0:
448,192,201935,128,0,202028:0:0:0:0:
192,192,202028,128,0,202216:0:0:0:0:
64,192,202122,128,0,202216:0:0:0:0:
448,192,202122,128,0,202310:0:0:0:0:
320,192,202216,128,0,202403:0:0:0:0:
192,192,202310,128,0,202403:0:0:0:0:
64,192,202310,128,0,202497:0:0:0:0:
448,192,202403,128,0,202591:0:0:0:0:
320,192,202497,128,0,202591:0:0:0:0:
192,192,202497,128,0,202591:0:0:0:0:
64,192,202591,128,0,202685:0:0:0:0:
192,192,202685,128,0,202778:0:0:0:0:
320,192,202685,128,0,202778:0:0:0:0:
448,192,202685,128,0,202872:0:0:0:0:
64,192,202778,128,0,202966:0:0:0:0:
192,192,202872,128,0,202966:0:0:0:0:
320,192,202872,128,0,203060:0:0:0:0:
448,192,202966,128,0,203060:0:0:0:0:
192,192,203060,128,0,203153:0:0:0:0:
64,192,203060,128,0,203153:0:0:0:0:
320,192,203153,128,0,203247:0:0:0:0:
448,192,203153,128,0,203341:0:0:0:0:
192,192,203247,128,0,203341:0:0:0:0:
64,192,203247,128,0,203341:0:0:0:0:
320,192,203341,128,0,203435:0:0:0:0:
192,192,203435,128,0,203622:0:0:0:0:
64,192,203435,128,0,203528:0:0:0:0:
448,192,203435,128,0,203528:0:0:0:0:
320,192,203528,128,0,203716:0:0:0:0:
448,192,203622,128,0,203716:0:0:0:0:
64,192,203622,128,0,203810:0:0:0:0:
192,192,203716,128,0,203903:0:0:0:0:
320,192,203810,128,0,203903:0:0:0:0:
448,192,203810,128,0,203903:0:0:0:0:
64,192,203903,128,0,203997:0:0:0:0:
192,192,203997,128,0,204091:0:0:0:0:
320,192,203997,128,0,204091:0:0:0:0:
448,192,204091,128,0,204185:0:0:0:0:
64,192,204185,128,0,204278:0:0:0:0:
192,192,204185,128,0,204278:0:0:0:0:
320,192,204185,128,0,204278:0:0:0:0:
448,192,204278,128,0,204372:0:0:0:0:
192,192,204372,1,0,0:0:0:0:
64,192,204372,1,0,0:0:0:0:
448,192,204466,1,0,0:0:0:0:
320,192,204466,1,0,0:0:0:0:
448,192,204560,1,0,0:0:0:0:
64,192,204560,128,0,204653:0:0:0:0:
192,192,204560,128,0,204653:0:0:0:0:
320,192,204653,1,0,0:0:0:0:
448,192,204653,1,0,0:0:0:0:
64,192,204747,1,0,0:0:0:0:
192,192,204747,1,0,0:0:0:0:
448,192,204841,1,0,0:0:0:0:
320,192,204841,1,0,0:0:0:0:
64,192,204935,128,0,205028:0:0:0:0:
192,192,204935,128,0,205028:0:0:0:0:
320,192,205028,1,0,0:0:0:0:
448,192,205028,1,0,0:0:0:0:
64,192,205122,128,0,205216:0:0:0:0:
192,192,205122,128,0,205216:0:0:0:0:
320,192,205216,1,0,0:0:0:0:
448,192,205216,1,0,0:0:0:0:
64,192,205310,1,0,0:0:0:0:
192,192,205310,1,0,0:0:0:0:
320,192,205310,1,0,0:0:0:0:
448,192,205310,1,0,0:0:0:0:
64,192,205403,1,0,0:0:0:0:
192,192,205497,1,0,0:0:0:0:
320,192,205497,1,0,0:0:0:0:
448,192,205591,1,0,0:0:0:0:
64,192,205685,1,0,0:0:0:0:
192,192,205685,1,0,0:0:0:0:
320,192,205685,1,0,0:0:0:0:
448,192,205778,1,0,0:0:0:0:
64,192,205872,1,0,0:0:0:0:
320,192,205872,1,0,0:0:0:0:
192,192,205966,1,0,0:0:0:0:
192,192,206060,1,0,0:0:0:0:
448,192,206060,1,0,0:0:0:0:
320,192,206060,1,0,0:0:0:0:
64,192,206060,1,0,0:0:0:0:
64,192,206153,1,0,0:0:0:0:
192,192,206247,1,0,0:0:0:0:
320,192,206247,1,0,0:0:0:0:
448,192,206341,1,0,0:0:0:0:
64,192,206435,1,0,0:0:0:0:
192,192,206435,1,0,0:0:0:0:
320,192,206528,1,0,0:0:0:0:
64,192,206622,1,0,0:0:0:0:
448,192,206622,1,0,0:0:0:0:
192,192,206716,1,0,0:0:0:0:
320,192,206810,1,0,0:0:0:0:
448,192,206810,1,0,0:0:0:0:
192,192,206810,1,0,0:0:0:0:
64,192,206810,1,0,0:0:0:0:
448,192,206903,1,0,0:0:0:0:
192,192,206997,1,0,0:0:0:0:
64,192,206997,1,0,0:0:0:0:
320,192,207091,1,0,0:0:0:0:
448,192,207091,1,0,0:0:0:0:
448,192,207185,1,0,0:0:0:0:
320,192,207185,1,0,0:0:0:0:
192,192,207185,1,0,0:0:0:0:
64,192,207185,1,0,0:0:0:0:
64,192,207278,1,0,0:0:0:0:
320,192,207372,1,0,0:0:0:0:
448,192,207372,1,0,0:0:0:0:
192,192,207466,1,0,0:0:0:0:
64,192,207466,1,0,0:0:0:0:
64,192,207560,1,0,0:0:0:0:
192,192,207560,1,0,0:0:0:0:
320,192,207560,1,0,0:0:0:0:
448,192,207560,1,0,0:0:0:0:
448,192,207653,1,0,0:0:0:0:
192,192,207747,1,0,0:0:0:0:
320,192,207747,1,0,0:0:0:0:
64,192,207841,1,0,0:0:0:0:
192,192,207935,1,0,0:0:0:0:
448,192,207935,1,0,0:0:0:0:
320,192,208028,1,0,0:0:0:0:
192,192,208122,1,0,0:0:0:0:
64,192,208122,1,0,0:0:0:0:
448,192,208216,1,0,0:0:0:0:
64,192,208310,1,0,0:0:0:0:
320,192,208310,1,0,0:0:0:0:
192,192,208403,1,0,0:0:0:0:
320,192,208497,1,0,0:0:0:0:
448,192,208497,1,0,0:0:0:0:
192,192,208591,1,0,0:0:0:0:
64,192,208591,1,0,0:0:0:0:
64,192,208685,1,0,0:0:0:0:
192,192,208685,1,0,0:0:0:0:
320,192,208685,1,0,0:0:0:0:
448,192,208685,1,0,0:0:0:0:
448,192,208872,1,0,0:0:0:0:
320,192,208872,1,0,0:0:0:0:
192,192,208966,1,0,0:0:0:0:
64,192,209060,1,0,0:0:0:0:
448,192,209060,1,0,0:0:0:0:
320,192,209153,1,0,0:0:0:0:
448,192,209153,1,0,0:0:0:0:
192,192,209247,1,0,0:0:0:0:
64,192,209247,1,0,0:0:0:0:
320,192,209341,1,0,0:0:0:0:
448,192,209341,1,0,0:0:0:0:
448,192,209435,1,0,0:0:0:0:
320,192,209435,1,0,0:0:0:0:
192,192,209435,1,0,0:0:0:0:
64,192,209435,1,0,0:0:0:0:
64,192,209622,1,0,0:0:0:0:
192,192,209622,1,0,0:0:0:0:
448,192,209622,1,0,0:0:0:0:
320,192,209810,1,0,0:0:0:0:
448,192,209810,1,0,0:0:0:0:
64,192,209903,1,0,0:0:0:0:
192,192,209903,1,0,0:0:0:0:
320,192,209903,1,0,0:0:0:0:
448,192,209903,1,0,0:0:0:0:
64,192,210091,1,0,0:0:0:0:
192,192,210091,1,0,0:0:0:0:
320,192,210185,1,0,0:0:0:0:
448,192,210185,1,0,0:0:0:0:
192,192,210185,1,0,0:0:0:0:
64,192,210185,1,0,0:0:0:0:
320,192,210372,1,0,0:0:0:0:
448,192,210372,1,0,0:0:0:0:
192,192,210466,1,0,0:0:0:0:
64,192,210560,1,0,0:0:0:0:
448,192,210560,1,0,0:0:0:0:
320,192,210653,1,0,0:0:0:0:
192,192,210747,1,0,0:0:0:0:
64,192,210747,1,0,0:0:0:0:
320,192,210841,1,0,0:0:0:0:
448,192,210841,1,0,0:0:0:0:
192,192,210935,1,0,0:0:0:0:
64,192,210935,1,0,0:0:0:0:
320,192,211028,1,0,0:0:0:0:
448,192,211028,1,0,0:0:0:0:
192,192,211122,1,0,0:0:0:0:
64,192,211122,1,0,0:0:0:0:
320,192,211216,1,0,0:0:0:0:
448,192,211216,1,0,0:0:0:0:
64,192,211310,128,0,211403:0:0:0:0:
192,192,211310,128,0,211403:0:0:0:0:
320,192,211310,128,0,211403:0:0:0:0:
448,192,211310,128,0,211403:0:0:0:0:
64,192,212060,128,0,212153:0:0:0:0:
320,192,212060,128,0,212153:0:0:0:0:
448,192,212060,128,0,212153:0:0:0:0:
64,192,212810,128,0,212903:0:0:0:0:
192,192,212810,128,0,212903:0:0:0:0:
448,192,212810,128,0,212903:0:0:0:0:
448,192,213091,128,0,213185:0:0:0:0:
320,192,213091,128,0,213185:0:0:0:0:
64,192,213091,128,0,213185:0:0:0:0:
64,192,213372,128,0,213466:0:0:0:0:
192,192,213372,128,0,213466:0:0:0:0:
448,192,213372,128,0,213466:0:0:0:0:
192,192,213560,128,0,213653:0:0:0:0:
64,192,213560,128,0,213653:0:0:0:0:
448,192,213560,128,0,213653:0:0:0:0:
64,192,213935,128,0,214216:0:0:0:0:
192,192,213935,128,0,214216:0:0:0:0:
448,192,213935,128,0,214216:0:0:0:0:
320,192,213935,128,0,214216:0:0:0:0:
64,192,214310,1,0,0:0:0:0:
192,192,214310,1,0,0:0:0:0:
320,192,214310,1,0,0:0:0:0:
448,192,214310,1,0,0:0:0:0:
64,192,214685,128,0,214778:0:0:0:0:
448,192,214685,128,0,214778:0:0:0:0:
64,192,215060,128,0,215153:0:0:0:0:
320,192,215060,128,0,215153:0:0:0:0:
448,192,215060,128,0,215153:0:0:0:0:
64,192,215435,1,0,0:0:0:0:
448,192,215435,1,0,0:0:0:0:
64,192,215810,128,0,215903:0:0:0:0:
192,192,215810,128,0,215903:0:0:0:0:
320,192,215810,128,0,215903:0:0:0:0:
448,192,215810,128,0,215903:0:0:0:0:
64,192,216091,128,0,216185:0:0:0:0:
192,192,216091,128,0,216185:0:0:0:0:
448,192,216091,128,0,216185:0:0:0:0:
64,192,216372,128,0,216466:0:0:0:0:
320,192,216372,128,0,216466:0:0:0:0:
448,192,216372,128,0,216466:0:0:0:0:
64,192,216560,128,0,216653:0:0:0:0:
192,192,216560,128,0,216653:0:0:0:0:
448,192,216560,128,0,216653:0:0:0:0:
320,192,216747,1,0,0:0:0:0:
448,192,216747,1,0,0:0:0:0:
192,192,216841,1,0,0:0:0:0:
64,192,216841,1,0,0:0:0:0:
64,192,216935,128,0,217122:0:0:0:0:
192,192,216935,128,0,217122:0:0:0:0:
320,192,216935,128,0,217122:0:0:0:0:
448,192,216935,128,0,217122:0:0:0:0:
320,192,217310,128,0,217497:0:0:0:0:
192,192,217310,128,0,217403:0:0:0:0:
64,192,217310,128,0,217403:0:0:0:0:
448,192,217310,128,0,217591:0:0:0:0:
192,192,217497,128,0,217591:0:0:0:0:
64,192,217497,128,0,217591:0:0:0:0:
320,192,217591,128,0,217685:0:0:0:0:
448,192,217685,128,0,217778:0:0:0:0:
192,192,217685,128,0,217872:0:0:0:0:
64,192,217685,128,0,217778:0:0:0:0:
320,192,217778,128,0,217966:0:0:0:0:
64,192,217872,128,0,218060:0:0:0:0:
448,192,217872,128,0,217966:0:0:0:0:
192,192,217966,128,0,218153:0:0:0:0:
320,192,218060,128,0,218153:0:0:0:0:
448,192,218060,128,0,218247:0:0:0:0:
64,192,218153,128,0,218341:0:0:0:0:
192,192,218247,128,0,218341:0:0:0:0:
320,192,218247,128,0,218341:0:0:0:0:
448,192,218341,128,0,218435:0:0:0:0:
320,192,218435,128,0,218528:0:0:0:0:
192,192,218435,128,0,218622:0:0:0:0:
64,192,218435,128,0,218528:0:0:0:0:
448,192,218528,128,0,218716:0:0:0:0:
320,192,218622,128,0,218716:0:0:0:0:
64,192,218622,128,0,218810:0:0:0:0:
192,192,218716,128,0,218903:0:0:0:0:
320,192,218810,128,0,218997:0:0:0:0:
448,192,218810,128,0,218903:0:0:0:0:
64,192,218903,128,0,219091:0:0:0:0:
448,192,218997,128,0,219091:0:0:0:0:
192,192,218997,128,0,219091:0:0:0:0:
320,192,219091,128,0,219185:0:0:0:0:
192,192,219185,128,0,219278:0:0:0:0:
64,192,219185,128,0,219278:0:0:0:0:
448,192,219185,128,0,219372:0:0:0:0:
320,192,219278,128,0,219466:0:0:0:0:
192,192,219372,128,0,219466:0:0:0:0:
64,192,219372,128,0,219560:0:0:0:0:
448,192,219466,128,0,219653:0:0:0:0:
320,192,219560,128,0,219653:0:0:0:0:
192,192,219560,128,0,219747:0:0:0:0:
64,192,219653,128,0,219841:0:0:0:0:
448,192,219747,128,0,219841:0:0:0:0:
320,192,219747,128,0,219841:0:0:0:0:
192,192,219841,128,0,219935:0:0:0:0:
64,192,219935,128,0,220028:0:0:0:0:
320,192,219935,128,0,220122:0:0:0:0:
448,192,219935,128,0,220028:0:0:0:0:
192,192,220028,128,0,220216:0:0:0:0:
64,192,220122,128,0,220216:0:0:0:0:
448,192,220122,128,0,220310:0:0:0:0:
320,192,220216,128,0,220403:0:0:0:0:
192,192,220310,128,0,220403:0:0:0:0:
64,192,220310,128,0,220497:0:0:0:0:
448,192,220403,128,0,220591:0:0:0:0:
320,192,220497,128,0,220591:0:0:0:0:
192,192,220497,128,0,220591:0:0:0:0:
64,192,220591,128,0,220685:0:0:0:0:
192,192,220685,128,0,220778:0:0:0:0:
320,192,220685,128,0,220778:0:0:0:0:
448,192,220685,128,0,220872:0:0:0:0:
64,192,220778,128,0,220966:0:0:0:0:
192,192,220872,128,0,220966:0:0:0:0:
320,192,220872,128,0,221060:0:0:0:0:
448,192,220966,128,0,221060:0:0:0:0:
192,192,221060,128,0,221153:0:0:0:0:
64,192,221060,128,0,221153:0:0:0:0:
320,192,221153,128,0,221247:0:0:0:0:
448,192,221153,128,0,221341:0:0:0:0:
192,192,221247,128,0,221341:0:0:0:0:
64,192,221247,128,0,221341:0:0:0:0:
320,192,221341,128,0,221528:0:0:0:0:
192,192,221435,128,0,221528:0:0:0:0:
64,192,221435,128,0,221528:0:0:0:0:
448,192,221435,128,0,221528:0:0:0:0:
448,192,221622,128,0,221716:0:0:0:0:
320,192,221622,128,0,221716:0:0:0:0:
448,192,221810,1,0,0:0:0:0:
320,192,221810,1,0,0:0:0:0:
64,192,221810,1,0,0:0:0:0:
448,192,222091,1,0,0:0:0:0:
192,192,222091,1,0,0:0:0:0:
64,192,222091,1,0,0:0:0:0:
448,192,222372,1,0,0:0:0:0:
320,192,222372,1,0,0:0:0:0:
64,192,222372,1,0,0:0:0:0:
448,192,222560,1,0,0:0:0:0:
320,192,222560,1,0,0:0:0:0:
192,192,222560,1,0,0:0:0:0:
64,192,222560,1,0,0:0:0:0:
192,192,222747,1,0,0:0:0:0:
64,192,222747,1,0,0:0:0:0:
320,192,222841,1,0,0:0:0:0:
448,192,222841,1,0,0:0:0:0:
448,192,222935,128,0,223122:0:0:0:0:
320,192,222935,128,0,223122:0:0:0:0:
192,192,222935,128,0,223122:0:0:0:0:
64,192,222935,128,0,223122:0:0:0:0:
64,192,223310,1,0,0:0:0:0:
192,192,223310,1,0,0:0:0:0:
448,192,223310,1,0,0:0:0:0:
320,192,223310,1,0,0:0:0:0:
320,192,223403,1,0,0:0:0:0:
192,192,223497,1,0,0:0:0:0:
64,192,223497,1,0,0:0:0:0:
448,192,223591,1,0,0:0:0:0:
64,192,223685,1,0,0:0:0:0:
192,192,223685,1,0,0:0:0:0:
320,192,223685,1,0,0:0:0:0:
448,192,223685,1,0,0:0:0:0:
64,192,223778,1,0,0:0:0:0:
192,192,223872,1,0,0:0:0:0:
320,192,223872,1,0,0:0:0:0:
448,192,223966,1,0,0:0:0:0:
448,192,224060,1,0,0:0:0:0:
320,192,224060,1,0,0:0:0:0:
192,192,224060,1,0,0:0:0:0:
64,192,224060,1,0,0:0:0:0:
192,192,224153,1,0,0:0:0:0:
320,192,224247,1,0,0:0:0:0:
448,192,224247,1,0,0:0:0:0:
64,192,224341,1,0,0:0:0:0:
64,192,224435,1,0,0:0:0:0:
192,192,224435,1,0,0:0:0:0:
320,192,224435,1,0,0:0:0:0:
448,192,224435,1,0,0:0:0:0:
448,192,224528,1,0,0:0:0:0:
320,192,224622,1,0,0:0:0:0:
192,192,224622,1,0,0:0:0:0:
64,192,224716,1,0,0:0:0:0:
64,192,224810,1,0,0:0:0:0:
192,192,224810,1,0,0:0:0:0:
320,192,224810,1,0,0:0:0:0:
448,192,224810,1,0,0:0:0:0:
320,192,224903,1,0,0:0:0:0:
192,192,224997,1,0,0:0:0:0:
64,192,224997,1,0,0:0:0:0:
448,192,225091,1,0,0:0:0:0:
64,192,225185,1,0,0:0:0:0:
192,192,225185,1,0,0:0:0:0:
320,192,225185,1,0,0:0:0:0:
448,192,225185,1,0,0:0:0:0:
64,192,225278,1,0,0:0:0:0:
192,192,225372,1,0,0:0:0:0:
320,192,225372,1,0,0:0:0:0:
448,192,225466,1,0,0:0:0:0:
448,192,225560,1,0,0:0:0:0:
320,192,225560,1,0,0:0:0:0:
192,192,225560,1,0,0:0:0:0:
64,192,225560,1,0,0:0:0:0:
192,192,225653,1,0,0:0:0:0:
320,192,225747,1,0,0:0:0:0:
448,192,225747,1,0,0:0:0:0:
64,192,225841,1,0,0:0:0:0:
64,192,225935,1,0,0:0:0:0:
192,192,225935,1,0,0:0:0:0:
320,192,225935,1,0,0:0:0:0:
448,192,225935,1,0,0:0:0:0:
320,192,226122,128,0,226216:0:0:0:0:
448,192,226122,128,0,226216:0:0:0:0:
64,192,226310,128,0,226778:0:0:0:0:
192,192,226310,128,0,226403:0:0:0:0:
320,192,226310,128,0,226403:0:0:0:0:
448,192,226310,128,0,226403:0:0:0:0:
192,192,226497,128,0,226591:0:0:0:0:
320,192,226497,128,0,226591:0:0:0:0:
448,192,226497,128,0,226591:0:0:0:0:
320,192,226685,128,0,227153:0:0:0:0:
192,192,226685,128,0,226778:0:0:0:0:
448,192,226685,128,0,226778:0:0:0:0:
192,192,226872,128,0,226966:0:0:0:0:
64,192,226872,128,0,226966:0:0:0:0:
448,192,226872,128,0,226966:0:0:0:0:
192,192,227060,128,0,227528:0:0:0:0:
64,192,227060,128,0,227153:0:0:0:0:
448,192,227060,128,0,227153:0:0:0:0:
320,192,227247,128,0,227341:0:0:0:0:
448,192,227247,128,0,227341:0:0:0:0:
64,192,227247,128,0,227341:0:0:0:0:
448,192,227435,128,0,227810:0:0:0:0:
320,192,227435,128,0,227528:0:0:0:0:
64,192,227435,128,0,227528:0:0:0:0:
64,192,227622,128,0,227716:0:0:0:0:
192,192,227622,128,0,227716:0:0:0:0:
320,192,227622,128,0,227810:0:0:0:0:
64,192,227810,1,0,0:0:0:0:
192,192,227810,1,0,0:0:0:0:
320,192,227872,1,0,0:0:0:0:
448,192,227935,1,0,0:0:0:0:
64,192,227935,1,0,0:0:0:0:
192,192,227997,1,0,0:0:0:0:
320,192,228060,1,0,0:0:0:0:
448,192,228060,1,0,0:0:0:0:
192,192,228122,1,0,0:0:0:0:
64,192,228185,1,0,0:0:0:0:
448,192,228185,1,0,0:0:0:0:
320,192,228247,1,0,0:0:0:0:
192,192,228310,1,0,0:0:0:0:
64,192,228310,1,0,0:0:0:0:
448,192,228372,1,0,0:0:0:0:
64,192,228435,1,0,0:0:0:0:
320,192,228435,1,0,0:0:0:0:
192,192,228497,1,0,0:0:0:0:
320,192,228560,1,0,0:0:0:0:
448,192,228560,1,0,0:0:0:0:
64,192,228622,1,0,0:0:0:0:
192,192,228685,1,0,0:0:0:0:
320,192,228685,1,0,0:0:0:0:
448,192,228747,1,0,0:0:0:0:
64,192,228810,1,0,0:0:0:0:
192,192,228810,1,0,0:0:0:0:
320,192,228872,1,0,0:0:0:0:
448,192,228935,1,0,0:0:0:0:
64,192,228935,1,0,0:0:0:0:
192,192,228997,1,0,0:0:0:0:
320,192,229060,1,0,0:0:0:0:
448,192,229060,1,0,0:0:0:0:
192,192,229122,1,0,0:0:0:0:
64,192,229122,1,0,0:0:0:0:
320,192,229185,1,0,0:0:0:0:
448,192,229185,1,0,0:0:0:0:
192,192,229247,1,0,0:0:0:0:
64,192,229247,1,0,0:0:0:0:
192,192,229310,128,0,229591:0:0:0:0:
64,192,229310,128,0,229591:0:0:0:0:
320,192,229310,128,0,229685:0:0:0:0:
448,192,229310,128,0,229685:0:0:0:0:
64,192,229685,1,0,0:0:0:0:
192,192,229685,1,0,0:0:0:0:
320,192,229778,1,0,0:0:0:0:
64,192,229872,1,0,0:0:0:0:
448,192,229872,1,0,0:0:0:0:
192,192,229966,1,0,0:0:0:0:
320,192,230060,1,0,0:0:0:0:
448,192,230060,1,0,0:0:0:0:
64,192,230153,1,0,0:0:0:0:
192,192,230247,1,0,0:0:0:0:
448,192,230247,128,0,230716:0:0:0:0:
320,192,230341,128,0,230716:0:0:0:0:
64,192,230435,128,0,230716:0:0:0:0:
192,192,230435,128,0,230716:0:0:0:0:
64,192,230810,128,0,231091:0:0:0:0:
192,192,230810,128,0,231091:0:0:0:0:
320,192,230810,128,0,231091:0:0:0:0:
448,192,230810,128,0,231091:0:0:0:0:
