osu file format v14

[General]
AudioFilename: audio.mp3
AudioLeadIn: 0
PreviewTime: 52999
Countdown: 1
SampleSet: None
StackLeniency: 0.7
Mode: 0
LetterboxInBreaks: 0
WidescreenStoryboard: 1

[Editor]
DistanceSpacing: 1
BeatDivisor: 4
GridSize: 8
TimelineZoom: 1.3

[Metadata]
Title:Hide & Seek (TV Size)
TitleUnicode:Hide & Seek (TV Size)
Artist:Tsukikage
ArtistUnicode:ツキカゲ
Creator:olibei
Version:Easy
Source:Release the Spyce
Tags:anime release the spyce tsukikage ツキカゲ yukari anzai manami numakura akana fujita aya suzaki yuri noguchi aya uchida
BeatmapID:1934149
BeatmapSetID:924348

[Difficulty]
HPDrainRate:2
CircleSize:2.6
OverallDifficulty:2
ApproachRate:3
SliderMultiplier:1
SliderTickRate:1

[Events]
//Background and Video events
0,0,"lYuHXR5T4MhPDpTL39UrPtmfjkB.jpg",0,0
//Break Periods
//Storyboard Layer 0 (Background)
//Storyboard Layer 1 (Fail)
//Storyboard Layer 2 (Pass)
//Storyboard Layer 3 (Foreground)
//Storyboard Sound Samples

[TimingPoints]
58,352.941176470588,4,1,0,100,1,0
58,-100,4,1,0,100,0,0
3772,-100,4,1,0,100,0,0
5448,-100,4,1,0,100,0,0
37822,-100,4,1,0,100,0,0
38881,-100,4,1,0,100,0,0
41849,-100,4,1,0,100,0,0
43301,-100,4,1,0,100,0,0
44801,-100,4,1,0,100,0,0
46301,-100,4,1,0,100,0,0
47203,-100,4,1,0,100,0,0
47969,-100,4,1,0,100,0,0
53528,-100,4,1,0,100,0,1
70121,-100,4,1,0,100,0,1
76028,-100,4,1,0,100,0,0

[HitObjects]
170,55,58,6,0,P|125:87|90:186,1,150
260,217,1293,1,0,0:0:0:0:
273,316,1646,2,0,B|340:307|364:254,1,100
360,164,2881,6,0,P|307:103|224:102,1,150
71,60,4116,2,0,B|-25:147|-12:313|123:361,1,350
205,353,5705,6,2,L|314:320,1,100
395,292,6410,1,0,0:0:0:0:
423,136,7116,2,2,L|315:171,1,100
233,200,7822,1,0,0:0:0:0:
137,85,8528,6,2,L|239:61,1,100
335,48,9234,6,2,L|325:162,1,100
309,246,9940,2,0,B|158:396|78:374|92:287,1,300
92,191,11352,6,2,L|195:168,1,100
288,154,12057,1,0,0:0:0:0:
435,205,12763,2,2,L|330:243,1,100
246,273,13469,1,0,0:0:0:0:
61,194,14175,6,2,L|162:167,1,100
257,155,14881,6,2,L|326:232,1,100
380,312,15587,2,0,B|169:344|117:279|180:217,1,300
164,78,19822,2,2,P|164:129|215:174,1,100
292,184,20528,2,0,P|329:226|312:283,1,100
248,332,21234,2,0,P|194:329|162:287,2,100
345,353,22293,1,0,0:0:0:0:
402,270,22646,2,2,P|386:219|339:201,1,100
251,167,23352,5,0,0:0:0:0:
177,99,23705,1,0,0:0:0:0:
258,42,24057,1,0,0:0:0:0:
357,31,24410,2,0,P|411:39|453:79,2,100
304,116,25469,6,2,P|304:167|350:211,1,100
224,331,26528,2,8,L|185:273,1,50
148,147,27234,2,8,L|171:89,1,50
270,39,28116,2,0,B|307:70|307:70|342:70|342:70|378:106|378:106|415:115|415:115|437:146|437:146|475:200|449:286,1,350
353,305,29705,1,0,0:0:0:0:
256,280,30057,1,0,0:0:0:0:
185,209,30410,5,0,0:0:0:0:
170,110,30763,2,2,P|237:112|287:223,1,200
231,304,31822,2,0,P|171:325|136:285,1,100
108,211,32528,2,0,P|85:166|41:135,2,100
85,308,33587,1,0,0:0:0:0:
172,355,33940,6,2,P|238:367|281:344,1,100
347,295,34646,1,0,0:0:0:0:
419,225,34999,1,0,0:0:0:0:
441,127,35352,2,0,P|434:77|387:48,1,100
298,28,36057,2,0,P|250:35|209:73,1,100
278,142,36763,2,2,P|236:178|175:175,1,100
339,318,37822,6,8,L|378:223,1,100
405,129,38528,2,8,L|323:49,1,100
144,176,39234,6,0,B|204:169|204:169|251:206,1,100
294,259,39940,1,0,0:0:0:0:
363,187,40293,2,0,P|365:129|319:93,1,100
242,71,40999,2,0,L|185:67,2,50
126,86,42410,6,4,B|126:198|126:198|117:251|66:274,1,200,4|0,0:0|0:0,0:0:0:0:
275,299,43822,6,4,B|317:293|340:245|340:245|371:137,1,200,4|0,0:0|0:0,0:0:0:0:
273,136,45234,6,0,B|217:149|173:132,1,100,4|0,0:0|0:0,0:0:0:0:
122,47,45940,2,0,B|183:39|239:54,1,100,4|0,0:0|0:0,0:0:0:0:
310,96,46646,2,0,B|354:208|276:284,1,192,4|0,0:0|0:0,0:0:0:0:
98,181,48057,1,8,0:0:0:0:
243,317,48763,1,8,0:0:0:0:
426,236,49469,1,8,0:0:0:0:
290,88,50175,1,8,0:0:0:0:
92,57,50881,6,8,B|106:91|106:91|149:91|149:91|167:128,1,100
221,186,51587,6,8,B|255:172|255:172|255:129|255:129|292:111,1,100
373,112,52293,6,8,B|387:145|387:145|357:176|357:176|371:215,1,100
294,319,53705,6,10,B|278:325|267:313|279:284|289:245|275:227|258:217,1,100
175,211,54410,1,8,0:0:0:0:
104,140,54763,1,8,0:0:0:0:
178,60,55116,2,10,B|213:31|236:38|237:85|268:111|297:114|344:102|347:63,1,200
435,115,56175,6,10,B|415:163|351:215|270:203,1,200
199,133,57234,2,10,P|141:102|88:107,1,100
68,194,57940,2,10,P|79:246|120:280,1,100
208,304,58646,1,8,0:0:0:0:
307,294,58999,1,8,0:0:0:0:
370,216,59352,6,4,B|326:209|326:209|319:180|319:180|275:172,1,100,4|0,0:0|0:0,0:0:0:0:
200,214,60057,2,4,B|156:207|156:207|149:177|149:177|109:171,1,100,4|0,0:0|0:0,0:0:0:0:
169,84,60763,2,0,B|212:77|212:77|220:46|220:46|263:40,1,100,4|0,0:0|0:0,0:0:0:0:
337,82,61469,2,0,B|363:76|363:76|373:48|373:48|416:41,1,100,4|0,0:0|0:0,0:0:0:0:
412,141,62175,2,0,P|371:177|317:168,1,100
255,105,62881,2,0,P|204:108|170:146,1,100
225,217,63587,2,8,L|288:305,1,100
376,261,64293,2,0,P|381:207|349:159,1,100
263,139,64999,2,2,L|294:235,1,100
230,312,65705,2,2,L|198:213,1,100
170,121,66410,1,2,0:0:0:0:
240,49,66763,2,0,P|305:51|342:88,1,100
391,151,67469,6,2,B|375:271|290:152|272:99|177:142|148:210,1,300,10|2,0:0|0:0,0:0:0:0:
163,296,68881,2,8,P|231:314|270:293,1,100
334,241,69587,2,2,P|355:193|327:139,1,100,2|0,0:0|0:0,0:0:0:0:
256,95,70293,2,2,P|347:50|428:117,1,200
442,191,71352,6,0,P|422:239|358:255,1,100,2|0,0:0|0:0,0:0:0:0:
283,230,72057,2,0,P|311:177|365:165,1,100,0|2,0:0|0:0,0:0:0:0:
438,202,72763,1,4,0:0:0:0:
425,102,73116,1,4,0:0:0:0:
342,45,73469,6,0,P|286:30|230:56,1,100,4|0,0:0|0:0,0:0:0:0:
162,95,74175,2,0,P|175:121|214:140,1,50,4|0,0:0|0:0,0:0:0:0:
279,181,74705,1,8,0:0:0:0:
373,213,75057,2,0,P|360:245|333:265,1,50,4|0,0:0|0:0,0:0:0:0:
252,281,75587,6,2,L|149:225,1,100,8|0,0:0|0:0,0:0:0:0:
164,132,76293,6,2,L|269:192,1,100
338,229,76998,1,0,0:0:0:0:
425,49,77704,2,2,L|317:84,1,100
234,109,78410,1,0,0:0:0:0:
82,208,79116,6,2,L|167:281,1,100
243,321,79822,6,2,L|324:228,1,100
376,172,80528,2,0,B|225:22|145:44|131:130,1,300
114,216,81940,6,2,L|217:193,1,100
310,179,82645,1,0,0:0:0:0:
457,230,83351,2,2,L|352:268,1,100
268,298,84057,1,0,0:0:0:0:
83,219,84763,6,2,L|184:192,1,100
279,180,85469,6,2,L|348:257,1,100
402,337,86175,2,0,B|191:369|139:304|202:242,1,300
