osu file format v14

[General]
AudioFilename: audio.mp3
AudioLeadIn: 0
PreviewTime: 68032
Countdown: 0
SampleSet: Soft
StackLeniency: 0.5
Mode: 0
LetterboxInBreaks: 0
WidescreenStoryboard: 1

[Editor]
Bookmarks: 17567,32996,46710,53567,68996,96425,110139,130710,137567,146139,173567,187282,194139,204425,231853,245567,259282,269681
DistanceSpacing: 1.1
BeatDivisor: 4
GridSize: 32
TimelineZoom: 2.799999

[Metadata]
Title:Ura to Omote
TitleUnicode:裏と表
Artist:Tsuki no Tempest
ArtistUnicode:月のテンペスト
Creator:_kotachi_
Version:lushifer's Insane
Source:IDOLY PRIDE
Tags:obverse and reverse アイドリープライド アイプラ japanese jp pop jpop j-pop anime video game Nagase Kotono 長瀬琴乃 tachibana mirai 橘美來 Ibuki Nagisa 伊吹渚 natsume kokona 夏目ここな Shiraishi Saki 白石沙季 miyazawa koharu 宮沢小春 Narumiya Suzu 成宮すず aikawa kanata 相川奏多 Hayasaka Mei 早坂芽衣 hinata moka 日向もか -Brethia Sagu lushifer
BeatmapID:4050248
BeatmapSetID:1945793

[Difficulty]
HPDrainRate:5.2
CircleSize:3.6
OverallDifficulty:8.2
ApproachRate:9
SliderMultiplier:2.47999990463257
SliderTickRate:1

[Events]
//Background and Video events
0,0,"BG.jpg",0,0
//Break Periods
2,187481,193539
//Storyboard Layer 0 (Background)
//Storyboard Layer 1 (Fail)
//Storyboard Layer 2 (Pass)
//Storyboard Layer 3 (Foreground)
//Storyboard Layer 4 (Overlay)
//Storyboard Sound Samples

[TimingPoints]
425,428.571428571429,4,2,1,40,1,0
1175,-100,4,2,10,70,0,0
1228,-100,4,2,10,5,0,0
2139,-200,4,2,1,50,0,0
8353,-200,4,2,1,30,0,0
8567,-200,4,2,10,70,0,0
8621,-200,4,2,10,5,0,0
8782,-200,4,2,10,70,0,0
8996,-133.333333333333,4,2,2,60,0,0
9210,-133.333333333333,4,2,1,60,0,0
9317,-133.333333333333,4,2,1,5,0,0
9425,-133.333333333333,4,2,1,60,0,0
9585,-133.333333333333,4,2,1,5,0,0
9639,-133.333333333333,4,2,1,60,0,0
14139,-133.333333333333,4,2,1,30,0,0
15639,-200,4,2,1,30,0,0
15800,-200,4,2,1,5,0,0
15853,-200,4,2,10,50,0,0
15907,-200,4,2,1,25,0,0
16925,-200,4,2,1,35,0,0
17139,-200,4,2,1,45,0,0
17353,-200,4,2,1,55,0,0
17567,-100,4,2,1,70,0,0
21692,-100,4,2,1,5,0,0
21746,-100,4,2,1,70,0,0
23782,-100,4,2,2,70,0,0
23835,-100,4,2,1,70,0,0
23942,-100,4,2,1,5,0,0
23996,-100,4,2,1,70,0,0
25121,-100,4,2,1,5,0,0
25175,-100,4,2,1,70,0,0
29353,-100,4,2,2,70,0,0
29782,-100,4,2,1,40,0,0
31282,-100,4,2,1,70,0,0
32032,-100,4,2,2,70,0,0
32085,-100,4,2,1,5,0,0
32996,-133.333333333333,4,2,1,60,0,0
33050,-133.333333333333,4,2,1,5,0,0
33210,-133.333333333333,4,2,1,60,0,0
46710,-120.481927710843,4,2,1,60,0,0
53567,-166.666666666667,4,2,2,50,0,0
53782,-166.666666666667,4,2,1,50,0,0
60425,-133.333333333333,4,2,1,60,0,0
63853,-117.647058823529,4,2,2,70,0,0
64067,-117.647058823529,4,2,1,70,0,0
66853,-117.647058823529,4,2,2,70,0,0
66960,-117.647058823529,4,2,1,70,0,0
67175,-117.647058823529,4,2,2,70,0,0
67228,-117.647058823529,4,2,1,5,0,0
68353,-166.666666666667,4,2,1,30,0,0
68996,-95.2380952380952,4,2,1,75,0,1
80782,-95.2380952380952,4,2,2,75,0,1
81425,-95.2380952380952,4,2,1,75,0,1
81853,-95.2380952380952,4,2,2,75,0,1
81960,-95.2380952380952,4,2,1,75,0,1
82282,-95.2380952380952,4,2,2,75,0,1
82389,-95.2380952380952,4,2,1,75,0,1
82925,-95.2380952380952,4,2,2,75,0,1
89353,-95.2380952380952,4,2,1,75,0,1
89782,-95.2380952380952,4,2,2,75,0,1
92996,-95.2380952380952,4,2,1,75,0,1
94817,-95.2380952380952,4,2,1,5,0,1
94925,-95.2380952380952,4,2,1,75,0,1
96425,-100,4,2,1,70,0,0
100550,-100,4,2,1,5,0,0
100603,-100,4,2,1,70,0,0
102210,-100,4,2,2,70,0,0
102692,-100,4,2,1,70,0,0
102800,-100,4,2,1,5,0,0
102853,-100,4,2,1,70,0,0
103978,-100,4,2,1,5,0,0
104032,-100,4,2,1,70,0,0
108210,-100,4,2,2,70,0,0
108639,-100,4,2,1,30,0,0
110139,-133.333333333333,4,2,1,60,0,0
116139,-133.333333333333,4,2,2,60,0,0
116353,-133.333333333333,4,2,1,60,0,0
123853,-120.481927710843,4,2,1,60,0,0
124228,-120.481927710843,4,2,1,5,0,0
124282,-120.481927710843,4,2,1,60,0,0
124603,-120.481927710843,4,2,1,5,0,0
124710,-120.481927710843,4,2,1,60,0,0
127282,-120.481927710843,4,2,2,60,0,0
127496,-120.481927710843,4,2,1,60,0,0
130710,-83.3333333333333,4,2,2,70,0,0
130764,-83.3333333333333,4,2,2,5,0,0
131032,-83.3333333333333,4,2,2,70,0,0
131782,-83.3333333333333,4,2,2,40,0,0
132210,-83.3333333333333,4,2,2,70,0,0
132532,-83.3333333333333,4,2,2,5,0,0
132639,-83.3333333333333,4,2,2,70,0,0
132746,-83.3333333333333,4,2,2,5,0,0
132853,-83.3333333333333,4,2,2,70,0,0
133496,-83.3333333333333,4,2,2,40,0,0
134139,-83.3333333333333,4,2,2,70,0,0
134192,-83.3333333333333,4,2,2,5,0,0
134460,-83.3333333333333,4,2,2,70,0,0
134567,-83.3333333333333,4,2,2,40,0,0
135639,-83.3333333333333,4,2,2,70,0,0
135960,-83.3333333333333,4,2,2,5,0,0
136067,-83.3333333333333,4,2,2,70,0,0
136175,-83.3333333333333,4,2,2,5,0,0
136282,-83.3333333333333,4,2,2,70,0,0
136496,-83.3333333333333,4,2,2,40,0,0
136710,-83.3333333333333,4,2,1,50,0,0
137567,-133.333333333333,4,2,1,60,0,0
140996,-133.333333333333,4,2,1,70,0,0
144317,-133.333333333333,4,2,2,70,0,0
144371,-133.333333333333,4,2,1,5,0,0
145496,-133.333333333333,4,2,1,40,0,0
145710,-133.333333333333,4,2,1,50,0,0
146139,-86.9565217391303,4,2,1,75,0,1
149567,-86.9565217391303,4,2,2,75,0,1
149782,-86.9565217391303,4,2,1,75,0,1
152139,-86.9565217391303,4,2,2,75,0,1
152353,-86.9565217391303,4,2,1,75,0,1
157925,-86.9565217391303,4,2,2,75,0,1
158246,-86.9565217391303,4,2,1,75,0,1
158996,-86.9565217391303,4,2,2,75,0,1
159103,-86.9565217391303,4,2,1,75,0,1
159425,-86.9565217391303,4,2,2,75,0,1
159532,-86.9565217391303,4,2,1,75,0,1
159853,-86.9565217391303,4,2,2,75,0,1
166496,-86.9565217391303,4,2,1,75,0,1
166710,-86.9565217391303,4,2,2,75,0,1
170139,-86.9565217391303,4,2,1,75,0,1
171960,-86.9565217391303,4,2,1,5,0,1
172067,-86.9565217391303,4,2,1,75,0,1
173567,-100,4,2,1,70,0,0
173675,-100,4,2,2,70,0,0
179782,-83.3333333333333,4,2,1,70,0,0
180103,-83.3333333333333,4,2,2,70,0,0
180425,-100,4,2,1,70,0,0
180532,-100,4,2,2,70,0,0
185139,-100,4,2,1,70,0,0
185567,-100,4,2,2,70,0,0
185675,-100,4,2,1,70,0,0
186210,-166.666666666667,4,2,1,70,0,0
187282,-166.666666666667,4,2,1,30,0,0
193496,-166.666666666667,4,2,1,30,0,0
193710,-166.666666666667,4,2,10,70,0,0
194032,-166.666666666667,4,2,10,5,0,0
194139,-166.666666666667,4,2,1,60,0,0
194460,-166.666666666667,4,2,1,5,0,0
194567,-166.666666666667,4,2,1,60,0,0
194889,-166.666666666667,4,2,1,5,0,0
194996,-166.666666666667,4,2,1,60,0,0
196175,-166.666666666667,4,2,1,5,0,0
196282,-166.666666666667,4,2,1,60,0,0
198853,-166.666666666667,4,2,2,60,0,0
199282,-166.666666666667,4,2,1,50,0,0
200567,-166.666666666667,4,2,1,20,0,0
202496,-166.666666666667,4,2,1,35,0,0
202603,-166.666666666667,4,2,1,5,0,0
202710,-166.666666666667,4,2,1,50,0,0
202817,-166.666666666667,4,2,1,5,0,0
202925,-166.666666666667,4,2,1,40,0,0
203032,-166.666666666667,4,2,1,5,0,0
203139,-166.666666666667,4,2,1,60,0,0
203246,-166.666666666667,4,2,1,5,0,0
203353,-166.666666666667,4,2,1,50,0,0
203460,-166.666666666667,4,2,1,5,0,0
203567,-166.666666666667,4,2,1,70,0,0
203594,-166.666666666667,4,2,1,30,0,0
203728,-166.666666666667,4,2,1,40,0,0
203996,-166.666666666667,4,2,1,50,0,0
204210,-166.666666666667,4,2,1,60,0,0
204425,-86.9565217391304,4,2,1,75,0,1
207853,-86.9565217391304,4,2,2,75,0,1
207960,-86.9565217391304,4,2,1,75,0,1
214496,-86.9565217391304,4,2,2,75,0,1
214817,-86.9565217391304,4,2,2,5,0,1
214925,-86.9565217391304,4,2,2,75,0,1
215246,-86.9565217391304,4,2,2,5,0,1
215353,-86.9565217391304,4,2,2,75,0,1
215460,-86.9565217391304,4,2,2,5,0,1
215567,-86.9565217391304,4,2,2,75,0,1
215675,-86.9565217391304,4,2,2,5,0,1
215782,-86.9565217391304,4,2,2,75,0,1
216210,-86.9565217391304,4,2,1,75,0,1
216692,-86.9565217391304,4,2,1,5,0,1
216746,-86.9565217391304,4,2,1,75,0,1
216853,-86.9565217391304,4,2,2,75,0,1
217175,-86.9565217391304,4,2,1,75,0,1
217710,-86.9565217391304,4,2,2,75,0,1
217925,-86.9565217391304,4,2,1,75,0,1
218139,-86.9565217391304,4,2,2,75,0,1
224782,-86.9565217391304,4,2,1,75,0,1
224996,-86.9565217391304,4,2,1,75,0,1
225210,-86.9565217391304,4,2,2,75,0,1
228425,-86.9565217391304,4,2,1,75,0,1
231853,-100,4,2,1,70,0,0
232067,-100,4,2,2,70,0,0
237103,-100,4,2,2,5,0,0
237210,-100,4,2,2,70,0,0
238282,-100,4,2,1,70,0,0
238710,-100,4,2,1,80,0,0
238817,-100,4,2,2,80,0,0
240425,-100,4,2,2,70,0,0
243960,-100,4,2,2,5,0,0
244067,-100,4,2,2,70,0,0
252210,-100,4,2,1,70,0,0
252425,-100,4,2,1,70,0,0
252532,-100,4,2,2,70,0,0
253282,-83.3333333333333,4,2,2,70,0,0
254139,-100,4,2,1,70,0,0
254246,-100,4,2,2,70,0,0
254996,-83.3333333333333,4,2,2,70,0,0
255853,-100,4,2,1,70,0,0
259175,-100,4,2,1,50,0,0
259282,-200,4,2,1,40,0,0
262282,437.956204379562,4,2,1,40,1,0
262282,-200,4,2,1,40,0,0
262719,483.870967741935,4,2,1,40,1,0
263452,555.555555555556,4,2,1,40,1,0
263729,631.578947368421,4,2,1,40,1,0
264441,722.89156626506,4,2,1,40,1,0
264802,-200,4,2,1,5,0,0
264892,-200,4,2,1,40,0,0
265344,-200,4,2,1,50,0,0
265434,-200,4,2,1,5,0,0

[Colours]
Combo1 : 255,83,83
Combo2 : 109,185,254
Combo3 : 254,122,182
Combo4 : 62,253,205
Combo5 : 255,255,55

[HitObjects]
0,160,425,5,2,0:0:0:0:
41,142,532,1,2,0:0:0:0:
65,115,639,1,0,0:0:0:0:
69,97,746,1,2,0:0:0:0:
54,54,853,5,2,0:0:0:0:
96,87,960,1,2,0:0:0:0:
155,106,1067,1,0,0:0:0:0:
226,94,1175,1,6,0:0:0:0:
288,32,2139,6,0,P|321:50|424:61,1,123.999995231629,2|0,0:0|0:0,0:0:0:0:
512,192,2996,2,0,P|479:174|376:163,1,123.999995231629,2|0,0:0|0:0,0:0:0:0:
288,32,3853,6,0,P|255:50|152:61,1,123.999995231629,2|0,0:0|0:0,0:0:0:0:
170,63,4496,1,2,0:0:0:0:
98,90,5139,5,2,0:0:0:0:
39,186,5567,6,0,P|29:220|29:258,3,61.9999976158143,0|2|2|2,0:0|0:0|0:0|0:0,0:0:0:0:
96,288,6425,2,0,P|94:318|84:348,3,61.9999976158143,2|0|2|2,0:0|0:0|0:0|0:0,0:0:0:0:
175,277,7282,2,0,P|185:247|188:217,3,61.9999976158143,2|0|2|2,0:0|0:0|0:0|0:0,0:0:0:0:
290,376,8353,5,2,0:0:0:0:
290,376,8460,1,0,0:0:0:0:
290,376,8567,2,0,P|326:352|331:318,1,61.9999976158143,2|0,0:3|0:0,0:0:0:0:
512,288,8996,6,0,P|474:254|382:249,1,139.499999957085,12|0,0:1|0:0,0:0:0:0:
366,264,9425,2,0,P|339:233|342:174,1,92.9999999713898,10|2,0:1|0:3,0:0:0:0:
512,64,9853,2,0,P|499:110|491:162,1,92.9999999713898,10|2,0:1|0:3,0:0:0:0:
384,64,10282,6,0,P|338:56|293:43,1,92.9999999713898,10|2,0:1|0:3,0:0:0:0:
228,88,10603,1,2,0:0:0:0:
228,88,10710,2,0,P|177:113|138:97,1,92.9999999713898,10|2,0:1|0:3,0:0:0:0:
82,53,11139,1,10,0:1:0:0:
160,224,11353,2,0,P|204:211|250:203,1,92.9999999713898,2|8,0:3|0:1,0:0:0:0:
506,288,11782,5,2,0:3:0:0:
436,252,11996,1,10,0:1:0:0:
351,275,12210,1,2,0:3:0:0:
284,364,12425,6,0,P|233:348|218:295,1,92.9999999713898,10|2,0:1|0:3,0:0:0:0:
226,288,12746,1,2,0:0:0:0:
259,254,12853,2,0,P|271:209|279:163,1,92.9999999713898,10|2,0:1|0:3,0:0:0:0:
241,99,13175,1,2,0:0:0:0:
258,28,13282,2,0,P|307:26|337:70,1,92.9999999713898,10|2,0:1|0:3,0:0:0:0:
376,179,13710,5,10,0:1:0:0:
429,71,13925,1,2,0:3:0:0:
512,1,14139,1,2,0:0:0:0:
376,179,15639,5,2,0:0:0:0:
376,179,15853,2,0,P|419:165|441:164,1,61.9999976158143,2|2,0:0|0:0,0:0:0:0:
306,128,16282,2,0,P|279:114|270:71,1,61.9999976158143,2|2,0:0|0:0,0:0:0:0:
380,94,16710,5,2,0:0:0:0:
380,94,16925,5,2,0:0:0:0:
379,118,17032,1,2,0:0:0:0:
369,150,17139,1,2,0:0:0:0:
339,181,17246,1,2,0:0:0:0:
292,184,17353,1,2,0:0:0:0:
252,148,17460,1,2,0:0:0:0:
256,91,17567,6,0,P|225:94|194:99,1,61.9999976158143,12|0,0:1|0:0,0:0:0:0:
0,222,17782,1,2,0:0:0:0:
0,223,17889,2,0,P|29:214|48:190,1,61.9999976158143,10|8,0:1|0:0,0:0:0:0:
127,213,18103,2,0,P|141:185|138:155,1,61.9999976158143,2|2,0:0|0:0,0:0:0:0:
0,72,18317,5,8,0:1:0:0:
6,82,18425,1,2,0:0:0:0:
110,140,18639,5,10,0:1:0:0:
153,136,18746,1,2,0:0:0:0:
194,98,18853,1,10,0:0:0:0:
241,57,18960,1,0,0:0:0:0:
309,55,19067,1,10,0:1:0:0:
355,86,19175,1,0,3:0:0:0:
359,99,19282,1,10,0:1:0:0:
213,226,19496,5,2,0:0:0:0:
210,238,19603,1,8,0:1:0:0:
214,249,19710,2,0,P|246:256|277:268,1,61.9999976158143,10|0,0:0|0:0,0:0:0:0:
383,383,19925,2,0,P|418:376|432:353,1,61.9999976158143,2|8,0:0|0:1,0:0:0:0:
471,183,20139,5,2,0:0:0:0:
423,169,20246,1,10,0:0:0:0:
384,199,20353,2,0,P|377:231|365:262,1,61.9999976158143,10|2,0:1|0:0,0:0:0:0:
256,384,20567,5,10,0:0:0:0:
220,349,20675,1,2,0:0:0:0:
178,335,20782,1,10,0:1:0:0:
140,335,20889,1,0,3:0:0:0:
110,343,20996,2,0,P|53:319|52:248,1,123.999995231629,10|2,0:1|0:0,0:0:0:0:
44,262,21317,1,10,0:1:0:0:
160,160,21532,6,0,P|221:166|277:191,1,123.999995231629,2|10,0:0|0:1,0:0:0:0:
301,212,21853,2,0,P|336:202|354:171,1,61.9999976158143,0|8,0:0|0:0,0:0:0:0:
256,32,22067,5,10,0:1:0:0:
298,5,22175,1,2,0:0:0:0:
341,8,22282,1,8,0:0:0:0:
369,31,22389,1,2,0:0:0:0:
384,71,22496,1,10,0:1:0:0:
424,99,22603,1,0,0:0:0:0:
479,99,22710,1,8,0:1:0:0:
328,274,22925,5,2,0:0:0:0:
347,235,23032,1,10,0:1:0:0:
389,224,23139,2,0,P|419:217|469:216,1,61.9999976158143,10|2,0:0|0:0,0:0:0:0:
512,352,23353,2,0,P|481:349|450:342,1,61.9999976158143,10|10,0:1|0:1,0:0:0:0:
252,267,23567,5,2,0:0:0:0:
210,252,23675,1,8,0:0:0:0:
193,205,23782,1,14,0:1:0:0:
215,154,23889,1,0,0:0:0:0:
268,123,23996,1,10,0:0:0:0:
294,60,24103,1,8,0:0:0:0:
276,13,24210,1,8,0:3:0:0:
234,1,24317,1,4,0:3:0:0:
203,37,24425,5,12,0:1:0:0:
203,37,24532,2,0,P|182:59|153:71,1,61.9999976158143,2|2,0:0|0:0,0:0:0:0:
0,96,24746,2,0,P|31:109|67:135,1,61.9999976158143,10|8,0:1|0:0,0:0:0:0:
215,154,24960,2,0,P|184:167|148:193,1,61.9999976158143,2|0,0:0|0:0,0:0:0:0:
84,249,25175,1,8,0:1:0:0:
155,372,25389,5,10,0:0:0:0:
173,372,25496,1,8,0:1:0:0:
196,363,25603,1,2,0:0:0:0:
218,342,25710,1,8,0:0:0:0:
228,305,25818,1,2,0:0:0:0:
207,266,25925,1,8,0:1:0:0:
158,255,26032,1,2,0:0:0:0:
143,265,26139,6,0,P|147:295|170:315,1,61.9999976158143,8|2,0:1|0:0,0:0:0:0:
256,288,26353,2,0,P|291:279|339:279,1,61.9999976158143,0|10,3:0|0:1,0:0:0:0:
412,365,26567,6,0,P|381:362|351:354,1,61.9999976158143,8|2,0:0|0:0,0:0:0:0:
482,264,26782,2,0,P|504:284|509:314,1,61.9999976158143,0|10,3:0|0:1,0:0:0:0:
402,244,26996,5,2,0:0:0:0:
402,244,27103,1,0,3:0:0:0:
402,244,27210,2,0,P|336:229|294:211,1,61.9999976158143,10|2,0:1|0:0,0:0:0:0:
256,128,27425,2,0,P|285:119|316:114,1,61.9999976158143,10|2,0:0|0:0,0:0:0:0:
402,244,27639,1,10,0:1:0:0:
512,160,27853,1,12,0:1:0:0:
512,160,28067,5,2,0:0:0:0:
473,180,28175,1,8,0:1:0:0:
429,176,28282,1,8,0:0:0:0:
399,144,28389,1,2,0:0:0:0:
400,100,28496,5,2,0:0:0:0:
362,141,28603,1,8,0:0:0:0:
302,158,28710,1,10,0:1:0:0:
241,126,28817,1,0,3:0:0:0:
217,54,28925,1,10,0:0:0:0:
226,31,29032,1,10,0:0:0:0:
241,17,29139,6,0,P|272:27|315:31,1,61.9999976158143,8|4,0:3|0:3,0:0:0:0:
486,64,29353,1,12,0:1:0:0:
486,64,31282,5,2,0:0:0:0:
445,26,31389,1,2,0:0:0:0:
395,27,31496,1,2,0:0:0:0:
364,57,31603,1,2,0:0:0:0:
334,88,31710,5,2,0:0:0:0:
313,110,31817,1,2,0:0:0:0:
287,110,31924,1,2,0:0:0:0:
270,99,32031,1,12,0:1:0:0:
47,0,32996,6,0,P|69:49|80:109,1,92.9999999713898,12|2,0:1|0:0,0:0:0:0:
0,161,33317,1,2,0:0:0:0:
0,161,33425,2,0,P|48:180|54:237,1,92.9999999713898,10|2,0:1|0:0,0:0:0:0:
0,286,33746,6,0,P|70:254|156:238,1,139.499999957085,2|0,0:0|0:0,0:0:0:0:
143,247,34175,1,2,0:0:0:0:
155,253,34282,1,8,0:1:0:0:
232,376,34496,1,2,0:0:0:0:
232,376,34710,6,0,P|283:359|293:298,1,92.9999999713898,10|2,0:1|0:0,0:0:0:0:
352,224,35139,2,0,P|365:280|389:334,1,92.9999999713898,10|2,0:1|0:0,0:0:0:0:
448,359,35460,1,2,0:0:0:0:
448,359,35567,2,0,P|496:337|504:279,1,92.9999999713898,8|2,0:1|0:0,0:0:0:0:
440,197,35889,5,0,0:0:0:0:
440,197,35996,2,0,P|396:213|351:223,1,92.9999999713898,8|2,0:1|0:0,0:0:0:0:
256,256,36425,2,0,P|175:224|90:206,1,139.499999957085,10|2,0:1|0:0,0:0:0:0:
101,217,36853,2,0,P|117:260|127:305,1,92.9999999713898,8|2,0:1|0:0,0:0:0:0:
124,319,37175,1,0,0:0:0:0:
121,332,37282,1,10,0:1:0:0:
209,194,37496,5,0,0:0:0:0:
197,186,37603,1,2,2:0:0:0:
194,172,37710,1,8,2:1:0:0:
64,32,37925,6,0,P|63:65|140:90,1,92.9999999713898,2|8,0:0|0:1,0:0:0:0:
288,0,38353,2,0,P|242:9|199:26,1,92.9999999713898,2|8,0:0|0:1,0:0:0:0:
191,38,38675,1,0,0:0:0:0:
186,51,38782,1,2,0:0:0:0:
288,160,38996,2,0,P|333:169|376:186,1,92.9999999713898,10|2,0:1|0:0,0:0:0:0:
481,88,39425,2,0,P|490:42|507:0,2,92.9999999713898,10|2|8,0:1|0:0|0:1,0:0:0:0:
509,259,40067,5,2,0:0:0:0:
509,259,40175,1,2,0:0:0:0:
509,259,40282,2,0,P|481:236|420:248,1,92.9999999713898,10|0,0:1|0:0,0:0:0:0:
384,320,40603,2,0,P|368:247|342:178,1,139.499999957085,2|0,0:0|0:0,0:0:0:0:
203,157,41032,5,2,0:0:0:0:
203,157,41139,2,0,P|227:205|279:207,1,92.9999999713898,10|2,0:1|0:0,0:0:0:0:
352,160,41567,2,0,P|400:142|450:131,2,92.9999999713898,10|2|10,0:1|0:0|0:1,0:0:0:0:
384,32,42210,1,0,0:0:0:0:
384,32,42317,2,0,P|336:59|254:18,1,139.499999957085,2|2,0:0|0:0,0:0:0:0:
197,0,42746,1,0,0:0:0:0:
197,0,42853,1,8,0:1:0:0:
0,64,43067,1,2,0:0:0:0:
84,0,43282,6,0,P|103:81|131:159,1,139.499999957085,8|0,0:1|0:0,0:0:0:0:
129,145,43710,1,8,0:1:0:0:
240,228,43925,1,0,0:0:0:0:
248,238,44032,1,2,0:0:0:0:
251,251,44139,1,10,0:1:0:0:
192,320,44353,2,0,P|143:303|94:292,1,92.9999999713898,0|8,0:0|0:1,0:0:0:0:
0,159,44782,6,0,P|15:202|58:215,1,92.9999999713898,2|8,0:0|0:1,0:0:0:0:
121,134,45210,2,0,P|169:117|218:106,1,92.9999999713898,2|8,0:0|0:1,0:0:0:0:
324,197,45639,1,2,0:0:0:0:
324,197,45746,1,0,0:0:0:0:
324,197,45853,2,0,P|369:207|413:222,1,92.9999999713898,10|2,0:1|0:0,0:0:0:0:
512,352,46282,5,8,0:0:0:0:
491,327,46389,1,8,0:0:0:0:
460,315,46496,1,8,0:3:0:0:
427,316,46603,1,4,0:3:0:0:
400,335,46710,1,12,0:1:0:0:
288,384,47139,6,0,P|275:300|254:219,1,154.379996301247,10|0,0:0|3:0,0:0:0:0:
250,219,47567,1,10,0:1:0:0:
128,160,47782,2,0,P|137:226|154:290,1,102.919997534164,2|10,0:0|0:0,0:0:0:0:
55,384,48210,5,2,0:0:0:0:
55,384,48317,1,0,3:0:0:0:
55,384,48425,2,0,P|7:354|16:280,1,102.919997534164,8|2,0:1|0:0,0:0:0:0:
145,261,48853,1,8,0:0:0:0:
0,174,49067,2,0,P|66:183|130:200,1,102.919997534164,2|8,0:0|0:1,0:0:0:0:
199,36,49496,2,0,P|169:84|95:75,1,102.919997534164,2|8,0:0|0:0,0:0:0:0:
0,0,49925,5,2,0:0:0:0:
0,0,50032,1,0,3:1:0:0:
0,0,50139,2,0,P|14:49|18:78,1,51.4599987670822,12|0,0:1|0:0,0:0:0:0:
101,191,50353,2,0,P|116:127|136:65,1,102.919997534164,2|8,0:0|0:0,0:0:0:0:
220,6,50782,2,0,P|234:55|246:105,1,102.919997534164,2|8,0:0|0:1,0:0:0:0:
317,212,51210,1,2,0:0:0:0:
328,222,51317,1,0,0:0:0:0:
343,223,51425,1,8,0:0:0:0:
490,103,51639,5,2,0:0:0:0:
490,103,51853,2,0,P|434:81|422:32,1,102.919997534164,8|2,0:1|0:0,0:0:0:0:
317,212,52282,2,0,P|363:193|416:186,1,102.919997534164,12|0,0:0|3:0,0:0:0:0:
430,190,52603,1,8,0:0:0:0:
444,195,52710,1,8,0:1:0:0:
416,368,52925,1,8,0:0:0:0:
512,288,53139,1,8,0:3:0:0:
512,288,53246,1,8,0:3:0:0:
512,288,53353,1,4,0:3:0:0:
317,212,53567,6,0,P|244:241|161:252,2,148.799989736939,12|8|8,0:1|0:1|0:1,0:0:0:0:
281,86,54639,1,2,0:0:0:0:
281,86,54853,2,0,P|240:104|232:141,1,74.3999948684694,8|2,0:0|0:0,0:0:0:0:
317,212,55282,2,0,P|390:223|458:252,1,148.799989736939,8|8,0:1|0:1,0:0:0:0:
512,117,55925,6,0,P|470:147|388:111,1,148.799989736939,2|2,0:0|0:0,0:0:0:0:
306,0,56567,2,0,P|317:45|323:83,1,74.3999948684694,8|2,0:0|0:0,0:0:0:0:
192,160,56996,6,0,P|152:116|55:109,1,148.799989736939,8|8,0:1|0:1,0:0:0:0:
52,121,57639,2,0,P|88:114|124:105,1,74.3999948684694,2|8,0:0|0:1,0:0:0:0:
224,192,58067,2,0,P|260:182|296:176,1,74.3999948684694,2|8,0:0|0:0,0:0:0:0:
405,34,58496,6,0,P|428:88|512:104,1,148.799989736939,12|2,0:0|0:0,0:0:0:0:
465,194,59139,1,8,0:1:0:0:
465,194,59353,2,0,P|480:233|482:281,1,74.3999948684694,2|10,0:0|0:1,0:0:0:0:
352,384,59782,5,2,0:0:0:0:
337,380,59889,1,2,0:0:0:0:
321,369,59996,1,10,0:1:0:0:
310,349,60103,1,10,0:0:0:0:
310,322,60210,1,8,0:3:0:0:
322,294,60317,1,4,0:3:0:0:
352,278,60425,2,0,P|286:258|208:246,1,139.499999957085,12|0,0:1|0:0,0:0:0:0:
198,252,60853,1,10,0:0:0:0:
53,366,61067,5,2,0:3:0:0:
53,366,61175,1,0,0:3:0:0:
53,366,61282,2,0,P|107:344|113:301,1,92.9999999713898,10|2,0:1|0:3,0:3:0:0:
38,153,61710,1,8,0:0:0:0:
0,220,61925,2,0,P|66:200|208:181,1,185.99999994278,12|2,0:0|0:3,0:0:0:0:
181,182,62567,1,10,0:0:0:0:
216,8,62782,5,2,0:3:0:0:
216,8,62996,2,0,P|170:45|169:89,1,92.9999999713898,10|2,0:1|0:3,0:0:0:0:
256,128,63425,2,0,P|266:161|276:234,1,92.9999999713898,8|8,0:0|0:3,0:0:0:0:
306,308,63746,5,4,0:3:0:0:
306,308,63853,2,0,P|375:307|408:215,1,158.099996935844,12|8,0:1|0:1,0:0:0:0:
387,99,64282,1,8,0:0:0:0:
275,218,64496,5,2,0:0:0:0:
275,218,64603,1,8,0:0:0:0:
275,218,64710,2,0,P|308:207|381:197,1,105.39999795723,10|10,0:1|0:1,0:0:0:0:
504,35,65139,1,8,0:0:0:0:
387,99,65353,1,10,0:1:0:0:
512,152,65567,6,0,P|488:141|476:108,1,52.6999989786148,12|0,0:1|0:0,0:0:0:0:
390,148,65782,2,0,P|380:123|395:91,1,52.6999989786148,10|2,0:1|0:0,0:0:0:0:
288,0,65996,6,0,P|264:11|252:44,1,52.6999989786148,8|2,0:0|0:0,0:0:0:0:
166,4,66211,2,0,P|156:28|171:60,1,52.6999989786148,2|2,0:3|0:0,0:0:0:0:
0,96,66425,5,10,0:1:0:0:
37,76,66532,1,10,0:0:0:0:
72,85,66639,1,10,0:0:0:0:
91,110,66746,1,10,0:0:0:0:
96,135,66853,5,10,0:0:0:0:
72,176,66960,1,10,0:0:0:0:
85,226,67067,1,10,0:0:0:0:
136,253,67175,1,12,0:1:0:0:
136,253,68353,5,2,0:0:0:0:
136,253,68567,2,0,P|144:293|180:317,1,74.3999948684694,2|0,0:0|0:0,0:0:0:0:
256,384,68996,6,0,P|281:342|316:328,1,65.0999955099108,12|0,0:1|0:0,0:0:0:0:
358,262,69210,2,0,P|383:304|418:318,1,65.0999955099108,2|8,0:0|0:1,0:0:0:0:
467,370,69425,1,8,0:0:0:0:
483,359,69532,1,8,0:1:0:0:
502,355,69639,1,2,0:0:0:0:
512,128,69853,5,10,0:1:0:0:
506,94,69960,1,0,0:0:0:0:
479,70,70067,1,8,0:1:0:0:
442,63,70175,1,2,0:0:0:0:
404,76,70282,2,0,P|382:124|350:147,1,65.0999955099108,10|2,0:0|0:0,0:0:0:0:
224,0,70496,5,2,0:0:0:0:
224,0,70603,1,2,0:0:0:0:
224,0,70710,2,0,P|204:30|183:84,1,65.0999955099108,10|0,0:1|0:0,0:0:0:0:
87,96,70925,2,0,P|72:66|54:39,1,65.0999955099108,2|8,3:2|0:1,0:0:0:0:
227,155,71139,1,8,0:0:0:0:
227,155,71246,1,8,0:1:0:0:
227,155,71353,2,0,L|304:140,1,65.0999955099108,2|8,0:0|0:1,0:0:0:0:
153,213,71567,5,10,0:1:0:0:
153,213,71675,1,2,0:0:0:0:
153,213,71782,2,0,P|170:246|175:279,1,65.0999955099108,10|2,0:1|3:2,0:0:0:0:
236,380,71996,2,0,P|242:348|257:319,1,65.0999955099108,10|2,0:0|0:0,0:0:0:0:
61,313,72210,5,10,0:1:0:0:
61,313,72317,1,2,0:0:0:0:
61,313,72425,2,0,P|115:273|198:284,1,130.199991019822,10|2,0:1|0:0,0:0:0:0:
190,286,72746,2,0,P|213:309|265:323,1,65.0999955099108,8|8,0:1|0:0,0:0:0:0:
320,224,73067,5,0,3:0:0:0:
338,216,73175,1,8,0:0:0:0:
347,198,73282,1,10,0:1:0:0:
251,72,73496,5,8,0:1:0:0:
442,154,73710,1,10,0:0:0:0:
361,62,73925,5,8,0:0:0:0:
361,62,74032,2,0,B|228:78|304:115|179:129,1,195.299986529732,12|10,0:1|0:1,0:0:0:0:
32,32,74567,2,0,B|43:43|47:60|47:60|15:103|8:163,1,130.199991019822,8|8,0:0|0:1,0:0:0:0:
17,167,74889,2,0,P|29:199|34:237,1,65.0999955099108,8|10,0:0|0:1,0:0:0:0:
0,384,75210,5,10,0:1:0:0:
16,338,75317,1,2,0:0:0:0:
55,309,75424,1,10,0:0:0:0:
105,304,75532,1,10,0:0:0:0:
153,322,75639,1,8,0:3:0:0:
256,192,75853,6,0,P|224:204|186:209,1,65.0999955099108,12|0,0:1|0:0,0:0:0:0:
96,64,76067,2,0,P|128:69|158:80,1,65.0999955099108,0|8,0:0|0:1,0:0:0:0:
288,0,76282,1,8,0:0:0:0:
293,18,76389,1,8,0:1:0:0:
306,31,76496,2,0,P|368:18|405:16,1,65.0999955099108,2|8,0:0|0:0,0:0:0:0:
256,192,76710,5,10,0:1:0:0:
265,209,76817,1,0,0:0:0:0:
272,227,76925,1,8,0:1:0:0:
277,245,77032,1,0,0:0:0:0:
282,263,77139,1,8,0:0:0:0:
410,193,77353,5,0,3:0:0:0:
410,193,77460,1,8,0:0:0:0:
410,193,77567,2,0,P|416:162|429:130,1,65.0999955099108,10|0,0:1|0:0,0:0:0:0:
278,31,77782,2,0,P|290:61|296:93,1,65.0999955099108,0|10,3:0|0:1,0:0:0:0:
256,192,77996,1,8,0:0:0:0:
0,128,78210,5,2,0:0:0:0:
18,154,78317,1,8,0:0:0:0:
48,165,78425,1,8,0:1:0:0:
80,164,78532,1,8,0:0:0:0:
109,150,78639,2,0,P|112:117|122:83,1,65.0999955099108,8|0,0:1|3:0,0:0:0:0:
179,10,78853,1,10,0:0:0:0:
256,192,79067,5,10,0:1:0:0:
256,192,79175,1,8,0:0:0:0:
256,192,79282,2,0,P|249:256|229:325,1,130.199991019822,12|2,0:1|0:0,0:0:0:0:
212,343,79603,2,0,P|179:340|138:351,1,65.0999955099108,8|8,0:1|0:0,0:0:0:0:
28,239,79925,5,10,0:1:0:0:
28,239,80032,1,8,0:0:0:0:
28,239,80139,2,0,P|52:262|102:257,1,65.0999955099108,10|0,0:1|0:0,0:0:0:0:
172,161,80353,2,0,P|179:126|189:91,1,65.0999955099108,8|8,0:0|0:0,0:0:0:0:
72,141,80567,5,10,0:1:0:0:
72,141,80782,2,0,P|148:178|318:221,1,260.399982039643,12|8,0:1|0:0,0:0:0:0:
399,340,81317,5,8,0:1:0:0:
399,340,81425,2,0,P|379:301|351:286,1,65.0999955099108,12|0,0:1|0:0,0:0:0:0:
456,205,81639,2,0,P|414:191|383:200,1,65.0999955099108,0|8,3:0|0:0,0:0:0:0:
340,12,81853,5,12,0:1:0:0:
308,53,81960,1,0,3:0:0:0:
264,65,82067,1,8,0:0:0:0:
224,61,82175,1,8,0:0:0:0:
196,43,82282,5,10,0:0:0:0:
150,47,82389,1,8,0:0:0:0:
104,72,82496,1,8,0:3:0:0:
90,128,82603,1,4,0:3:0:0:
125,182,82710,6,0,P|136:208|143:263,1,65.0999955099108,12|0,0:1|0:0,0:0:0:0:
52,360,82925,2,0,P|32:343|29:292,1,65.0999955099108,6|0,0:3|0:0,0:0:0:0:
137,334,83139,6,0,P|163:345|218:352,1,65.0999955099108,10|0,0:0|0:0,0:0:0:0:
315,261,83354,2,0,P|298:241|247:238,1,65.0999955099108,6|2,0:3|0:1,0:0:0:0:
273,384,83567,6,0,P|343:355|420:364,1,130.199991019822,10|6,0:1|0:3,0:0:0:0:
464,318,83889,2,0,P|501:303|513:255,1,65.0999955099108,2|10,0:1|0:0,0:0:0:0:
368,157,84210,5,6,0:3:0:0:
368,157,84317,1,2,0:1:0:0:
368,157,84425,2,0,P|385:193|397:244,1,65.0999955099108,10|0,0:1|0:0,0:0:0:0:
479,180,84639,2,0,P|462:144|450:93,1,65.0999955099108,6|0,0:3|0:0,0:0:0:0:
296,40,84853,6,0,P|279:76|267:127,1,65.0999955099108,10|0,0:0|0:0,0:0:0:0:
185,63,85067,2,0,P|202:27|214:-24,1,65.0999955099108,6|0,0:3|0:0,0:0:0:0:
0,30,85282,6,0,P|6:104|51:131,1,130.199991019822,10|6,0:1|0:3,0:0:0:0:
124,110,85603,2,0,P|155:96|194:96,1,65.0999955099108,2|10,0:1|0:0,0:0:0:0:
222,200,85925,5,6,0:3:0:0:
222,200,86032,1,2,0:1:0:0:
222,200,86139,2,0,P|272:162|271:99,1,130.199991019822,8|6,0:1|0:3,0:0:0:0:
261,82,86460,2,0,P|292:96|331:96,1,65.0999955099108,0|10,3:0|0:0,0:0:0:0:
512,32,86782,2,0,P|479:33|450:47,1,65.0999955099108,6|0,0:3|3:0,0:0:0:0:
425,143,86996,5,10,0:1:0:0:
352,0,87210,1,6,0:3:0:0:
434,162,87425,1,10,0:0:0:0:
314,306,87639,5,8,0:0:0:0:
314,306,87746,2,0,B|369:268|436:262|436:262|396:263|362:230,1,195.299986529732,12|10,0:1|0:1,0:0:0:0:
248,360,88282,2,0,P|222:341|185:326,1,65.0999955099108,12|0,0:0|0:0,0:0:0:0:
0,352,88496,5,8,1:0:0:0:
49,367,88603,1,8,0:0:0:0:
87,342,88710,1,14,0:1:0:0:
98,304,88817,1,0,0:0:0:0:
87,272,88925,1,8,0:0:0:0:
45,241,89032,1,8,0:0:0:0:
2,200,89139,1,10,0:0:0:0:
0,135,89246,1,8,0:0:0:0:
51,85,89353,1,8,0:3:0:0:
128,92,89460,1,4,0:3:0:0:
159,163,89567,6,0,P|125:175|75:171,1,65.0999955099108,12|0,0:1|0:0,0:0:0:0:
256,64,89782,2,0,P|288:65|318:76,1,65.0999955099108,6|0,0:3|0:0,0:0:0:0:
166,0,89996,6,0,P|154:30|153:62,1,65.0999955099108,10|0,0:0|0:0,0:0:0:0:
265,222,90211,2,0,P|263:189|252:159,1,65.0999955099108,6|0,0:3|0:0,0:0:0:0:
468,22,90425,6,0,P|407:61|408:148,1,130.199991019822,10|6,0:1|0:3,0:0:0:0:
431,183,90746,2,0,P|461:195|493:196,1,65.0999955099108,2|10,0:1|0:0,0:0:0:0:
512,320,91067,5,6,0:3:0:0:
512,320,91175,1,2,0:1:0:0:
512,320,91282,2,0,P|479:318|449:307,1,65.0999955099108,10|0,0:1|0:0,0:0:0:0:
320,384,91496,2,0,P|350:372|382:371,1,65.0999955099108,2|2,0:3|0:1,0:0:0:0:
468,207,91710,6,0,P|435:205|405:194,1,65.0999955099108,10|0,0:0|0:0,0:0:0:0:
276,271,91924,2,0,P|306:259|338:258,1,65.0999955099108,6|2,0:3|0:1,0:0:0:0:
241,384,92139,6,0,P|169:357|92:353,1,130.199991019822,8|6,0:1|0:3,0:0:0:0:
38,349,92460,2,0,P|54:325|63:284,1,65.0999955099108,0|10,3:0|0:0,0:0:0:0:
0,192,92782,5,6,0:3:0:0:
0,192,92889,1,8,0:0:0:0:
0,192,92996,2,0,P|64:184|124:160,1,130.199991019822,12|2,0:1|0:0,0:0:0:0:
256,0,93425,6,0,P|261:50|280:97,1,65.0999955099108,10|0,0:0|0:0,0:0:0:0:
124,159,93639,2,0,P|131:127|133:94,1,65.0999955099108,8|4,0:3|3:3,0:0:0:0:
256,192,93854,1,10,0:1:0:0:
224,288,94067,2,0,P|231:317|235:359,3,43.3999970066072,0|0|8|4,1:0|1:0|0:3|0:3,0:0:0:0:
224,288,94496,6,0,P|296:281|324:130,1,195.299986529732,12|0,0:1|0:0,0:0:0:0:
338,162,94925,1,10,0:1:0:0:
256,32,95139,1,12,0:0:0:0:
170,118,95353,5,0,1:0:0:0:
192,164,95460,1,8,0:0:0:0:
245,186,95567,1,8,0:1:0:0:
309,171,95675,1,0,3:0:0:0:
340,107,95782,5,8,0:0:0:0:
333,95,95889,1,8,0:0:0:0:
328,82,95996,1,8,0:3:0:0:
325,69,96103,1,8,0:3:0:0:
324,56,96210,1,4,0:3:0:0:
325,43,96317,1,4,0:3:0:0:
391,0,96425,5,12,0:1:0:0:
512,128,96639,5,2,0:0:0:0:
512,128,96746,2,0,P|475:116|452:89,1,61.9999976158143,10|8,0:1|0:0,0:0:0:0:
376,133,96960,2,0,P|358:98|361:62,1,61.9999976158143,2|2,0:0|0:0,0:0:0:0:
300,12,97175,1,8,0:1:0:0:
303,0,97282,1,2,0:0:0:0:
225,153,97496,5,10,0:1:0:0:
185,170,97603,1,2,0:0:0:0:
158,218,97710,2,0,P|165:249|184:303,1,61.9999976158143,10|0,0:0|0:0,0:0:0:0:
44,384,97925,2,0,P|53:354|60:324,1,61.9999976158143,10|0,0:1|3:0,0:0:0:0:
0,224,98139,1,10,0:1:0:0:
84,54,98353,6,0,P|53:47|24:37,1,61.9999976158143,2|8,0:0|0:1,0:0:0:0:
165,169,98567,2,0,P|194:159|224:152,1,61.9999976158143,10|0,0:0|0:0,0:0:0:0:
288,32,98782,1,2,0:0:0:0:
395,181,98996,5,2,3:2:0:0:
439,202,99103,1,10,0:0:0:0:
492,187,99210,1,10,0:1:0:0:
510,127,99317,1,2,0:0:0:0:
465,67,99425,1,10,0:0:0:0:
453,70,99532,1,2,0:0:0:0:
443,78,99639,1,10,0:1:0:0:
437,89,99746,1,0,3:0:0:0:
433,100,99853,1,10,0:1:0:0:
512,237,100067,5,2,0:0:0:0:
505,254,100175,2,0,P|472:262|432:282,1,61.9999976158143,10|8,0:1|0:0,0:0:0:0:
345,365,100389,2,0,P|375:372|403:384,1,61.9999976158143,2|0,0:0|0:0,0:0:0:0:
499,353,100603,1,10,0:1:0:0:
499,353,100710,1,0,0:0:0:0:
323,233,100925,5,10,0:1:0:0:
304,228,101032,1,2,0:0:0:0:
273,229,101139,1,8,0:0:0:0:
242,249,101246,1,2,0:0:0:0:
223,288,101353,1,10,0:1:0:0:
183,318,101460,1,0,0:0:0:0:
127,311,101567,1,8,0:1:0:0:
0,74,101782,5,2,0:0:0:0:
12,88,101889,1,10,0:1:0:0:
25,108,101996,1,10,0:0:0:0:
35,137,102103,1,2,0:0:0:0:
37,174,102210,1,12,0:1:0:0:
160,240,102425,5,2,0:0:0:0:
219,224,102532,1,8,0:0:0:0:
250,156,102639,1,8,0:1:0:0:
221,87,102746,1,0,0:0:0:0:
148,72,102853,5,10,0:0:0:0:
139,81,102960,1,8,0:0:0:0:
134,92,103067,1,8,0:3:0:0:
131,104,103175,1,4,0:3:0:0:
181,171,103282,5,12,0:1:0:0:
181,171,103389,2,0,P|211:157|263:148,1,61.9999976158143,2|2,0:0|0:0,0:0:0:0:
369,81,103603,2,0,P|339:73|311:59,1,61.9999976158143,10|8,0:1|0:0,0:0:0:0:
192,0,103817,2,0,P|184:26|210:68,1,61.9999976158143,2|0,0:0|0:0,0:0:0:0:
323,162,104032,1,8,0:1:0:0:
483,89,104246,6,0,P|491:57|515:3,1,61.9999976158143,10|8,0:0|0:1,0:0:0:0:
409,164,104460,2,0,P|419:193|427:223,1,61.9999976158143,2|8,0:0|0:0,0:0:0:0:
486,277,104675,5,2,0:0:0:0:
481,295,104782,1,8,0:1:0:0:
476,313,104889,1,2,0:0:0:0:
345,384,104996,6,0,P|352:353|363:324,1,61.9999976158143,8|2,0:1|0:0,0:0:0:0:
256,384,105210,1,0,3:0:0:0:
227,373,105317,1,10,0:1:0:0:
200,346,105425,1,8,0:0:0:0:
192,303,105532,1,2,0:0:0:0:
212,257,105639,1,0,3:0:0:0:
264,237,105746,1,10,0:1:0:0:
308,193,105853,1,2,0:0:0:0:
313,125,105960,1,0,3:0:0:0:
287,97,106067,6,0,P|224:104|185:114,1,61.9999976158143,10|2,0:1|0:0,0:0:0:0:
144,142,106282,2,0,P|81:135|42:125,1,61.9999976158143,10|2,0:0|0:0,0:0:0:0:
187,1,106496,1,10,0:1:0:0:
313,125,106710,1,12,0:1:0:0:
512,84,106925,5,2,0:0:0:0:
473,64,107033,1,8,0:1:0:0:
429,68,107140,1,8,0:0:0:0:
399,100,107247,1,2,0:0:0:0:
400,144,107354,5,2,0:0:0:0:
362,103,107461,1,8,0:0:0:0:
302,86,107568,1,10,0:1:0:0:
241,118,107675,1,0,3:0:0:0:
217,190,107783,1,10,0:0:0:0:
226,213,107890,1,10,0:0:0:0:
241,227,107997,6,0,P|210:237|167:241,1,61.9999976158143,8|4,0:3|0:3,0:0:0:0:
0,192,108211,1,12,0:1:0:0:
0,192,110139,5,12,0:1:0:0:
128,32,110353,5,2,0:0:0:0:
136,42,110460,1,2,0:0:0:0:
135,55,110567,2,0,P|120:104|109:182,1,92.9999999713898,10|2,0:1|0:0,0:0:0:0:
138,223,110889,1,2,0:0:0:0:
138,223,110996,2,0,P|188:260|242:235,1,92.9999999713898,8|0,0:1|0:0,0:0:0:0:
352,128,111317,5,2,0:0:0:0:
352,128,111425,2,0,P|306:136|262:150,1,92.9999999713898,8|2,0:1|0:0,0:0:0:0:
185,73,111853,1,10,0:1:0:0:
299,233,112067,1,2,0:0:0:0:
174,50,112282,2,0,P|227:66|291:32,1,92.9999999713898,10|2,0:1|0:0,0:0:0:0:
334,17,112603,2,0,P|387:1|451:35,1,92.9999999713898,2|0,0:0|0:0,0:0:0:0:
505,94,112925,5,2,0:0:0:0:
511,106,113032,1,0,0:0:0:0:
509,119,113139,2,0,P|463:127|419:141,1,92.9999999713898,8|2,0:1|0:0,0:0:0:0:
256,224,113567,6,0,P|301:232|395:264,1,139.499999957085,10|2,0:1|0:0,0:0:0:0:
402,267,113996,2,0,P|409:323|388:353,1,92.9999999713898,8|2,0:1|0:0,0:0:0:0:
377,357,114317,1,0,0:0:0:0:
363,359,114425,1,10,0:1:0:0:
224,288,114639,5,0,0:0:0:0:
210,286,114746,1,2,2:0:0:0:
197,291,114853,1,8,2:1:0:0:
345,158,115067,6,0,P|331:202|322:247,1,92.9999999713898,2|8,0:0|0:1,0:0:0:0:
197,291,115496,2,0,P|159:320|109:310,1,92.9999999713898,2|8,0:0|0:1,0:0:0:0:
121,141,115925,1,2,0:0:0:0:
0,254,116139,2,0,P|44:240|89:231,1,92.9999999713898,12|2,0:1|0:0,0:0:0:0:
200,136,116567,5,10,0:1:0:0:
202,112,116674,1,2,0:0:0:0:
192,91,116781,1,2,0:0:0:0:
175,75,116888,1,2,0:0:0:0:
320,0,117210,5,2,0:0:0:0:
320,0,117317,1,2,0:0:0:0:
320,0,117425,2,0,P|336:45|343:102,1,92.9999999713898,10|0,0:1|0:0,0:0:0:0:
289,183,117746,2,0,P|320:142|451:136,1,185.99999994278,2|2,0:0|0:0,0:0:0:0:
470,240,118282,2,0,P|417:235|388:198,1,92.9999999713898,10|2,0:1|0:0,0:0:0:0:
494,33,118710,5,10,0:1:0:0:
342,89,118925,1,2,0:0:0:0:
512,28,119139,2,0,P|466:21|422:5,1,92.9999999713898,10|2,0:1|0:0,0:0:0:0:
342,89,119460,1,2,0:0:0:0:
342,89,119567,2,0,P|335:134|319:178,1,92.9999999713898,8|2,0:1|0:0,0:0:0:0:
249,304,119889,1,0,0:0:0:0:
249,304,119996,2,0,P|287:273|336:277,1,92.9999999713898,8|2,0:1|0:0,0:0:0:0:
448,384,120425,6,0,P|461:298|490:216,1,139.499999957085,8|0,0:1|0:0,0:0:0:0:
490,229,120853,2,0,P|444:228|409:198,1,92.9999999713898,8|0,0:1|0:0,0:0:0:0:
407,185,121175,1,2,0:0:0:0:
410,171,121282,1,10,0:1:0:0:
499,15,121496,5,0,0:0:0:0:
493,27,121603,1,2,0:0:0:0:
480,33,121710,1,8,0:1:0:0:
256,0,121925,6,0,P|316:22|351:52,1,92.9999999713898,2|8,0:0|0:1,0:0:0:0:
407,185,122353,2,0,P|410:140|422:88,1,92.9999999713898,2|8,0:0|0:1,0:0:0:0:
288,160,122782,1,2,0:0:0:0:
183,21,122996,1,10,0:1:0:0:
316,147,123210,1,0,0:0:0:0:
192,256,123425,2,0,P|147:252|95:241,1,92.9999999713898,8|2,0:1|0:0,0:0:0:0:
0,114,123853,5,12,0:1:0:0:
91,17,124282,2,0,B|177:25|143:54|252:61,1,154.379996301247,10|0,0:1|0:0,0:0:0:0:
258,74,124710,2,0,P|326:54|373:47,1,102.919997534164,10|2,0:1|0:0,0:0:0:0:
512,157,125139,1,10,0:1:0:0:
442,216,125353,2,0,P|413:169|427:117,1,102.919997534164,2|8,0:0|0:1,0:0:0:0:
442,44,125782,5,2,0:0:0:0:
320,192,125996,2,0,P|269:201|220:217,1,102.919997534164,10|2,0:1|0:0,0:0:0:0:
304,116,126425,1,8,0:1:0:0:
442,216,126639,2,0,P|486:203|516:152,1,102.919997534164,2|8,0:0|0:1,0:0:0:0:
376,326,127067,6,0,P|373:307|358:262,2,51.4599987670822,2|0|12,0:0|3:1|0:1,0:0:0:0:
256,384,127496,2,0,P|207:361|198:304,1,102.919997534164,2|8,0:0|0:1,0:0:0:0:
0,288,127925,5,2,0:0:0:0:
16,307,128032,1,2,0:0:0:0:
41,311,128139,1,10,0:1:0:0:
220,217,128353,5,0,0:0:0:0:
195,221,128460,1,2,0:0:0:0:
179,240,128567,1,8,0:1:0:0:
128,384,128782,6,0,P|112:287|90:170,1,205.839995068329,2|2,0:0|0:0,0:0:0:0:
6,197,129425,1,8,0:1:0:0:
177,94,129639,1,2,0:0:0:0:
0,32,129853,5,8,0:0:0:0:
8,56,129960,1,8,0:0:0:0:
31,72,130067,2,0,P|62:61|97:53,1,51.4599987670822,8|8,0:0|0:3,0:0:0:0:
192,128,130282,5,8,0:3:0:0:
224,88,130389,1,4,0:3:0:0:
269,65,130496,1,4,0:3:0:0:
320,61,130603,1,8,0:1:0:0:
369,78,130710,6,0,P|379:157|445:314,1,223.199984605408,10|8,1:2|0:0,0:0:0:0:
430,290,131139,1,10,0:0:0:0:
512,192,132210,6,0,B|440:152|373:199|373:199|310:288|213:234,1,297.599979473878,12|10,0:1|0:0,0:0:0:0:
198,184,132853,1,12,0:1:0:0:
0,34,134139,6,0,B|-12:95|54:101|54:101|103:51|208:52,1,223.199984605408,10|10,1:2|0:0,0:0:0:0:
163,54,134567,1,10,0:0:0:0:
256,384,135210,5,2,0:1:0:0:
299,319,135425,1,2,0:1:0:0:
256,384,135639,2,0,P|238:295|182:88,1,297.599979473878,12|10,0:1|0:0,0:0:0:0:
256,0,136282,1,12,0:1:0:0:
256,0,136710,5,2,0:0:0:0:
265,28,136817,1,2,0:0:0:0:
285,49,136925,1,2,0:0:0:0:
314,54,137032,1,2,0:0:0:0:
344,96,137139,5,4,0:3:0:0:
380,58,137246,1,2,0:0:0:0:
430,47,137353,1,2,0:0:0:0:
480,61,137460,1,2,0:0:0:0:
510,88,137567,6,0,P|496:147|484:245,1,139.499999957085,12|0,0:1|0:0,0:0:0:0:
485,225,137996,1,10,0:0:0:0:
372,372,138210,2,0,P|415:333|468:335,1,92.9999999713898,2|8,0:3|0:1,0:0:0:0:
397,237,138639,2,0,P|342:229|288:217,1,92.9999999713898,2|10,0:3|0:0,0:0:0:0:
116,384,139067,5,2,0:3:0:0:
116,384,139282,2,0,P|160:330|269:334,1,185.99999994278,8|10,0:1|0:0,0:0:0:0:
114,193,139925,5,2,0:3:0:0:
114,193,140139,2,0,P|146:234|209:225,1,92.9999999713898,10|2,0:1|0:3,0:0:0:0:
337,85,140567,1,10,0:0:0:0:
288,192,140782,1,2,0:3:0:0:
154,4,140996,6,8,P|178:61|197:154,1,139.499999957085,12|8,0:1|0:1,0:1:0:0:
288,192,141425,1,8,0:0:0:0:
449,172,141639,5,2,0:0:0:0:
449,172,141746,1,8,0:0:0:0:
449,172,141853,2,0,P|385:161|317:159,1,92.9999999713898,10|10,0:1|0:1,0:0:0:0:
288,192,142282,1,8,0:0:0:0:
408,49,142496,1,2,0:0:0:0:
259,211,142710,6,0,P|245:242|251:277,1,46.4999999856949,12|0,0:1|0:0,0:0:0:0:
168,274,142925,2,0,P|180:305|209:326,1,46.4999999856949,10|2,0:1|0:0,0:0:0:0:
0,128,143139,6,0,P|14:159|8:194,1,46.4999999856949,8|2,0:0|0:0,0:0:0:0:
91,191,143354,2,0,P|78:222|49:243,1,46.4999999856949,2|8,0:3|0:3,0:0:0:0:
192,64,143567,5,10,0:1:0:0:
196,96,143675,1,10,0:0:0:0:
215,122,143782,1,8,0:3:0:0:
240,132,143889,1,4,0:3:0:0:
281,102,143996,5,10,0:0:0:0:
330,91,144103,1,10,0:0:0:0:
379,117,144210,1,10,0:0:0:0:
401,172,144317,1,12,0:1:0:0:
508,337,145496,6,0,L|512:306,3,30.9999999904633,8|8|8|12,0:1|0:1|0:1|0:0,0:0:0:0:
320,288,146139,6,0,P|312:254|297:213,1,71.2999986181259,12|0,0:1|0:0,0:0:0:0:
463,106,146353,2,0,P|451:139|442:174,1,71.2999986181259,2|8,0:0|0:1,0:0:0:0:
489,250,146567,1,8,0:0:0:0:
500,267,146675,1,8,0:1:0:0:
504,287,146782,1,2,0:0:0:0:
299,219,146996,5,10,0:1:0:0:
285,252,147103,1,0,0:0:0:0:
258,275,147210,1,8,0:1:0:0:
222,278,147317,1,2,0:0:0:0:
188,264,147425,2,0,P|159:254|114:250,1,71.2999986181259,10|2,0:0|0:0,0:0:0:0:
0,128,147639,5,2,0:0:0:0:
0,128,147746,1,2,0:0:0:0:
0,128,147853,2,0,P|36:121|70:89,1,71.2999986181259,10|0,0:1|0:0,0:0:0:0:
160,0,148067,2,0,P|150:29|146:74,1,71.2999986181259,2|8,3:2|0:1,0:0:0:0:
202,180,148282,1,8,0:0:0:0:
202,180,148389,1,8,0:1:0:0:
202,180,148496,2,0,P|238:187|272:219,1,71.2999986181259,2|8,0:0|0:1,0:0:0:0:
430,56,148710,5,10,0:1:0:0:
430,56,148817,1,2,0:0:0:0:
430,56,148925,2,0,P|415:90|408:137,1,71.2999986181259,10|2,0:1|3:2,0:0:0:0:
512,256,149139,2,0,P|505:221|490:188,1,71.2999986181259,10|2,0:0|0:0,0:0:0:0:
320,352,149353,5,10,0:1:0:0:
320,352,149460,1,2,0:0:0:0:
320,352,149567,2,0,P|385:313|390:239,1,142.599997236252,12|2,0:1|0:0,0:0:0:0:
369,225,149889,1,8,0:1:0:0:
369,225,149996,2,0,P|334:231|301:246,1,71.2999986181259,8|10,0:0|0:1,0:0:0:0:
96,352,150210,5,0,0:0:0:0:
65,333,150317,1,8,0:0:0:0:
59,297,150425,1,10,0:1:0:0:
235,142,150639,5,8,0:1:0:0:
149,271,150853,1,10,0:0:0:0:
0,192,151067,5,8,0:0:0:0:
0,192,151175,2,0,P|71:165|104:30,1,213.899995854378,12|10,0:1|0:1,0:0:0:0:
0,0,151710,2,0,P|15:34|26:94,1,71.2999986181259,12|8,0:0|0:1,0:0:0:0:
128,192,151925,2,0,P|136:157|151:124,1,71.2999986181259,0|8,0:0|0:0,0:0:0:0:
224,0,152139,1,12,0:1:0:0:
256,192,152353,5,10,0:1:0:0:
294,208,152460,1,2,0:0:0:0:
342,198,152567,1,10,0:0:0:0:
383,159,152675,1,10,0:0:0:0:
390,96,152782,1,8,0:3:0:0:
256,0,152996,6,0,P|288:14|323:23,1,71.2999986181259,12|0,0:1|0:0,0:0:0:0:
457,72,153210,2,0,P|422:80|389:95,1,71.2999986181259,0|8,0:0|0:1,0:0:0:0:
256,192,153425,5,8,0:0:0:0:
225,173,153532,1,8,0:1:0:0:
189,172,153639,2,0,P|178:206|163:238,1,71.2999986181259,2|8,0:0|0:0,0:0:0:0:
0,288,153853,5,10,0:1:0:0:
16,319,153960,1,0,0:0:0:0:
45,339,154067,1,8,0:1:0:0:
80,344,154175,1,0,0:0:0:0:
114,337,154282,1,8,0:0:0:0:
416,160,154496,5,8,0:1:0:0:
416,160,154603,1,8,0:0:0:0:
416,160,154710,2,0,P|402:195|391:243,1,71.2999986181259,10|0,0:1|0:0,0:0:0:0:
446,324,154925,2,0,P|478:336|512:327,1,71.2999986181259,0|10,3:0|0:1,0:0:0:0:
320,288,155139,1,8,0:0:0:0:
320,288,155246,1,8,0:1:0:0:
320,288,155353,2,0,P|286:278|253:290,1,71.2999986181259,2|8,0:0|0:0,0:0:0:0:
179,199,155567,5,8,0:1:0:0:
161,173,155674,1,0,0:0:0:0:
131,162,155782,1,8,0:1:0:0:
99,163,155889,1,0,3:0:0:0:
70,177,155996,2,0,P|67:210|54:255,1,71.2999986181259,10|0,0:0|3:0,0:0:0:0:
160,384,156210,5,10,0:1:0:0:
160,384,156317,1,8,0:0:0:0:
160,384,156425,2,0,P|166:315|193:221,1,142.599997236252,12|2,0:1|0:0,0:0:0:0:
215,225,156746,2,0,P|224:190|227:155,1,71.2999986181259,8|8,0:1|0:0,0:0:0:0:
119,0,157067,5,2,0:0:0:0:
218,140,157282,1,10,0:1:0:0:
373,29,157496,1,8,0:0:0:0:
373,29,157603,1,8,0:0:0:0:
373,29,157710,1,10,0:1:0:0:
512,76,157925,6,0,B|376:86|441:133|298:137,1,213.899995854378,12|0,0:1|1:0,0:0:0:0:
286,162,158353,2,0,P|252:148|201:139,1,71.2999986181259,8|8,0:0|0:1,0:0:0:0:
0,256,158567,6,0,P|34:242|85:233,1,71.2999986181259,12|0,0:1|0:0,0:0:0:0:
87,331,158782,2,0,P|120:345|163:374,1,71.2999986181259,8|8,0:0|0:0,0:0:0:0:
224,288,158996,5,12,0:1:0:0:
223,318,159103,1,0,3:0:0:0:
255,345,159210,1,8,0:0:0:0:
304,340,159317,1,8,0:0:0:0:
336,292,159425,1,10,0:0:0:0:
381,247,159532,1,8,0:0:0:0:
452,248,159639,1,8,0:3:0:0:
502,307,159746,1,4,0:3:0:0:
462,374,159853,6,0,P|454:331|441:291,1,71.2999986181259,12|0,0:1|0:0,0:0:0:0:
301,199,160067,2,0,P|309:242|322:282,1,71.2999986181259,6|0,0:3|0:0,0:0:0:0:
469,206,160282,6,0,P|426:214|386:227,1,71.2999986181259,10|0,0:0|0:0,0:0:0:0:
294,367,160496,2,0,P|337:359|377:346,1,71.2999986181259,6|2,0:3|0:1,0:0:0:0:
301,199,160710,6,0,P|249:262|182:254,1,142.599997236252,10|6,0:1|0:3,0:0:0:0:
129,213,161032,2,0,P|93:202|57:196,1,71.2999986181259,2|10,0:1|0:0,0:0:0:0:
29,38,161353,5,6,0:3:0:0:
29,38,161460,1,2,0:1:0:0:
29,38,161567,2,0,P|18:73|12:109,1,71.2999986181259,10|0,0:1|0:0,0:0:0:0:
97,127,161782,2,0,P|107:91|113:55,1,71.2999986181259,6|0,0:3|0:0,0:0:0:0:
256,192,161996,6,0,P|245:156|239:120,1,71.2999986181259,10|0,0:0|0:0,0:0:0:0:
324,103,162211,2,0,P|334:138|340:174,1,71.2999986181259,6|0,0:3|0:0,0:0:0:0:
431,2,162425,6,0,B|498:27|498:27|469:117,1,142.599997236252,10|6,0:1|0:3,0:0:0:0:
431,159,162746,2,0,L|446:230,1,71.2999986181259,2|10,0:1|0:0,0:0:0:0:
314,269,163067,5,6,0:3:0:0:
314,269,163175,1,2,0:1:0:0:
314,269,163282,2,0,P|229:237|147:239,1,142.599997236252,8|6,0:1|0:3,0:0:0:0:
96,160,163603,5,0,3:0:0:0:
96,160,163710,2,0,P|70:142|62:90,1,71.2999986181259,10|0,0:0|0:0,0:0:0:0:
151,78,163925,2,0,P|145:46|176:4,1,71.2999986181259,6|0,0:3|3:0,0:0:0:0:
376,158,164139,5,10,0:1:0:0:
224,113,164353,1,6,0:3:0:0:
391,166,164567,1,10,0:0:0:0:
312,47,164782,5,8,0:0:0:0:
312,47,164889,2,0,P|330:147|346:277,1,213.899995854378,12|10,0:1|0:1,0:0:0:0:
460,358,165425,2,0,P|477:333|523:313,1,71.2999986181259,12|0,0:0|0:0,0:0:0:0:
512,126,165639,5,8,1:0:0:0:
512,71,165746,1,8,0:0:0:0:
475,39,165853,1,14,0:1:0:0:
433,39,165960,1,0,0:0:0:0:
403,59,166068,1,8,0:0:0:0:
384,112,166175,1,8,0:0:0:0:
354,168,166282,1,10,0:0:0:0:
288,190,166389,1,8,0:0:0:0:
221,152,166496,1,8,0:3:0:0:
206,70,166603,1,4,0:3:0:0:
270,18,166710,6,0,P|292:49|303:102,1,71.2999986181259,12|0,0:1|0:0,0:0:0:0:
144,180,166925,2,0,P|154:146|175:117,1,71.2999986181259,6|0,0:3|0:0,0:0:0:0:
354,168,167139,6,0,P|376:199|387:252,1,71.2999986181259,10|0,0:0|0:0,0:0:0:0:
228,330,167354,2,0,P|238:296|259:267,1,71.2999986181259,6|0,0:3|0:0,0:0:0:0:
132,367,167567,6,0,B|76:337|24:331|24:331|16:290,1,142.599997236252,10|6,0:1|0:3,0:0:0:0:
79,253,167889,2,0,P|99:224|110:182,1,71.2999986181259,2|10,0:1|0:0,0:0:0:0:
32,39,168210,5,6,0:3:0:0:
32,39,168317,1,2,0:1:0:0:
32,39,168425,2,0,P|47:72|94:89,1,71.2999986181259,10|0,0:1|0:0,0:0:0:0:
256,0,168639,2,0,P|218:5|183:17,1,71.2999986181259,2|2,0:3|0:1,0:0:0:0:
160,160,168853,6,0,P|175:127|222:110,1,71.2999986181259,10|0,0:0|0:0,0:0:0:0:
348,15,169067,2,0,P|310:10|275:-2,1,71.2999986181259,6|2,0:3|0:1,0:0:0:0:
352,128,169282,6,0,P|405:181|474:182,1,142.599997236252,8|6,0:1|0:3,0:0:0:0:
508,251,169603,2,0,P|503:289|491:324,1,71.2999986181259,0|10,3:0|0:0,0:0:0:0:
374,275,169925,5,6,0:3:0:0:
374,275,170032,1,8,0:0:0:0:
374,275,170139,2,0,P|453:285|527:310,1,142.599997236252,12|2,0:1|0:0,0:0:0:0:
352,128,170567,6,0,P|318:138|282:143,1,71.2999986181259,10|0,0:0|0:0,0:0:0:0:
160,256,170782,2,0,P|195:260|229:271,1,71.2999986181259,8|4,0:3|3:3,0:0:0:0:
308,228,170996,1,10,0:1:0:0:
183,86,171210,2,0,P|178:61|175:30,3,47.533332412084,0|0|8|4,1:0|1:0|0:3|0:3,0:0:0:0:
183,86,171639,6,0,B|298:84|252:129|401:131,1,213.899995854378,12|0,0:1|0:0,0:0:0:0:
460,98,172067,1,10,0:1:0:0:
285,17,172282,1,12,0:0:0:0:
368,238,172496,5,0,1:0:0:0:
308,193,172603,1,8,0:0:0:0:
252,204,172710,1,8,0:1:0:0:
234,234,172817,1,0,3:0:0:0:
220,289,172925,5,8,0:0:0:0:
206,314,173032,1,0,0:0:0:0:
188,325,173139,1,8,0:0:0:0:
173,325,173246,1,8,0:3:0:0:
166,322,173353,1,4,0:3:0:0:
161,316,173460,1,4,0:3:0:0:
103,263,173567,5,12,0:1:0:0:
224,37,173889,5,10,0:1:0:0:
220,61,173996,1,14,0:3:0:0:
328,113,174210,5,2,0:1:0:0:
308,127,174317,1,10,0:1:0:0:
347,240,174532,5,12,0:3:0:0:
323,236,174639,1,10,0:1:0:0:
270,343,174853,5,14,0:3:0:0:
256,323,174960,1,8,0:1:0:0:
242,303,175067,1,2,0:1:0:0:
256,192,175282,5,10,0:1:0:0:
224,37,175603,5,10,0:1:0:0:
238,56,175710,1,14,0:3:0:0:
351,17,175924,5,2,0:1:0:0:
347,41,176031,1,10,0:1:0:0:
454,93,176246,5,12,0:3:0:0:
434,107,176353,1,10,0:1:0:0:
472,220,176567,5,12,0:3:0:0:
448,216,176674,1,8,0:1:0:0:
424,212,176781,1,2,0:1:0:0:
400,208,176889,1,8,0:0:0:0:
373,202,176996,2,0,P|331:256|362:334,1,123.999995231629,10|0,0:1|0:0,0:0:0:0:
256,384,177317,5,8,0:1:0:0:
256,384,177425,2,0,P|185:359|95:349,1,123.999995231629,8|8,0:0|0:1,0:0:0:0:
96,281,177746,2,0,P|121:210|131:120,1,123.999995231629,8|8,0:1|0:0,0:0:0:0:
107,131,178067,5,10,0:1:0:0:
139,149,178175,1,0,3:1:0:0:
176,145,178282,1,12,0:3:0:0:
206,123,178389,1,8,0:1:0:0:
215,87,178496,1,2,0:1:0:0:
39,0,178710,6,0,P|14:71|4:161,1,123.999995231629,10|2,0:1|0:1,0:0:0:0:
11,136,179032,1,8,0:1:0:0:
25,148,179139,1,8,0:0:0:0:
188,72,179353,5,8,0:1:0:0:
230,61,179460,1,0,3:0:0:0:
279,87,179567,1,8,1:2:0:0:
307,142,179675,1,8,1:2:0:0:
373,155,179782,6,0,P|408:80|416:3,1,148.799989736939,12|0,0:1|0:0,0:0:0:0:
416,15,180103,2,0,P|424:102|505:119,1,148.799989736939,12|0,0:1|0:0,0:0:0:0:
491,121,180425,5,12,0:1:0:0:
353,365,180746,5,10,0:1:0:0:
338,345,180853,1,14,0:3:0:0:
225,384,181067,5,2,0:1:0:0:
229,360,181174,1,10,0:1:0:0:
122,308,181389,5,12,0:3:0:0:
142,294,181496,1,10,0:1:0:0:
104,181,181710,5,14,0:3:0:0:
128,185,181817,1,8,0:1:0:0:
152,189,181924,1,2,0:1:0:0:
176,193,182032,1,8,0:0:0:0:
200,197,182139,1,10,0:1:0:0:
493,0,182460,5,10,0:1:0:0:
473,15,182567,1,14,0:3:0:0:
512,128,182781,5,10,0:1:0:0:
488,124,182888,1,8,0:0:0:0:
436,231,183103,5,8,0:0:0:0:
422,211,183210,1,10,0:1:0:0:
309,249,183424,5,12,0:3:0:0:
313,225,183531,1,0,0:1:0:0:
317,201,183638,1,2,3:1:0:0:
321,177,183746,1,0,3:0:0:0:
322,151,183853,2,0,P|259:138|234:85,1,123.999995231629,12|2,0:1|0:1,0:0:0:0:
256,0,184282,1,8,0:0:0:0:
222,179,184496,5,2,0:1:0:0:
222,179,184603,2,0,B|112:165|172:133|43:119,1,185.999992847443,8|8,0:0|0:0,0:0:0:0:
154,56,185139,1,8,0:3:0:0:
341,139,185353,5,8,0:3:0:0:
402,133,185460,1,4,0:3:0:0:
421,74,185567,1,12,0:1:0:0:
256,192,185782,2,0,P|263:211|268:244,3,41.3333317438762,8|0|8|10,0:3|1:0|0:3|0:1,0:0:0:0:
315,363,186210,6,0,B|341:359|359:330|359:330|392:308|441:330|442:338|443:345|504:311|497:271|488:267|468:240|487:198|487:198|445:230|460:276,1,371.999974342347,12|0,0:1|0:0,0:0:0:0:
315,363,194139,6,0,P|269:347|228:344,1,74.3999948684694,12|2,0:1|0:3,0:0:0:0:
416,256,194567,2,0,P|400:302|397:343,1,74.3999948684694,10|2,0:1|0:3,0:0:0:0:
221,231,194996,6,0,P|267:247|308:250,1,74.3999948684694,10|2,0:1|0:3,0:0:0:0:
120,338,195424,2,0,P|136:292|139:251,1,74.3999948684694,10|2,0:1|0:3,0:0:0:0:
128,250,195746,1,2,0:0:0:0:
115,236,195853,2,0,P|120:199|134:164,1,74.3999948684694,10|2,0:1|0:3,0:0:0:0:
71,46,196282,1,10,0:1:0:0:
0,159,196496,2,0,P|51:125|83:125,1,74.3999948684694,2|8,0:3|0:1,0:0:0:0:
224,160,196925,5,2,0:3:0:0:
350,75,197139,1,10,0:1:0:0:
212,172,197353,1,2,0:3:0:0:
192,0,197567,2,0,P|209:33|226:85,1,74.3999948684694,10|2,0:1|0:3,0:0:0:0:
308,141,197889,5,2,0:0:0:0:
325,146,197996,2,0,P|358:129|410:112,1,74.3999948684694,10|2,0:1|0:3,0:0:0:0:
512,224,198317,5,2,0:0:0:0:
495,229,198424,2,0,P|462:212|410:195,1,74.3999948684694,10|2,0:1|0:3,0:0:0:0:
345,230,198853,5,12,0:1:0:0:
488,117,199067,1,2,0:1:0:0:
332,241,199282,1,4,0:1:0:0:
286,383,200782,5,0,0:0:0:0:
286,383,200996,2,0,P|296:334|307:303,1,74.3999948684694
229,262,201425,2,0,P|198:296|156:303,1,74.3999948684694
100,271,201853,1,0,0:0:0:0:
45,353,202496,5,2,0:0:0:0:
139,348,202710,5,2,0:0:0:0:
100,271,202925,1,2,0:0:0:0:
235,328,203139,5,2,0:0:0:0:
252,180,203353,1,2,0:0:0:0:
149,71,203567,5,2,0:0:0:0:
149,71,203782,6,0,L|155:100,8,18.5999987171174,2|2|2|2|2|2|2|2|2,0:0|0:0|0:0|0:0|0:0|0:0|0:0|0:0|0:0,0:0:0:0:
252,180,204425,6,0,P|285:164|327:156,1,71.2999986181259,12|0,0:1|0:0,0:0:0:0:
512,148,204639,2,0,P|477:140|445:124,1,71.2999986181259,2|8,0:0|0:1,0:0:0:0:
309,62,204853,5,8,0:0:0:0:
283,36,204960,1,8,0:1:0:0:
285,0,205067,2,0,P|320:8|352:24,1,71.2999986181259,2|10,0:0|0:0,0:0:0:0:
445,124,205282,5,10,0:1:0:0:
414,141,205389,1,0,0:0:0:0:
393,170,205496,1,8,0:1:0:0:
390,205,205603,1,2,0:0:0:0:
397,239,205710,2,0,P|416:270|425:314,1,71.2999986181259,10|2,0:0|0:0,0:0:0:0:
256,384,205925,5,10,0:1:0:0:
279,357,206032,1,2,0:0:0:0:
314,351,206139,2,0,P|345:370|389:379,1,71.2999986181259,10|0,0:1|0:0,0:0:0:0:
192,256,206353,2,0,P|157:264|127:283,1,71.2999986181259,2|8,3:2|0:1,0:0:0:0:
305,142,206567,5,8,0:0:0:0:
314,176,206675,1,8,0:1:0:0:
311,211,206782,1,2,0:0:0:0:
33,177,206996,5,10,0:1:0:0:
19,225,207103,1,2,0:0:0:0:
34,272,207210,1,10,0:1:0:0:
78,294,207317,1,2,3:2:0:0:
127,283,207425,2,0,P|135:248|154:218,1,71.2999986181259,10|2,0:0|0:0,0:0:0:0:
284,80,207639,2,0,P|263:112|214:128,1,71.2999986181259,10|2,0:1|0:0,0:0:0:0:
134,88,207853,6,0,P|51:61|-8:81,1,142.599997236252,12|2,0:1|0:0,0:0:0:0:
153,218,208282,1,8,0:0:0:0:
181,197,208389,1,10,0:1:0:0:
216,199,208496,1,0,0:0:0:0:
363,363,208710,5,10,0:1:0:0:
424,167,208925,1,8,0:1:0:0:
359,381,209139,1,10,0:0:0:0:
490,303,209353,5,8,0:0:0:0:
490,303,209460,2,0,B|367:302|402:348|271:343,1,213.899995854378,12|10,0:1|0:1,0:0:0:0:
128,384,209996,2,0,P|171:367|191:328,1,71.2999986181259,12|0,0:0|0:0,0:0:0:0:
156,175,210210,5,8,0:1:0:0:
99,184,210317,1,8,0:0:0:0:
71,217,210425,1,10,0:1:0:0:
65,252,210532,1,2,0:0:0:0:
71,272,210639,5,10,0:0:0:0:
119,290,210746,1,10,0:1:0:0:
165,251,210853,1,10,0:0:0:0:
228,238,210960,1,10,0:0:0:0:
295,274,211067,1,8,0:3:0:0:
353,328,211175,1,4,0:3:0:0:
437,329,211282,6,0,P|451:297|462:245,1,71.2999986181259,12|0,0:1|0:0,0:0:0:0:
296,79,211496,2,0,P|310:111|321:163,1,71.2999986181259,8|0,0:1|0:0,0:0:0:0:
503,136,211710,5,8,0:0:0:0:
484,166,211817,2,0,P|416:132|328:155,1,142.599997236252,8|8,0:1|0:0,0:0:0:0:
228,238,212139,5,10,0:1:0:0:
192,242,212246,1,0,0:0:0:0:
157,249,212353,1,8,0:1:0:0:
123,261,212460,1,0,0:0:0:0:
91,279,212567,1,8,0:0:0:0:
0,128,212782,5,0,3:0:0:0:
18,158,212889,1,8,0:0:0:0:
52,167,212996,2,0,P|84:153|136:142,1,71.2999986181259,10|0,0:1|0:0,0:0:0:0:
256,32,213210,2,0,P|221:23|188:9,1,71.2999986181259,8|2,0:1|3:2,0:0:0:0:
204,171,213425,5,8,0:0:0:0:
236,185,213532,2,0,P|293:151|398:164,1,142.599997236252,10|8,0:1|0:0,0:0:0:0:
480,192,213853,2,0,P|460:166|441:120,1,71.2999986181259,8|0,0:1|0:0,0:0:0:0:
463,13,214067,5,10,0:1:0:0:
475,6,214175,1,10,0:2:0:0:
489,6,214282,1,10,0:0:0:0:
500,14,214496,6,0,P|431:74|390:210,1,213.899995854378,12|0,0:1|0:0,0:0:0:0:
512,284,214925,6,0,P|497:250|455:234,1,71.2999986181259,10|0,0:0|0:0,0:0:0:0:
456,191,215139,2,0,P|421:177|380:195,1,71.2999986181259,10|0,0:0|0:0,0:0:0:0:
322,135,215353,2,0,P|288:150|272:192,1,71.2999986181259,10|0,0:0|0:0,0:0:0:0:
153,217,215567,2,0,P|139:251|157:292,1,71.2999986181259,10|0,0:0|0:0,0:0:0:0:
330,384,215782,6,0,P|338:347|354:305,1,71.2999986181259,10|0,0:0|0:0,0:0:0:0:
168,121,215996,2,0,P|176:158|192:200,1,71.2999986181259,10|0,0:0|0:0,0:0:0:0:
371,210,216210,6,0,P|286:255|85:300,1,285.199994472504,12|2,0:1|0:3,0:0:0:0:
0,224,216746,1,8,0:1:0:0:
21,251,216853,2,0,P|52:233|65:197,1,71.2999986181259,12|0,0:0|3:0,0:0:0:0:
142,158,217067,2,0,P|151:123|134:89,1,71.2999986181259,0|8,0:0|0:0,0:0:0:0:
224,224,217282,5,12,0:1:0:0:
244,274,217389,1,0,3:0:0:0:
282,291,217496,1,8,0:0:0:0:
309,284,217603,1,8,0:0:0:0:
347,252,217710,5,10,0:0:0:0:
410,258,217817,1,8,0:0:0:0:
461,208,217925,1,8,0:3:0:0:
457,129,218032,1,4,0:3:0:0:
378,95,218139,6,0,P|342:111|305:118,1,71.2999986181259,12|0,0:1|0:0,0:0:0:0:
132,0,218353,2,0,P|167:7|200:22,1,71.2999986181259,6|0,0:3|0:0,0:0:0:0:
329,240,218567,6,0,P|292:225|261:204,1,71.2999986181259,10|0,0:0|0:0,0:0:0:0:
223,0,218781,2,0,P|242:29|254:63,1,71.2999986181259,6|2,0:3|0:1,0:0:0:0:
188,143,218996,6,0,B|110:157|146:180|47:196,1,142.599997236252,10|6,0:1|0:3,0:0:0:0:
11,258,219317,2,0,P|30:290|36:329,1,71.2999986181259,2|10,0:1|0:0,0:0:0:0:
158,274,219639,5,6,0:3:0:0:
158,274,219746,1,2,0:1:0:0:
158,274,219853,2,0,P|192:267|223:248,1,71.2999986181259,10|0,0:1|0:0,0:0:0:0:
409,370,220067,2,0,P|378:351|343:344,1,71.2999986181259,6|0,0:3|0:0,0:0:0:0:
351,195,220282,6,0,P|342:226|336:276,1,71.2999986181259,10|0,0:0|0:0,0:0:0:0:
242,384,220496,2,0,P|250:352|257:303,1,71.2999986181259,6|0,0:3|0:0,0:0:0:0:
158,274,220710,6,0,P|84:306|21:286,1,142.599997236252,10|6,0:1|0:3,0:0:0:0:
1,215,221032,2,0,P|9:183|16:134,1,71.2999986181259,2|10,0:1|0:0,0:0:0:0:
157,54,221353,5,6,0:3:0:0:
159,75,221460,1,2,0:1:0:0:
172,91,221567,2,0,P|245:62|322:76,1,142.599997236252,12|6,0:1|0:3,0:0:0:0:
446,219,221996,6,0,P|408:207|377:175,1,71.2999986181259,10|0,0:0|0:0,0:0:0:0:
339,8,222210,2,0,P|327:46|295:77,1,71.2999986181259,6|0,0:3|3:0,0:0:0:0:
256,192,222425,5,10,0:1:0:0:
450,75,222639,1,6,0:3:0:0:
256,208,222853,1,10,0:0:0:0:
306,69,223067,5,8,0:0:0:0:
306,69,223175,2,0,B|272:84|276:114|276:114|342:164|332:269,1,213.899995854378,12|10,0:1|0:1,0:0:0:0:
256,384,223710,2,0,P|244:347|240:302,1,71.2999986181259,12|0,0:0|0:0,0:0:0:0:
256,208,223925,5,8,1:0:0:0:
212,176,224032,1,8,0:0:0:0:
179,190,224139,1,14,0:1:0:0:
168,208,224246,1,0,0:0:0:0:
167,250,224353,1,8,0:0:0:0:
145,294,224460,1,8,0:0:0:0:
91,314,224567,5,10,0:0:0:0:
29,294,224675,1,8,0:0:0:0:
1,222,224782,1,8,0:3:0:0:
34,151,224889,1,4,0:3:0:0:
112,146,224996,6,0,P|102:117|93:72,1,71.2999986181259,12|0,0:1|0:0,0:0:0:0:
256,0,225210,2,0,P|239:32|197:45,1,71.2999986181259,6|0,0:3|0:0,0:0:0:0:
112,146,225425,6,0,P|102:175|93:220,1,71.2999986181259,10|0,0:0|0:0,0:0:0:0:
256,292,225639,2,0,P|239:260|197:247,1,71.2999986181259,6|0,0:3|0:0,0:0:0:0:
2,347,225853,6,0,P|77:308|139:337,1,142.599997236252,10|6,0:1|0:3,0:0:0:0:
191,371,226175,2,0,P|223:354|236:312,1,71.2999986181259,2|10,0:1|0:0,0:0:0:0:
288,128,226496,5,6,0:3:0:0:
288,128,226603,1,2,0:1:0:0:
288,128,226710,2,0,P|299:157|312:210,1,71.2999986181259,10|0,0:1|0:0,0:0:0:0:
444,257,226925,2,0,P|473:246|526:233,1,71.2999986181259,2|2,0:3|0:1,0:0:0:0:
400,181,227139,6,0,P|389:152|376:99,1,71.2999986181259,10|0,0:0|0:0,0:0:0:0:
244,52,227354,2,0,P|215:63|162:76,1,71.2999986181259,6|2,0:3|0:1,0:0:0:0:
326,0,227567,6,0,P|409:21|489:51,1,142.599997236252,8|6,0:1|0:3,0:0:0:0:
495,111,227889,2,0,P|503:142|472:180,1,71.2999986181259,0|10,3:0|0:0,0:0:0:0:
256,256,228210,5,6,0:3:0:0:
256,256,228317,1,8,0:0:0:0:
256,256,228425,2,0,P|321:206|383:228,1,142.599997236252,12|2,0:1|0:0,0:0:0:0:
512,326,228853,6,0,P|477:319|429:298,1,71.2999986181259,12|0,0:0|0:0,0:0:0:0:
266,384,229067,2,0,P|299:371|334:364,1,71.2999986181259,8|8,0:0|0:0,0:0:0:0:
393,152,229282,2,0,P|386:186|373:220,1,71.2999986181259,10|0,0:1|0:0,0:0:0:0:
192,288,229496,6,0,P|165:291|128:300,3,47.533332412084,0|0|8|4,1:0|1:0|0:3|0:3,0:0:0:0:
192,288,229925,2,0,B|251:300|275:345|275:345|302:301|382:290,1,213.899995854378,12|0,0:1|0:0,0:0:0:0:
397,312,230353,1,10,0:1:0:0:
224,160,230567,1,12,0:0:0:0:
277,240,230782,5,0,1:0:0:0:
306,199,230889,1,8,0:0:0:0:
355,190,230996,1,8,0:1:0:0:
399,211,231103,1,0,3:0:0:0:
427,252,231210,5,8,0:0:0:0:
420,239,231317,1,8,0:0:0:0:
416,225,231425,1,8,0:3:0:0:
417,210,231532,1,8,0:3:0:0:
420,196,231639,1,4,0:3:0:0:
427,183,231746,1,4,0:3:0:0:
497,149,231853,6,0,P|425:140|354:83,1,123.999995231629,12|2,0:1|0:3,0:0:0:0:
308,6,232282,1,10,0:0:0:0:
260,187,232496,5,6,0:3:0:0:
271,172,232603,1,2,0:1:0:0:
278,154,232710,1,10,0:1:0:0:
282,136,232817,1,0,0:0:0:0:
282,117,232925,1,2,0:3:0:0:
160,0,233139,6,0,P|112:46|125:110,1,123.999995231629,10|6,0:0|0:3,0:0:0:0:
173,165,233460,1,2,0:1:0:0:
186,177,233567,2,0,P|119:192|43:220,2,123.999995231629,10|2|10,0:1|0:3|0:0,0:0:0:0:
160,320,234210,5,6,0:3:0:0:
195,295,234317,1,2,0:1:0:0:
238,292,234425,1,10,0:1:0:0:
273,316,234532,1,2,0:1:0:0:
299,350,234639,1,2,0:3:0:0:
339,364,234746,1,2,0:1:0:0:
381,356,234853,1,10,0:0:0:0:
411,325,234960,1,2,0:1:0:0:
413,281,235067,1,6,0:3:0:0:
388,244,235175,1,2,0:1:0:0:
346,231,235282,6,0,P|260:220|146:180,1,185.999992847443,12|2,0:1|0:1,0:0:0:0:
126,170,235710,2,0,P|68:209|73:266,1,123.999995231629,10|2,0:0|0:3,0:0:0:0:
256,224,236139,5,10,0:1:0:0:
266,208,236246,1,8,0:0:0:0:
273,190,236353,1,8,0:1:0:0:
274,171,236460,1,2,0:1:0:0:
229,104,236567,5,10,0:0:0:0:
262,149,236675,1,8,0:0:0:0:
322,161,236782,1,8,0:0:0:0:
399,131,236889,6,0,B|428:72|478:51|478:51|431:39|418:72,1,185.999992847443,12|8,0:1|0:1,0:0:0:0:
262,149,237425,6,0,P|232:154|182:173,1,61.9999976158143,14|0,0:0|0:0,0:0:0:0:
32,32,237639,2,0,P|62:37|112:56,1,61.9999976158143,0|8,3:0|0:0,0:0:0:0:
187,223,237853,6,0,P|192:193|211:143,1,61.9999976158143,12|0,0:1|0:0,0:0:0:0:
50,331,238067,2,0,P|45:301|26:251,1,61.9999976158143,0|8,1:0|0:0,0:0:0:0:
160,352,238282,5,10,0:1:0:0:
201,314,238389,1,8,0:3:0:0:
261,301,238496,1,4,0:3:0:0:
334,311,238603,1,4,0:3:0:0:
400,356,238710,6,0,P|440:292|438:231,1,123.999995231629,12|2,0:1|0:3,0:0:0:0:
320,96,239139,1,8,0:0:0:0:
256,192,239353,5,2,0:3:0:0:
269,205,239460,1,0,0:0:0:0:
286,211,239567,1,8,0:1:0:0:
304,212,239675,1,0,0:0:0:0:
322,207,239782,1,2,0:3:0:0:
512,96,239996,6,0,P|450:97|409:156,1,123.999995231629,8|2,0:0|0:3,0:0:0:0:
480,224,240317,1,0,0:0:0:0:
494,236,240425,2,0,P|434:221|342:211,2,123.999995231629,10|2|10,0:1|0:3|0:0,0:0:0:0:
317,275,241067,5,6,0:3:0:0:
301,285,241174,1,2,0:1:0:0:
282,286,241282,2,0,P|247:287|198:297,1,61.9999976158143,10|2,0:1|0:1,0:0:0:0:
96,384,241496,1,2,0:3:0:0:
0,192,241710,1,10,0:0:0:0:
26,293,241925,5,6,0:3:0:0:
26,293,242032,1,2,0:1:0:0:
26,293,242139,2,0,P|74:229|192:226,1,185.999992847443,12|2,0:1|0:1,0:0:0:0:
189,228,242567,2,0,P|152:176|169:121,1,123.999995231629,10|2,0:0|0:1,0:0:0:0:
232,73,242889,1,2,0:1:0:0:
250,70,242996,1,10,0:1:0:0:
480,192,243210,5,0,1:0:0:0:
480,192,243317,1,0,1:0:0:0:
480,192,243425,1,10,0:1:0:0:
426,291,243639,6,0,P|340:256|138:226,1,247.999990463257,12|8,0:1|0:1,0:0:0:0:
61,61,244282,1,12,0:0:0:0:
213,129,244496,1,0,3:0:0:0:
213,129,244603,1,8,0:0:0:0:
213,129,244710,1,12,0:1:0:0:
0,160,244925,5,8,0:0:0:0:
23,180,245032,1,8,0:0:0:0:
41,204,245139,1,10,0:0:0:0:
54,231,245246,1,8,0:0:0:0:
63,260,245353,1,8,0:0:0:0:
68,290,245460,1,8,0:0:0:0:
70,320,245567,6,0,P|109:330|148:351,1,61.9999976158143,12|0,0:1|0:0,0:0:0:0:
246,208,245782,2,0,P|217:220|187:226,1,61.9999976158143,6|0,0:3|0:1,0:0:0:0:
243,311,245996,6,0,P|282:321|321:342,1,61.9999976158143,10|0,0:0|0:0,0:0:0:0:
419,199,246211,2,0,P|390:211|360:217,1,61.9999976158143,6|2,0:3|0:1,0:0:0:0:
512,297,246425,6,0,P|432:304|414:362,1,123.999995231629,10|6,0:1|0:3,0:0:0:0:
419,366,246746,2,0,P|409:327|388:288,1,61.9999976158143,2|10,0:1|0:0,0:0:0:0:
512,96,247067,5,6,0:3:0:0:
512,96,247175,1,2,0:1:0:0:
512,96,247282,2,0,P|499:124|493:154,1,61.9999976158143,10|0,0:1|0:0,0:0:0:0:
366,58,247496,2,0,P|359:27|347:0,1,61.9999976158143,6|0,0:3|0:1,0:0:0:0:
379,158,247710,6,0,P|366:186|360:216,1,61.9999976158143,10|0,0:0|0:0,0:0:0:0:
233,120,247924,2,0,P|226:89|214:61,1,61.9999976158143,6|2,0:3|0:1,0:0:0:0:
191,212,248139,6,0,B|122:223|143:245|66:259,1,123.999995231629,10|6,0:1|0:3,0:0:0:0:
45,260,248460,2,0,P|73:272|103:278,1,61.9999976158143,2|10,0:1|0:0,0:0:0:0:
69,63,248782,5,6,0:3:0:0:
69,63,248889,1,2,0:1:0:0:
69,63,248996,2,0,P|87:127|156:132,1,123.999995231629,10|2,0:1|0:3,0:0:0:0:
357,25,249425,1,10,0:0:0:0:
242,0,249639,5,2,0:3:0:0:
253,14,249746,1,0,0:1:0:0:
262,29,249853,1,10,0:1:0:0:
270,45,249960,1,0,0:0:0:0:
276,62,250067,1,2,0:3:0:0:
256,192,250282,6,0,P|313:149|385:146,1,123.999995231629,10|6,0:0|0:3,0:0:0:0:
396,146,250603,2,0,P|304:120|162:102,1,185.999992847443,12|8,0:1|0:1,0:0:0:0:
0,128,251139,1,12,0:3:0:0:
102,208,251353,5,6,0:3:0:0:
118,226,251460,1,14,0:3:0:0:
147,236,251567,1,10,0:1:0:0:
184,230,251675,1,2,0:1:0:0:
219,205,251782,1,14,0:3:0:0:
234,158,251889,1,12,0:3:0:0:
226,98,251996,5,10,0:1:0:0:
244,156,252103,1,12,0:3:0:0:
295,201,252210,1,8,0:3:0:0:
367,218,252317,1,4,0:3:0:0:
443,191,252425,6,0,P|453:224|454:273,1,61.9999976158143,12|0,0:1|0:0,0:0:0:0:
318,351,252639,2,0,P|321:320|330:290,1,61.9999976158143,10|0,0:1|3:0,0:0:0:0:
324,115,252853,6,0,P|334:148|335:197,1,61.9999976158143,12|0,0:1|3:0,0:0:0:0:
199,275,253067,2,0,P|202:244|211:214,1,61.9999976158143,10|0,0:1|0:0,0:0:0:0:
32,32,253282,6,0,P|67:104|91:193,1,148.799989736939,12|0,0:1|0:0,0:0:0:0:
75,205,253603,2,0,P|131:140|230:149,1,148.799989736939,12|0,0:1|3:0,0:0:0:0:
352,288,253925,5,10,0:1:0:0:
352,288,254032,1,8,0:0:0:0:
352,288,254139,2,0,P|315:303|268:310,1,61.9999976158143,12|0,0:1|0:0,0:0:0:0:
156,365,254353,2,0,P|186:372|214:384,1,61.9999976158143,8|2,0:1|0:1,0:0:0:0:
356,143,254567,6,0,P|319:158|272:165,1,61.9999976158143,12|0,0:1|0:0,0:0:0:0:
160,220,254781,2,0,P|190:227|218:239,1,61.9999976158143,10|0,0:1|0:0,0:0:0:0:
425,223,254996,6,0,P|483:171|474:102,1,148.799989736939,12|0,0:1|0:0,0:0:0:0:
406,64,255317,2,0,P|331:75|234:103,1,148.799989736939,12|0,0:1|0:0,0:0:0:0:
149,159,255639,5,8,0:0:0:0:
149,159,255746,1,0,0:0:0:0:
149,159,255853,2,0,P|154:197|168:245,1,61.9999976158143,12|0,0:1|0:0,0:0:0:0:
98,72,256067,2,0,P|135:67|184:53,1,61.9999976158143,2|0,0:0|3:0,0:0:0:0:
11,123,256282,2,0,P|5:86|-9:37,1,61.9999976158143,10|0,0:0|0:0,0:0:0:0:
62,210,256496,2,0,P|24:216|-24:229,1,61.9999976158143,8|4,0:3|3:3,0:0:0:0:
149,159,256710,2,0,P|154:196|168:245,1,61.9999976158143,10|0,0:1|0:0,0:0:0:0:
73,342,256925,6,0,P|69:362|64:382,3,41.3333317438762,0|0|0|4,1:0|1:0|1:0|1:3,0:0:0:0:
73,342,257353,2,0,B|169:336|119:294|280:293,1,185.999992847443,12|0,0:1|0:0,0:0:0:0:
315,332,257782,1,10,0:1:0:0:
512,192,257996,1,12,0:0:0:0:
416,353,258210,5,0,1:0:0:0:
420,341,258317,1,8,0:0:0:0:
424,329,258425,1,8,0:1:0:0:
428,317,258532,1,0,3:0:0:0:
407,245,258639,5,8,0:0:0:0:
371,209,258746,1,8,0:0:0:0:
315,208,258853,1,8,0:3:0:0:
275,256,258960,1,8,0:3:0:0:
220,298,259067,1,12,0:1:0:0:
145,297,259175,1,2,0:0:0:0:
99,231,259282,6,0,P|79:225|30:218,3,61.9999976158143,2|2|0|0,0:0|0:0|0:0|0:0,0:0:0:0:
194,157,260139,2,0,P|214:151|263:144,3,61.9999976158143,2|0|0|0,0:0|0:0|0:0|0:0,0:0:0:0:
96,96,260996,2,0,P|76:90|27:83,3,61.9999976158143,2|0|0|2,0:0|0:0|0:0|0:0,0:0:0:0:
231,0,262067,5,0,0:0:0:0:
231,0,262282,2,0,P|225:20|218:72,1,61.9999976158143,2|0,0:0|0:0,0:0:0:0:
321,175,262719,5,2,0:0:0:0:
387,225,262960,5,0,0:0:0:0:
449,229,263202,5,0,0:0:0:0:
492,202,263452,5,0,0:0:0:0:
509,169,263729,5,2,0:0:0:0:
512,138,264044,5,2,0:0:0:0:
508,122,264441,5,0,0:0:0:0:
265,166,264892,6,0,P|260:176|251:188,1,23.2499991059303
317,104,265163,5,2,0:0:0:0:
323,105,265254,1,2,0:0:0:0:
328,102,265344,2,0,B|287:95|289:14|289:14|316:75|350:53|363:133|363:133|344:157|346:179|346:179|385:134|409:158|436:151|459:117|459:117|462:231|374:254|374:254|313:245|286:301|286:301|311:303|323:288,1,743.999971389771,2|0,0:0|0:0,0:0:0:0:
