osu file format v14

[General]
AudioFilename: audio.mp3
AudioLeadIn: 0
PreviewTime: 68032
Countdown: 0
SampleSet: Soft
StackLeniency: 0.3
Mode: 0
LetterboxInBreaks: 0
WidescreenStoryboard: 1

[Editor]
Bookmarks: 187282,194139
DistanceSpacing: 1
BeatDivisor: 8
GridSize: 8
TimelineZoom: 2.799999

[Metadata]
Title:Ura to Omote
TitleUnicode:裏と表
Artist:Tsuki no Tempest
ArtistUnicode:月のテンペスト
Creator:_kotachi_
Version:Sagu's Extra
Source:IDOLY PRIDE
Tags:obverse and reverse アイドリープライド アイプラ japanese jp pop jpop j-pop anime video game Nagase Kotono 長瀬琴乃 tachibana mirai 橘美來 Ibuki Nagisa 伊吹渚 natsume kokona 夏目ここな Shiraishi Saki 白石沙季 miyazawa koharu 宮沢小春 Narumiya Suzu 成宮すず aikawa kanata 相川奏多 Hayasaka Mei 早坂芽衣 hinata moka 日向もか -Brethia Sagu lushifer
BeatmapID:4047008
BeatmapSetID:1945793

[Difficulty]
HPDrainRate:4.5
CircleSize:4
OverallDifficulty:8.5
ApproachRate:9.3
SliderMultiplier:2.69999990463257
SliderTickRate:1

[Events]
//Background and Video events
0,0,"BG.jpg",0,0
//Break Periods
2,187481,192942
//Storyboard Layer 0 (Background)
//Storyboard Layer 1 (Fail)
//Storyboard Layer 2 (Pass)
//Storyboard Layer 3 (Foreground)
//Storyboard Layer 4 (Overlay)
//Storyboard Sound Samples

[TimingPoints]
425,428.571428571429,4,2,1,40,1,0
1175,-100,4,2,10,70,0,0
1228,-100,4,2,10,5,0,0
2139,-166.666666666667,4,2,1,50,0,0
4817,-166.666666666667,4,2,1,5,0,0
4925,-166.666666666667,4,2,1,50,0,0
8353,-166.666666666667,4,2,1,30,0,0
8567,-111.111111111111,4,2,10,70,0,0
8621,-111.111111111111,4,2,10,5,0,0
8782,-111.111111111111,4,2,10,70,0,0
8996,-111.111111111111,4,2,2,60,0,0
9210,-111.111111111111,4,2,1,60,0,0
9425,-90.9090909090908,4,2,1,60,0,0
9585,-90.9090909090908,4,2,1,5,0,0
9639,-90.9090909090908,4,2,1,60,0,0
11996,-100,4,2,1,60,0,0
12210,-111.111111111111,4,2,1,60,0,0
12425,-99.9999999999999,4,2,1,60,0,0
14139,-99.9999999999999,4,2,1,30,0,0
15853,-83.3333333333333,4,2,10,50,0,0
15907,-83.3333333333333,4,2,1,5,0,0
16925,-83.3333333333333,4,2,1,35,0,0
17139,-83.3333333333333,4,2,1,45,0,0
17353,-83.3333333333333,4,2,1,55,0,0
17567,-83.3333333333333,4,2,1,70,0,0
18425,-100,4,2,1,70,0,0
19282,-90.9090909090909,4,2,1,70,0,0
19710,-76.9230769230769,4,2,1,70,0,0
19925,-66.6666666666667,4,2,1,70,0,0
20996,-83.3333333333333,4,2,1,70,0,0
21692,-83.3333333333333,4,2,1,5,0,0
21746,-100,4,2,1,70,0,0
22710,-90.9090909090909,4,2,1,70,0,0
23782,-76.9230769230769,4,2,2,70,0,0
23835,-76.9230769230769,4,2,1,70,0,0
23942,-76.9230769230769,4,2,1,5,0,0
23996,-76.9230769230769,4,2,1,70,0,0
24425,-83.3333333333333,4,2,1,70,0,0
25121,-83.3333333333333,4,2,1,5,0,0
25175,-83.3333333333333,4,2,1,70,0,0
26996,-76.9230769230769,4,2,1,70,0,0
27853,-83.3333333333333,4,2,1,70,0,0
29353,-166.666666666667,4,2,2,70,0,0
29782,-166.666666666667,4,2,1,40,0,0
31282,-166.666666666667,4,2,1,70,0,0
32032,-166.666666666667,4,2,2,70,0,0
32085,-166.666666666667,4,2,1,5,0,0
32996,-166.666666666667,4,2,1,60,0,0
33050,-166.666666666667,4,2,1,5,0,0
33210,-100,4,2,1,60,0,0
39425,-83.3333333333333,4,2,1,60,0,0
39639,-71.4285714285714,4,2,1,60,0,0
39853,-100,4,2,1,60,0,0
43067,-83.3333333333333,4,2,1,60,0,0
43710,-100,4,2,1,60,0,0
44782,-83.3333333333333,4,2,1,60,0,0
45210,-100,4,2,1,60,0,0
46710,-76.9230769230769,4,2,1,60,0,0
47085,-76.9230769230769,4,2,1,60,0,0
47139,-76.9230769230769,4,2,1,60,0,0
47567,-90.9090909090909,4,2,1,60,0,0
47996,-76.9230769230769,4,2,1,60,0,0
49282,-90.9090909090909,4,2,1,60,0,0
50139,-100,4,2,1,60,0,0
50996,-83.3333333333333,4,2,1,60,0,0
51425,-76.9230769230769,4,2,1,60,0,0
51639,-71.4285714285714,4,2,1,60,0,0
51853,-66.6666666666667,4,2,1,60,0,0
52067,-76.9230769230769,4,2,1,60,0,0
52282,-90.9090909090909,4,2,1,60,0,0
52710,-83.3333333333333,4,2,1,60,0,0
53567,-100,4,2,2,50,0,0
53782,-100,4,2,1,50,0,0
55067,-125,4,2,1,50,0,0
55282,-100,4,2,1,50,0,0
56996,-83.3333333333333,4,2,1,50,0,0
58282,-90.9090909090909,4,2,1,50,0,0
60425,-71.4285714285714,4,2,1,60,0,0
62139,-66.6666666666667,4,2,1,60,0,0
63210,-76.9230769230769,4,2,1,60,0,0
63425,-90.9090909090909,4,2,1,60,0,0
63853,-76.9230769230769,4,2,2,70,0,0
64067,-76.9230769230769,4,2,1,70,0,0
66853,-76.9230769230769,4,2,2,70,0,0
66960,-76.9230769230769,4,2,1,70,0,0
67175,-76.9230769230769,4,2,2,70,0,0
67228,-76.9230769230769,4,2,1,5,0,0
68353,-303.030303030303,4,2,1,30,0,0
68996,-62.5,4,2,1,75,0,1
70710,-71.4285714285714,4,2,1,75,0,1
73282,-83.3333333333333,4,2,1,75,0,1
74032,-66.6666666666667,4,2,1,75,0,1
75853,-55.5555555555556,4,2,1,75,0,1
76282,-66.6666666666667,4,2,1,75,0,1
77567,-71.4285714285714,4,2,1,75,0,1
78425,-62.5,4,2,1,75,0,1
78853,-83.3333333333333,4,2,1,75,0,1
79282,-62.5,4,2,1,75,0,1
80139,-71.4285714285714,4,2,1,75,0,1
80782,-55.5555555555556,4,2,2,75,0,1
81425,-66.6666666666667,4,2,1,75,0,1
81853,-66.6666666666667,4,2,2,75,0,1
81960,-66.6666666666667,4,2,1,75,0,1
82282,-66.6666666666667,4,2,2,75,0,1
82389,-66.6666666666667,4,2,1,75,0,1
82710,-76.9230769230769,4,2,1,75,0,1
82925,-76.9230769230769,4,2,2,75,0,1
84425,-83.3333333333333,4,2,2,75,0,1
84853,-76.9230769230769,4,2,2,75,0,1
86139,-71.4285714285714,4,2,2,75,0,1
87746,-62.5,4,2,2,75,0,1
88067,-83.3333333333333,4,2,2,75,0,1
89353,-83.3333333333333,4,2,1,75,0,1
89567,-76.9230769230769,4,2,1,75,0,1
89782,-76.9230769230769,4,2,2,75,0,1
91282,-83.3333333333333,4,2,2,75,0,1
92996,-62.5,4,2,1,75,0,1
93425,-76.9230769230769,4,2,1,75,0,1
94496,-66.6666666666667,4,2,1,75,0,1
94817,-66.6666666666667,4,2,1,5,0,1
94925,-66.6666666666667,4,2,1,75,0,1
95139,-76.9230769230769,4,2,1,75,0,1
95567,-71.4285714285714,4,2,1,75,0,1
96425,-83.3333333333333,4,2,1,70,0,0
97282,-100,4,2,1,70,0,0
98139,-90.9090909090909,4,2,1,70,0,0
98567,-76.9230769230769,4,2,1,70,0,0
98782,-66.6666666666667,4,2,1,70,0,0
99853,-83.3333333333333,4,2,1,70,0,0
100550,-83.3333333333333,4,2,1,5,0,0
100603,-83.3333333333333,4,2,1,70,0,0
101567,-90.9090909090909,4,2,1,70,0,0
102210,-90.9090909090909,4,2,2,70,0,0
102639,-76.9230769230769,4,2,2,70,0,0
102692,-76.9230769230769,4,2,1,70,0,0
102800,-76.9230769230769,4,2,1,5,0,0
102853,-76.9230769230769,4,2,1,70,0,0
103282,-83.3333333333333,4,2,1,70,0,0
103978,-76.9230769230769,4,2,1,5,0,0
104032,-83.3333333333333,4,2,1,70,0,0
105853,-76.9230769230769,4,2,1,70,0,0
106710,-83.3333333333333,4,2,1,70,0,0
108210,-83.3333333333333,4,2,2,70,0,0
108639,-166.666666666667,4,2,1,30,0,0
110139,-100,4,2,1,60,0,0
116139,-100,4,2,2,60,0,0
116353,-100,4,2,1,60,0,0
116567,-83.3333333333333,4,2,1,60,0,0
116782,-71.4285714285714,4,2,1,60,0,0
116996,-100,4,2,1,60,0,0
120210,-83.3333333333333,4,2,1,60,0,0
121282,-100,4,2,1,60,0,0
121925,-90.9090909090909,4,2,1,60,0,0
122353,-100,4,2,1,60,0,0
122782,-111.111111111111,4,2,1,60,0,0
123210,-125,4,2,1,60,0,0
123425,-100,4,2,1,60,0,0
123853,-76.9230769230769,4,2,1,60,0,0
124228,-76.9230769230769,4,2,1,5,0,0
124282,-76.9230769230769,4,2,1,60,0,0
124496,-90.9090909090909,4,2,1,60,0,0
125139,-76.9230769230769,4,2,1,60,0,0
126425,-90.9090909090909,4,2,1,60,0,0
127282,-100,4,2,2,60,0,0
127496,-100,4,2,1,60,0,0
128139,-83.3333333333333,4,2,1,60,0,0
128567,-76.9230769230769,4,2,1,60,0,0
128782,-71.4285714285714,4,2,1,60,0,0
128996,-66.6666666666667,4,2,1,60,0,0
129210,-76.9230769230769,4,2,1,60,0,0
129425,-83.3333333333333,4,2,1,60,0,0
130710,-90.9090909090909,4,2,2,70,0,0
130764,-90.9090909090909,4,2,2,5,0,0
131032,-83.3333333333333,4,2,2,70,0,0
131139,-1000,4,2,2,70,0,0
131782,-1000,4,2,2,40,0,0
132210,-83.3333333333333,4,2,2,70,0,0
132532,-83.3333333333333,4,2,2,5,0,0
132639,-83.3333333333333,4,2,2,70,0,0
132746,-83.3333333333333,4,2,2,5,0,0
132853,-1000,4,2,2,70,0,0
133496,-1000,4,2,2,40,0,0
134139,-66.6666666666667,4,2,2,70,0,0
134192,-66.6666666666667,4,2,2,5,0,0
134460,-66.6666666666667,4,2,2,70,0,0
134567,-1000,4,2,2,40,0,0
135639,-71.4285714285714,4,2,2,70,0,0
135960,-71.4285714285714,4,2,2,5,0,0
136067,-71.4285714285714,4,2,2,70,0,0
136175,-71.4285714285714,4,2,2,5,0,0
136282,-500,4,2,2,70,0,0
136496,-500,4,2,2,40,0,0
136603,-500,4,2,2,40,0,0
136710,-100,4,2,1,50,0,0
137567,-71.4285714285714,4,2,1,60,0,0
139282,-66.6666666666667,4,2,1,60,0,0
140353,-76.9230769230769,4,2,1,60,0,0
140567,-90.9090909090909,4,2,1,60,0,0
140782,-111.111111111111,4,2,1,60,0,0
140996,-76.9230769230769,4,2,1,70,0,0
144317,-76.9230769230769,4,2,2,70,0,0
144371,-76.9230769230769,4,2,1,5,0,0
145496,-76.9230769230769,4,2,1,40,0,0
145710,-500,4,2,1,50,0,0
146139,-62.5,4,2,1,75,0,1
147853,-71.4285714285714,4,2,1,75,0,1
149567,-71.4285714285714,4,2,2,75,0,1
149782,-71.4285714285714,4,2,1,75,0,1
151175,-66.6666666666667,4,2,1,75,0,1
152139,-66.6666666666667,4,2,2,75,0,1
152246,-66.6666666666667,4,2,1,75,0,1
152996,-62.5,4,2,1,75,0,1
154710,-71.4285714285714,4,2,1,75,0,1
155567,-62.5,4,2,1,75,0,1
155996,-71.4285714285714,4,2,1,75,0,1
156425,-62.5,4,2,1,75,0,1
157282,-71.4285714285714,4,2,1,75,0,1
157925,-55.5555555555556,4,2,2,75,0,1
158246,-55.5555555555556,4,2,1,75,0,1
158353,-76.9230769230769,4,2,1,75,0,1
158567,-66.6666666666667,4,2,1,75,0,1
158996,-66.6666666666667,4,2,2,75,0,1
159103,-66.6666666666667,4,2,1,75,0,1
159425,-66.6666666666667,4,2,2,75,0,1
159532,-66.6666666666667,4,2,1,75,0,1
159853,-76.9230769230769,4,2,2,75,0,1
161567,-83.3333333333333,4,2,2,75,0,1
161996,-76.9230769230769,4,2,2,75,0,1
163282,-71.4285714285714,4,2,2,75,0,1
164889,-62.5,4,2,2,75,0,1
165210,-83.3333333333333,4,2,2,75,0,1
166496,-83.3333333333333,4,2,1,75,0,1
166710,-76.9230769230769,4,2,2,75,0,1
168425,-76.9230769230769,4,2,2,75,0,1
169282,-83.3333333333333,4,2,2,75,0,1
170139,-62.5,4,2,1,75,0,1
170782,-76.9230769230769,4,2,1,75,0,1
171639,-62.5,4,2,1,75,0,1
171960,-62.5,4,2,1,5,0,1
172067,-62.5,4,2,1,75,0,1
173567,-100,4,2,1,70,0,0
173675,-100,4,2,2,70,0,0
176996,-83.3333333333333,4,2,2,70,0,0
179782,-83.3333333333333,4,2,1,70,0,0
180103,-83.3333333333333,4,2,2,70,0,0
180425,-100,4,2,1,70,0,0
180532,-100,4,2,2,70,0,0
183853,-83.3333333333333,4,2,2,70,0,0
185139,-83.3333333333333,4,2,1,70,0,0
185567,-83.3333333333333,4,2,2,70,0,0
185675,-83.3333333333333,4,2,1,70,0,0
187282,-83.3333333333333,4,2,1,30,0,0
193496,-83.3333333333333,4,2,1,30,0,0
193710,-250,4,2,10,70,0,0
194032,-83.3333333333333,4,2,10,5,0,0
194139,-111.111111111111,4,2,1,60,0,0
194567,-99.9999999999999,4,2,1,60,0,0
194728,-99.9999999999999,4,2,1,5,0,0
194782,-99.9999999999999,4,2,1,60,0,0
194996,-99.9999999999999,4,2,1,60,0,0
196925,-90.9090909090909,4,2,1,60,0,0
197139,-100,4,2,1,60,0,0
197353,-111.111111111111,4,2,1,60,0,0
197567,-100,4,2,1,60,0,0
198853,-100,4,2,2,60,0,0
199067,-111.111111111111,4,2,2,60,0,0
199282,-111.111111111111,4,2,1,50,0,0
200996,-111.111111111111,4,2,1,5,0,0
202496,-166.666666666666,4,2,1,35,0,0
202603,-166.666666666666,4,2,1,5,0,0
202710,-125,4,2,1,50,0,0
202817,-125,4,2,1,5,0,0
202925,-99.9999999999998,4,2,1,40,0,0
203032,-99.9999999999998,4,2,1,5,0,0
203139,-83.3333333333333,4,2,1,60,0,0
203246,-83.3333333333333,4,2,1,5,0,0
203353,-71.4285714285714,4,2,1,50,0,0
203460,-71.4285714285714,4,2,1,5,0,0
203567,-62.5,4,2,1,70,0,0
203594,-62.5,4,2,1,30,0,0
203728,-62.5,4,2,1,40,0,0
203782,-76.9230769230769,4,2,1,40,0,0
203996,-76.9230769230769,4,2,1,50,0,0
204210,-76.9230769230769,4,2,1,60,0,0
204425,-62.5,4,2,1,75,0,1
206139,-71.4285714285714,4,2,1,75,0,1
207853,-71.4285714285714,4,2,2,75,0,1
207960,-71.4285714285714,4,2,1,75,0,1
209460,-66.6666666666667,4,2,1,75,0,1
211282,-62.5,4,2,1,75,0,1
211710,-71.4285714285714,4,2,1,75,0,1
213853,-62.5,4,2,1,75,0,1
214282,-83.3333333333333,4,2,1,75,0,1
214496,-62.5,4,2,2,75,0,1
214817,-62.5,4,2,2,5,0,1
214925,-125,4,2,2,75,0,1
215139,-100,4,2,2,75,0,1
215246,-100,4,2,2,5,0,1
215353,-83.3333333333333,4,2,2,75,0,1
215460,-83.3333333333333,4,2,2,5,0,1
215567,-71.4285714285714,4,2,2,75,0,1
215675,-71.4285714285714,4,2,2,5,0,1
215782,-62.5,4,2,2,75,0,1
215996,-83.3333333333333,4,2,2,75,0,1
216210,-55.5555555555556,4,2,1,75,0,1
216692,-55.5555555555556,4,2,1,5,0,1
216746,-55.5555555555556,4,2,1,75,0,1
216853,-55.5555555555556,4,2,1,75,0,1
217175,-55.5555555555556,4,2,1,75,0,1
217282,-76.9230769230769,4,2,1,75,0,1
217710,-76.9230769230769,4,2,2,75,0,1
217925,-76.9230769230769,4,2,1,75,0,1
218139,-76.9230769230769,4,2,2,75,0,1
219853,-83.3333333333333,4,2,2,75,0,1
220282,-76.9230769230769,4,2,2,75,0,1
221567,-71.4285714285714,4,2,2,75,0,1
223175,-62.5,4,2,2,75,0,1
223496,-83.3333333333333,4,2,2,75,0,1
224996,-76.9230769230769,4,2,1,75,0,1
225210,-76.9230769230769,4,2,2,75,0,1
226710,-83.3333333333333,4,2,2,75,0,1
228425,-62.5,4,2,1,75,0,1
228853,-76.9230769230769,4,2,1,75,0,1
229925,-66.6666666666667,4,2,1,75,0,1
230567,-76.9230769230769,4,2,1,75,0,1
230996,-71.4285714285714,4,2,1,75,0,1
231853,-76.9230769230769,4,2,1,70,0,0
232067,-76.9230769230769,4,2,2,70,0,0
232710,-71.4285714285714,4,2,2,70,0,0
233567,-83.3333333333333,4,2,2,70,0,0
235282,-76.9230769230769,4,2,2,70,0,0
236139,-90.9090909090909,4,2,2,70,0,0
236889,-76.9230769230769,4,2,2,70,0,0
237103,-76.9230769230769,4,2,2,5,0,0
237210,-76.9230769230769,4,2,2,70,0,0
238496,-76.9230769230769,4,2,1,70,0,0
238710,-71.4285714285714,4,2,1,80,0,0
238817,-71.4285714285714,4,2,2,80,0,0
239139,-83.3333333333333,4,2,2,80,0,0
239567,-76.9230769230769,4,2,2,80,0,0
239996,-90.9090909090909,4,2,2,80,0,0
240425,-83.3333333333333,4,2,2,70,0,0
243639,-66.6666666666667,4,2,2,70,0,0
243960,-66.6666666666667,4,2,2,5,0,0
244067,-66.6666666666667,4,2,2,70,0,0
244282,-71.4285714285714,4,2,2,70,0,0
244710,-83.3333333333333,4,2,2,70,0,0
245353,-83.3333333333333,4,2,1,70,0,0
245567,-76.9230769230769,4,2,2,70,0,0
247282,-76.9230769230769,4,2,2,70,0,0
248139,-83.3333333333333,4,2,2,70,0,0
248996,-76.9230769230769,4,2,2,70,0,0
250603,-71.4285714285714,4,2,2,70,0,0
252210,-71.4285714285714,4,2,1,70,0,0
252425,-76.9230769230769,4,2,1,70,0,0
252532,-76.9230769230769,4,2,2,70,0,0
254139,-83.3333333333333,4,2,1,70,0,0
254246,-83.3333333333333,4,2,2,70,0,0
255853,-71.4285714285714,4,2,1,70,0,0
256282,-100,4,2,1,70,0,0
256496,-83.3333333333333,4,2,1,70,0,0
256710,-71.4285714285714,4,2,1,70,0,0
256925,-62.5,4,2,1,70,0,0
257139,-55.5555555555556,4,2,1,70,0,0
257353,-66.6666666666667,4,2,1,70,0,0
257782,-66.6666666666667,4,2,1,70,0,0
257996,-76.9230769230769,4,2,1,70,0,0
258425,-71.4285714285714,4,2,1,70,0,0
259175,-71.4285714285714,4,2,1,50,0,0
259282,-200,4,2,1,40,0,0
260139,-250,4,2,1,40,0,0
262282,437.956204379562,4,2,1,40,1,0
262500,-333.333333333333,4,2,1,40,0,0
262719,483.870967741935,4,2,1,40,1,0
263452,555.555555555556,4,2,1,40,1,0
263729,631.578947368421,4,2,1,40,1,0
264441,722.89156626506,4,2,1,40,1,0
264802,-100,4,2,1,5,0,0
264892,-100,4,2,1,40,0,0
265344,-500,4,2,1,50,0,0
265434,-500,4,2,1,5,0,0

[Colours]
Combo1 : 255,83,83
Combo2 : 109,185,254
Combo3 : 254,122,182
Combo4 : 62,253,205
Combo5 : 255,255,55

[HitObjects]
327,361,425,5,2,0:0:0:0:
344,312,532,1,2,0:0:0:0:
305,278,639,1,0,0:0:0:0:
288,284,746,1,2,0:0:0:0:
210,274,853,5,2,0:0:0:0:
170,241,960,1,2,0:0:0:0:
188,192,1067,1,0,0:0:0:0:
256,141,1175,6,0,L|268:78,1,33.7499988079071,6|0,0:0|0:0,0:0:0:0:
237,27,2139,5,2,0:0:0:0:
427,52,2567,6,0,B|403:44|403:44|356:66|376:126,1,121.49999200058
300,153,2996,2,0,P|364:171|441:215,1,121.49999200058,2|0,0:0|0:0,0:0:0:0:
473,142,3425,6,0,P|491:131|519:120,2,40.4999973335267
413,195,3746,1,0,0:0:0:0:
414,208,3853,1,2,0:0:0:0:
462,293,4067,1,0,0:0:0:0:
387,352,4282,1,0,0:0:0:0:
247,248,4496,2,0,B|183:261|213:308|115:317,1,121.49999200058,2|0,0:0|0:0,0:0:0:0:
134,306,4925,6,0,P|145:344|154:392,1,80.9999946670534,0|2,0:0|0:0,0:0:0:0:
318,298,5353,2,0,P|326:258|337:219,2,80.9999946670534,0|0|2,0:0|0:0|0:0,0:0:0:0:
144,210,5996,5,2,0:0:0:0:
272,168,6210,1,2,0:0:0:0:
272,168,6317,1,0,0:0:0:0:
272,168,6425,1,2,0:0:0:0:
162,119,6639,1,0,0:0:0:0:
223,65,6853,1,2,0:0:0:0:
186,0,7067,1,2,0:0:0:0:
58,76,7282,6,0,P|68:115|73:159,2,80.9999946670534,2|0|2,0:0|0:0|0:0,0:0:0:0:
43,228,7925,2,0,B|123:196|84:181|202:145,1,161.999989334107,2|2,0:0|0:0,0:0:0:0:
182,158,8460,5,0,0:0:0:0:
181,164,8567,2,0,P|150:152|127:147,1,30.374998000145,2|0,0:3|0:0,0:0:0:0:
115,278,8782,1,0,0:0:0:0:
254,373,8996,5,12,0:1:0:0:
410,289,9210,2,0,P|425:237|439:209,1,60.7499960002901,2|0,0:3|0:0,0:0:0:0:
430,367,9425,2,0,P|384:331|312:330,1,111.374999464989,10|0,0:1|0:0,0:0:0:0:
323,316,9639,2,0,P|288:292|295:245,1,74.2499996433258,2|0,0:3|0:0,0:0:0:0:
382,106,9853,5,10,0:1:0:0:
255,190,10067,2,0,P|297:179|335:173,1,74.2499996433258,2|2,0:3|0:0,0:0:0:0:
484,86,10282,2,0,P|412:69|345:30,1,148.499999286652,10|2,0:1|0:3,0:0:0:0:
243,26,10603,5,2,0:0:0:0:
254,29,10710,2,0,P|271:69|278:110,1,74.2499996433258,10|0,0:1|0:0,0:0:0:0:
416,229,10925,2,0,P|424:192|440:158,1,74.2499996433258,2|0,0:3|0:0,0:0:0:0:
195,256,11139,2,0,P|137:226|147:148,1,148.499999286652,10|2,0:1|0:3,0:0:0:0:
153,141,11460,1,0,0:0:0:0:
168,136,11567,1,8,0:1:0:0:
469,305,11782,6,0,P|440:326|417:355,1,74.2499996433258,2|0,0:3|0:0,0:0:0:0:
328,189,11996,2,0,P|323:225|327:262,1,67.4999976158142,10|0,0:1|0:0,0:0:0:0:
180,264,12210,2,0,P|202:293|231:316,1,60.7499960002901,2|0,0:3|0:0,0:0:0:0:
232,187,12425,6,0,P|183:169|164:150,1,67.4999976158142,10|0,0:1|0:0,0:0:0:0:
166,151,12639,1,2,0:3:0:0:
162,141,12746,1,2,0:0:0:0:
107,212,12853,6,0,P|58:230|39:249,1,67.4999976158142,10|0,0:1|0:0,0:0:0:0:
41,248,13067,1,2,0:3:0:0:
37,258,13175,1,2,0:0:0:0:
75,135,13282,6,0,B|52:64|30:96|9:13,1,134.999995231628,10|2,0:1|0:3,0:0:0:0:
188,64,13603,1,0,0:0:0:0:
180,75,13710,2,0,P|168:113|160:155,1,67.4999976158142,10|0,0:1|0:0,0:0:0:0:
8,197,13925,2,0,P|26:232|41:272,1,67.4999976158142,2|0,0:3|0:0,0:0:0:0:
36,336,14139,5,2,0:0:0:0:
57,356,14353,1,0,0:0:0:0:
118,369,14567,1,0,0:0:0:0:
187,337,14782,1,0,0:0:0:0:
458,174,15210,5,2,0:0:0:0:
384,143,15425,1,2,0:0:0:0:
340,60,15639,5,2,0:0:0:0:
338,53,15710,5,2,0:0:0:0:
336,47,15782,5,2,0:0:0:0:
335,39,15853,6,0,P|335:18|340:0,1,40.4999973335267,2|0,0:0|0:0,0:0:0:0:
320,350,16925,5,2,0:0:0:0:
313,339,17032,1,2,0:0:0:0:
289,318,17139,1,2,0:0:0:0:
239,315,17246,1,2,0:0:0:0:
183,347,17353,1,2,0:0:0:0:
104,344,17460,1,2,0:0:0:0:
47,265,17567,6,0,P|41:220|23:161,1,80.9999946670534,12|0,0:1|0:0,0:0:0:0:
74,18,17782,1,2,0:0:0:0:
67,27,17889,1,10,0:1:0:0:
135,76,17996,1,8,0:0:0:0:
212,40,18103,2,0,P|173:43|138:64,1,80.9999946670534,2|2,0:0|0:0,0:0:0:0:
56,108,18317,1,8,0:1:0:0:
209,191,18425,6,0,P|204:158|198:125,1,67.4999976158142,2|8,0:0|0:0,0:0:0:0:
370,66,18639,2,0,P|375:25|383:-14,1,67.4999976158142,10|2,0:1|0:0,0:0:0:0:
284,102,18853,1,10,0:0:0:0:
356,157,18960,2,0,P|388:145|421:138,1,67.4999976158142,0|10,0:0|0:1,0:0:0:0:
216,285,19175,1,0,3:0:0:0:
206,274,19282,2,0,P|170:262|108:253,1,74.2499996433258,10|0,0:1|0:0,0:0:0:0:
280,333,19496,6,0,P|304:292|275:255,1,74.2499996433258,2|8,0:0|0:1,0:0:0:0:
462,271,19710,6,0,P|436:225|385:232,1,87.7499928836826,10|0,0:0|0:0,0:0:0:0:
369,68,19925,6,0,P|311:67|290:120,1,101.250000286102,2|8,3:2|0:1,0:0:0:0:
109,82,20139,5,2,0:0:0:0:
99,140,20246,1,10,0:0:0:0:
130,190,20353,1,10,0:1:0:0:
187,208,20460,1,2,0:0:0:0:
241,184,20567,5,10,0:0:0:0:
204,173,20675,1,2,0:0:0:0:
167,189,20782,1,10,0:1:0:0:
149,224,20889,1,0,3:0:0:0:
157,262,20996,6,0,B|191:275|180:298|221:314,1,80.9999946670534,10|0,0:1|0:0,0:0:0:0:
370,345,21210,1,2,0:0:0:0:
304,299,21317,2,0,P|311:259|329:223,1,80.9999946670534,10|8,0:1|0:0,0:0:0:0:
483,196,21532,2,0,P|470:126|444:60,1,121.49999200058,2|0,0:0|0:0,0:0:0:0:
440,62,21746,2,0,B|428:24|428:24|460:-3,1,67.4999976158142,10|0,0:1|0:0,0:0:0:0:
509,273,21960,5,8,0:0:0:0:
461,290,22067,1,10,0:1:0:0:
425,254,22175,1,2,0:0:0:0:
397,176,22282,5,8,0:0:0:0:
343,148,22389,1,2,0:0:0:0:
268,181,22496,5,10,0:1:0:0:
235,187,22603,1,0,0:0:0:0:
158,154,22710,5,8,0:1:0:0:
153,142,22817,2,0,P|160:113|171:91,2,37.1249998216629,2|2|2,0:0|0:0|0:0,0:0:0:0:
338,280,23032,5,10,0:1:0:0:
343,268,23139,2,0,P|336:239|325:217,2,37.1249998216629,10|0|2,0:0|0:0|0:0,0:0:0:0:
178,364,23353,5,10,0:1:0:0:
173,352,23460,2,0,P|180:323|191:301,2,37.1249998216629,10|0|2,0:1|0:0|0:0,0:0:0:0:
38,230,23675,5,8,0:0:0:0:
2,305,23782,2,0,P|52:274|145:248,1,131.624989325524,14|0,0:1|0:0,0:0:0:0:
137,243,23996,5,10,0:0:0:0:
171,237,24103,1,8,0:0:0:0:
216,211,24210,1,8,0:3:0:0:
248,141,24317,1,4,0:3:0:0:
227,63,24425,5,12,0:1:0:0:
326,159,24532,2,0,P|370:143|425:132,1,80.9999946670534,2|2,0:0|0:0,0:0:0:0:
260,267,24746,2,0,P|216:251|161:240,1,80.9999946670534,10|8,0:1|0:0,0:0:0:0:
381,356,24960,2,0,P|443:336|446:271,1,121.49999200058,2|0,0:0|0:0,0:0:0:0:
457,279,25175,2,0,P|467:320|482:372,1,80.9999946670534,8|0,0:1|0:0,0:0:0:0:
365,272,25389,5,10,0:0:0:0:
357,251,25496,1,8,0:1:0:0:
373,232,25603,1,2,0:0:0:0:
451,200,25710,5,8,0:0:0:0:
458,179,25817,1,2,0:0:0:0:
403,123,25925,5,8,0:1:0:0:
399,100,26032,1,2,0:0:0:0:
435,32,26139,5,8,0:1:0:0:
428,21,26246,1,2,0:0:0:0:
377,6,26353,1,0,3:0:0:0:
339,43,26460,1,10,0:1:0:0:
316,118,26567,5,8,0:0:0:0:
266,130,26675,1,2,0:0:0:0:
229,93,26782,1,0,3:0:0:0:
234,81,26889,1,10,0:1:0:0:
149,116,26996,6,0,P|164:158|174:202,1,87.7499928836826,2|0,0:0|3:0,0:0:0:0:
328,287,27210,2,0,P|339:244|352:202,1,87.7499928836826,10|2,0:1|0:0,0:0:0:0:
247,252,27425,5,10,0:0:0:0:
237,269,27532,1,2,0:0:0:0:
162,293,27639,5,10,0:1:0:0:
152,276,27746,1,2,0:0:0:0:
91,224,27853,6,0,P|65:255|85:301,1,80.9999946670534,12|0,0:1|0:0,0:0:0:0:
223,351,28067,2,0,P|249:320|229:274,1,80.9999946670534,2|8,0:0|0:1,0:0:0:0:
58,144,28282,5,8,0:0:0:0:
50,106,28389,1,2,0:0:0:0:
72,58,28496,1,2,0:0:0:0:
134,32,28603,1,8,0:0:0:0:
208,62,28710,5,10,0:1:0:0:
213,86,28817,1,0,3:0:0:0:
257,118,28925,1,10,0:0:0:0:
328,93,29032,1,10,0:0:0:0:
343,20,29139,5,8,0:3:0:0:
316,96,29246,1,4,0:3:0:0:
381,143,29353,1,12,0:1:0:0:
478,18,29782,5,2,0:0:0:0:
461,38,29889,1,2,0:0:0:0:
440,55,29996,1,2,0:0:0:0:
416,66,30103,1,2,0:0:0:0:
358,215,30317,5,2,0:0:0:0:
202,183,30532,5,2,0:0:0:0:
176,187,30639,2,0,P|156:197|142:210,1,40.4999973335267,2|0,0:0|0:0,0:0:0:0:
83,320,30853,6,0,P|41:354|0:357,1,80.9999946670534,2|2,0:0|0:0,0:0:0:0:
226,37,31282,5,2,0:0:0:0:
287,90,31389,1,2,0:0:0:0:
237,149,31496,1,2,0:0:0:0:
274,196,31603,1,2,0:0:0:0:
247,241,31710,1,2,0:0:0:0:
265,271,31817,1,2,0:0:0:0:
254,289,31925,1,2,0:0:0:0:
256,324,32032,6,0,L|256:352,1,20.2499986667634,12|0,0:1|0:0,0:0:0:0:
256,344,32996,6,0,L|256:324,1,20.2499986667634,12|0,0:1|0:0,0:0:0:0:
440,223,33210,5,2,0:0:0:0:
445,251,33317,1,2,0:0:0:0:
423,267,33425,2,0,B|354:239|388:213|303:182,1,134.999995231628,10|2,0:1|0:0,0:0:0:0:
258,240,33746,1,2,0:0:0:0:
245,241,33853,2,0,P|223:243|175:265,2,67.4999976158142,8|0|0,0:1|0:0|0:0,0:0:0:0:
424,137,34175,5,2,0:0:0:0:
432,123,34282,2,0,P|484:106|517:106,1,67.4999976158142,8|0,0:1|0:0,0:0:0:0:
340,16,34496,2,0,P|392:33|425:33,1,67.4999976158142,2|0,0:0|0:0,0:0:0:0:
225,84,34710,6,0,P|152:72|156:2,1,134.999995231628,10|2,0:1|0:0,0:0:0:0:
320,108,35032,1,0,0:0:0:0:
310,114,35139,2,0,P|298:149|293:187,1,67.4999976158142,10|0,0:1|0:0,0:0:0:0:
119,224,35353,1,2,0:0:0:0:
149,192,35460,1,2,0:0:0:0:
192,200,35567,2,0,P|216:262|232:351,1,134.999995231628,8|2,0:1|0:0,0:0:0:0:
375,282,35889,5,0,0:0:0:0:
363,287,35996,2,0,P|326:282|294:259,1,67.4999976158142,8|0,0:1|0:0,0:0:0:0:
220,338,36210,2,0,P|183:343|151:366,1,67.4999976158142,2|0,0:0|0:0,0:0:0:0:
32,200,36425,6,0,P|-16:134|11:79,1,134.999995231628,10|0,0:1|0:0,0:0:0:0:
108,152,36746,1,2,0:0:0:0:
126,146,36853,2,0,P|156:134|198:121,2,67.4999976158142,8|0|2,0:1|0:0|0:0,0:0:0:0:
49,0,37175,5,0,0:0:0:0:
65,5,37282,2,0,P|74:38|79:72,2,67.4999976158142,10|0|0,0:1|0:0|0:0,0:0:0:0:
263,183,37603,2,0,P|269:149|277:116,2,67.4999976158142,2|8|0,2:0|2:1|2:0,0:0:0:0:
103,249,37925,5,2,0:0:0:0:
103,249,38032,1,0,0:0:0:0:
175,205,38139,2,0,B|262:208|219:258|319:265,1,134.999995231628,8|2,0:1|0:0,0:0:0:0:
88,332,38460,1,0,0:0:0:0:
77,325,38567,2,0,P|40:335|5:354,1,67.4999976158142,8|0,0:1|0:0,0:0:0:0:
169,359,38782,2,0,P|184:316|165:279,1,67.4999976158142,2|0,0:0|0:0,0:0:0:0:
175,205,38996,5,10,0:1:0:0:
175,205,39103,1,0,0:0:0:0:
98,159,39210,6,0,P|95:110|130:80,1,67.4999976158142,2|2,0:0|0:0,0:0:0:0:
200,94,39425,6,0,P|222:50|268:41,1,80.9999946670534,10|0,0:1|0:0,0:0:0:0:
352,141,39639,6,0,P|393:113|437:129,1,94.499993778229,2|2,0:0|0:0,0:0:0:0:
421,310,39853,6,0,P|414:348|407:389,1,67.4999976158142,8|0,0:1|0:0,0:0:0:0:
278,209,40067,5,2,0:0:0:0:
267,249,40175,1,2,0:0:0:0:
300,274,40282,2,0,B|383:263|339:222|436:213,1,134.999995231628,10|0,0:1|0:0,0:0:0:0:
313,359,40603,1,2,0:0:0:0:
303,365,40710,2,0,P|268:350|234:341,2,67.4999976158142,8|0|0,0:1|0:0|0:0,0:0:0:0:
41,283,41032,5,2,0:0:0:0:
60,291,41139,2,0,P|71:322|79:384,1,67.4999976158142,10|0,0:1|0:0,0:0:0:0:
191,218,41353,2,0,P|180:249|172:311,1,67.4999976158142,2|0,0:0|0:0,0:0:0:0:
96,203,41567,6,0,B|81:124|51:161|27:62,1,134.999995231628,10|2,0:1|0:0,0:0:0:0:
103,35,41889,1,0,0:0:0:0:
99,18,41996,2,0,P|75:0|24:7,1,67.4999976158142,10|0,0:1|0:0,0:0:0:0:
170,138,42210,5,0,0:0:0:0:
159,107,42317,1,2,0:0:0:0:
165,78,42425,2,0,P|213:32|295:31,1,134.999995231628,8|2,0:1|0:0,0:0:0:0:
274,189,42746,1,0,0:0:0:0:
263,174,42853,2,0,P|261:150|292:96,1,67.4999976158142,8|0,0:1|0:0,0:0:0:0:
418,127,43067,2,0,P|378:110|362:76,1,80.9999946670534,2|0,0:0|0:0,0:0:0:0:
476,49,43282,6,0,P|452:146|439:245,1,161.999989334107,8|2,0:1|0:0,0:0:0:0:
433,348,43603,1,0,0:0:0:0:
448,343,43710,2,0,P|469:330|467:257,1,67.4999976158142,8|2,0:1|0:0,0:0:0:0:
356,204,43925,2,0,P|335:217|337:290,1,67.4999976158142,0|2,0:0|0:0,0:0:0:0:
336,349,44139,6,0,P|292:333|243:321,2,67.4999976158142,10|0|0,0:1|0:0|0:0,0:0:0:0:
167,178,44460,2,0,P|200:168|231:156,2,67.4999976158142,2|8|0,0:0|0:1|0:0,0:0:0:0:
226,255,44782,5,2,0:0:0:0:
164,306,44889,1,0,0:0:0:0:
89,276,44996,2,0,P|71:250|83:195,1,80.9999946670534,8|0,0:1|0:0,0:0:0:0:
219,36,45210,5,2,0:0:0:0:
282,58,45317,1,0,0:0:0:0:
290,125,45425,2,0,P|279:148|235:162,1,67.4999976158142,8|0,0:1|0:0,0:0:0:0:
116,114,45639,5,2,0:0:0:0:
160,183,45746,1,0,0:0:0:0:
105,104,45853,2,0,P|121:45|131:11,1,67.4999976158142,10|0,0:1|0:0,0:0:0:0:
246,180,46067,2,0,P|230:239|220:273,1,67.4999976158142,2|0,0:0|0:0,0:0:0:0:
174,358,46282,5,8,0:0:0:0:
210,325,46389,1,8,0:0:0:0:
263,330,46496,1,8,0:3:0:0:
316,270,46603,1,4,0:3:0:0:
397,281,46710,6,0,P|441:267|501:253,1,87.7499928836826,12|0,0:1|0:0,0:0:0:0:
335,184,46925,2,0,B|321:121|293:141|284:55,1,131.624989325524
288,50,47139,6,0,P|295:89|248:123,1,87.7499928836826,10|0,0:0|0:0,0:0:0:0:
388,26,47353,1,0,0:0:0:0:
388,26,47460,1,0,3:0:0:0:
464,60,47567,2,0,P|422:51|381:35,1,74.2499996433258,10|0,0:1|0:0,0:0:0:0:
335,184,47782,2,0,P|293:192|252:208,1,74.2499996433258,2|0,0:0|0:0,0:0:0:0:
417,197,47996,2,0,P|424:157|377:124,1,87.7499928836826,10|0,0:0|0:0,0:0:0:0:
217,282,48210,5,2,0:0:0:0:
217,282,48317,1,0,3:0:0:0:
142,237,48425,2,0,P|223:245|316:309,1,175.499985767365,8|2,0:1|0:0,0:0:0:0:
107,311,48746,1,0,3:0:0:0:
89,316,48853,2,0,P|51:285|67:231,1,87.7499928836826,8|0,0:0|0:0,0:0:0:0:
93,77,49067,5,2,0:0:0:0:
93,77,49175,1,0,3:0:0:0:
17,33,49282,2,0,B|15:70|15:70|56:103,1,74.2499996433258,8|0,0:1|0:0,0:0:0:0:
170,41,49496,2,0,B|139:20|139:20|90:39,1,74.2499996433258,2|0,0:0|3:0,0:0:0:0:
86,170,49710,2,0,B|120:153|120:153|128:101,1,74.2499996433258,8|0,0:0|0:0,0:0:0:0:
252,18,49925,5,2,0:0:0:0:
252,18,50032,1,0,3:1:0:0:
294,86,50139,2,0,P|273:149|250:261,1,134.999995231628,12|2,0:1|0:0,0:0:0:0:
253,230,50460,1,0,3:0:0:0:
159,224,50567,2,0,P|180:287|203:399,1,134.999995231628,8|2,0:0|0:0,0:0:0:0:
200,368,50889,1,0,0:0:0:0:
274,319,50996,5,8,0:1:0:0:
279,314,51103,1,0,0:0:0:0:
340,259,51210,6,0,P|387:276|401:320,1,80.9999946670534,2|0,0:0|0:0,0:0:0:0:
476,278,51425,2,0,P|485:327|454:361,1,87.7499928836826,8|0,0:0|0:0,0:0:0:0:
321,176,51639,6,0,P|313:126|344:92,1,94.499993778229,2|0,0:0|3:0,0:0:0:0:
281,42,51853,2,0,P|321:8|368:18,1,101.250000286102,8|0,0:1|0:0,0:0:0:0:
253,230,52067,6,0,P|215:262|170:252,1,87.7499928836826,2|0,0:0|0:0,0:0:0:0:
166,337,52282,2,0,P|119:320|105:275,1,74.2499996433258,12|0,0:0|0:0,0:0:0:0:
115,110,52496,5,0,3:0:0:0:
115,110,52603,1,8,0:0:0:0:
28,142,52710,2,0,B|100:157|100:157|109:154|109:154|198:175,1,161.999989334107,8|8,0:1|0:0,0:0:0:0:
281,325,53139,5,8,0:3:0:0:
321,317,53246,1,8,0:3:0:0:
361,309,53353,1,4,0:3:0:0:
401,301,53460,1,4,0:3:0:0:
464,355,53567,6,0,B|485:267|509:329|521:203,1,134.999995231628,12|2,0:1|0:0,0:0:0:0:
416,151,53996,2,0,P|436:217|436:240,2,67.4999976158142,8|0|2,0:1|0:0|0:0,0:0:0:0:
454,80,54425,5,8,0:1:0:0:
336,151,54639,1,2,0:0:0:0:
214,85,54853,1,8,0:0:0:0:
332,13,55067,6,0,P|309:62|304:100,1,53.9999980926514,2|0,0:0|0:0,0:0:0:0:
245,164,55282,2,0,B|166:145|211:108|68:91,1,134.999995231628,8|2,0:1|0:0,0:0:0:0:
40,139,55710,1,8,0:1:0:0:
81,280,55925,6,0,P|106:250|101:212,1,67.4999976158142,2|0,0:0|0:0,0:0:0:0:
20,223,56139,2,0,P|34:297|47:374,1,134.999995231628,8|2,0:1|0:0,0:0:0:0:
128,358,56460,1,0,0:0:0:0:
135,347,56567,2,0,P|170:335|205:331,1,67.4999976158142,8|0,0:0|0:0,0:0:0:0:
195,237,56782,2,0,P|230:249|265:253,1,67.4999976158142,2|0,0:0|0:0,0:0:0:0:
317,343,56996,6,0,P|419:336|419:207,1,242.99998400116,8|0,0:1|0:0,0:0:0:0:
417,201,57425,1,8,0:1:0:0:
310,77,57639,6,0,P|335:36|388:34,1,80.9999946670534,2|0,0:0|0:0,0:0:0:0:
341,264,57853,2,0,P|354:207|391:101,1,161.999989334107,8|2,0:1|0:0,0:0:0:0:
440,0,58282,1,8,0:0:0:0:
474,140,58496,6,0,P|419:124|390:101,1,74.2499996433258,12|0,0:0|0:0,0:0:0:0:
290,155,58710,2,0,B|204:174|251:218|134:240,2,148.499999286652,8|2|8,0:1|0:0|0:1,0:0:0:0:
451,364,59353,6,0,P|441:328|416:287,1,74.2499996433258,2|0,0:0|0:0,0:0:0:0:
335,233,59567,5,10,0:1:0:0:
343,240,59675,1,2,0:0:0:0:
349,258,59782,1,2,0:0:0:0:
337,285,59889,1,2,0:0:0:0:
305,302,59996,1,10,0:1:0:0:
263,296,60103,1,10,0:0:0:0:
204,283,60210,1,8,0:3:0:0:
150,309,60317,1,4,0:3:0:0:
121,378,60425,6,0,B|113:251|76:328|47:160,1,188.999987556458,12|2,0:1|0:3,0:0:0:0:
8,115,60746,1,0,0:0:0:0:
0,127,60853,2,0,P|0:167|47:194,1,94.499993778229,10|0,0:0|0:0,0:0:0:0:
165,54,61067,5,2,0:3:0:0:
165,54,61175,1,0,0:3:0:0:
89,117,61282,2,0,P|145:132|184:155,1,94.499993778229,10|2,0:1|0:0,0:3:0:0:
328,43,61496,2,0,P|272:28|233:5,1,94.499993778229,2|2,0:3|0:0,0:0:0:0:
227,0,61710,1,8,0:0:0:0:
259,293,61925,6,0,P|309:269|308:218,1,94.499993778229,12|0,0:0|0:0,0:0:0:0:
248,185,62139,2,0,P|297:283|308:383,1,202.500000572205,8|2,0:1|0:3,0:0:0:0:
323,144,62460,1,0,0:0:0:0:
340,135,62567,2,0,P|390:159|389:210,1,101.250000286102,10|0,0:0|0:0,0:0:0:0:
221,373,62782,2,0,P|171:349|172:298,1,101.250000286102,2|0,0:3|0:0,0:0:0:0:
248,185,62996,5,10,0:1:0:0:
242,192,63103,1,0,0:0:0:0:
171,230,63210,2,0,P|125:216|66:209,1,87.7499928836826,2|0,0:3|0:0,0:0:0:0:
71,134,63425,2,0,P|35:141|0:152,1,74.2499996433258,8|8,0:0|0:0,0:0:0:0:
2,235,63639,1,8,0:3:0:0:
2,235,63746,1,4,0:3:0:0:
156,141,63853,6,0,B|247:116|189:69|296:37,1,175.499985767365,12|0,0:1|0:0,0:0:0:0:
306,33,64175,1,8,0:1:0:0:
203,64,64282,2,0,P|158:37|155:1,1,87.7499928836826,8|0,0:0|0:0,0:0:0:0:
306,123,64496,1,2,0:0:0:0:
306,123,64603,1,8,0:0:0:0:
242,192,64710,6,0,P|250:240|255:296,1,87.7499928836826,10|0,0:1|0:0,0:0:0:0:
475,260,64925,2,0,P|450:304|429:361,1,87.7499928836826,10|2,0:1|0:0,0:0:0:0:
338,359,65139,2,0,P|356:239|388:107,1,175.499985767365,8|10,0:0|0:1,0:0:0:0:
409,29,65460,1,0,0:0:0:0:
454,94,65567,5,12,0:1:0:0:
428,118,65675,1,0,0:0:0:0:
393,113,65782,1,10,0:1:0:0:
388,105,65889,1,2,0:0:0:0:
315,124,65996,5,8,0:0:0:0:
279,98,66103,1,2,0:0:0:0:
289,55,66210,1,2,0:3:0:0:
298,51,66317,1,2,0:0:0:0:
232,3,66425,5,10,0:1:0:0:
180,9,66532,1,10,0:0:0:0:
170,61,66639,1,10,0:0:0:0:
183,73,66746,1,10,0:0:0:0:
218,140,66853,5,10,0:0:0:0:
242,196,66960,1,10,0:0:0:0:
202,242,67067,1,10,0:0:0:0:
151,180,67175,6,0,L|96:163,1,43.8749964418413,12|0,0:1|0:0,0:0:0:0:
109,167,68353,6,0,L|150:180,2,44.5499982904816,2|2|0,0:0|0:0|0:0,0:0:0:0:
252,306,68996,6,0,B|374:290|301:220|460:189,1,215.999992370606,12|2,0:1|0:0,0:0:0:0:
444,192,69317,1,8,0:1:0:0:
378,261,69425,2,0,P|319:243|332:172,1,107.999996185303,8|8,0:0|0:1,0:0:0:0:
486,90,69639,5,2,0:0:0:0:
409,65,69746,1,10,0:0:0:0:
365,133,69853,2,0,P|406:231|418:368,1,215.999992370606,10|8,0:1|0:1,0:0:0:0:
311,203,70175,5,2,0:0:0:0:
302,207,70282,1,10,0:0:0:0:
231,227,70389,5,2,0:0:0:0:
187,245,70496,1,2,0:0:0:0:
155,210,70603,1,2,0:0:0:0:
84,247,70710,6,0,B|59:286|59:286|84:344,1,94.499993778229,10|0,0:1|0:0,0:0:0:0:
229,147,70925,1,2,3:2:0:0:
238,138,71032,2,0,B|258:93|258:93|233:54,1,94.499993778229,8|8,0:1|0:0,0:0:0:0:
48,89,71246,1,8,0:1:0:0:
37,85,71353,2,0,B|18:40|18:40|43:1,1,94.499993778229,2|8,0:0|0:1,0:0:0:0:
138,65,71567,5,10,0:1:0:0:
154,125,71675,1,2,0:0:0:0:
114,166,71782,1,10,0:1:0:0:
80,169,71889,1,2,3:2:0:0:
68,159,71996,5,10,0:0:0:0:
125,140,72103,1,2,0:0:0:0:
162,164,72210,1,10,0:1:0:0:
171,195,72317,1,2,0:0:0:0:
163,215,72425,6,0,P|251:183|345:183,1,188.999987556458,10|2,0:1|0:0,0:0:0:0:
294,53,72746,1,8,0:1:0:0:
232,103,72853,1,8,0:0:0:0:
195,32,72960,2,0,P|245:33|291:51,1,94.499993778229,10|0,0:1|0:0,0:0:0:0:
485,163,73175,1,8,0:0:0:0:
497,81,73282,6,0,P|482:128|473:179,1,80.9999946670534,10|0,0:1|0:0,0:0:0:0:
366,277,73496,2,0,P|358:230|343:185,1,80.9999946670534,8|2,0:1|0:0,0:0:0:0:
294,53,73710,1,10,0:0:0:0:
436,225,73925,5,8,0:0:0:0:
366,285,74032,2,0,P|314:284|289:128,1,202.500000572205,12|0,0:1|0:0,0:0:0:0:
335,122,74353,2,0,P|353:120|366:42,1,101.250000286102,10|0,0:1|0:0,0:0:0:0:
198,52,74567,5,8,0:0:0:0:
177,52,74675,1,0,0:0:0:0:
158,40,74782,1,8,0:1:0:0:
148,21,74889,1,8,0:0:0:0:
61,38,74996,5,10,0:1:0:0:
24,71,75103,1,2,0:0:0:0:
5,115,75210,1,10,0:1:0:0:
17,165,75317,1,2,0:0:0:0:
70,228,75425,5,10,0:0:0:0:
96,156,75532,1,10,0:0:0:0:
163,125,75639,1,8,0:3:0:0:
232,154,75746,1,4,0:3:0:0:
269,227,75853,6,0,P|387:229|372:90,1,242.99998400116,12|0,0:1|0:0,0:0:0:0:
399,115,76175,1,8,0:1:0:0:
314,82,76282,2,0,P|297:131|353:168,1,101.250000286102,8|8,0:0|0:1,0:0:0:0:
488,144,76496,2,0,P|505:95|449:58,1,101.250000286102,2|8,0:0|0:0,0:0:0:0:
327,166,76710,6,0,B|445:162|397:242|542:228,2,202.500000572205,10|8|8,0:1|0:1|0:0,0:0:0:0:
177,248,77246,5,10,0:1:0:0:
166,287,77353,1,0,0:0:0:0:
194,316,77460,1,8,0:0:0:0:
122,366,77567,6,0,P|72:364|29:383,1,94.499993778229,10|0,0:1|0:0,0:0:0:0:
260,263,77782,2,0,P|304:245|351:247,1,94.499993778229,0|10,3:0|0:1,0:0:0:0:
143,164,77996,5,8,0:0:0:0:
81,220,78103,2,0,P|56:149|70:127,2,94.499993778229,10|2|8,0:1|0:0|0:0,0:0:0:0:
238,26,78425,6,0,B|254:-23|173:-57|128:5|155:88|222:102,1,215.999992370606,8|8,0:1|0:1,0:0:0:0:
214,102,78746,1,0,3:0:0:0:
127,75,78853,2,0,B|77:63|102:44|30:34,1,80.9999946670534,10|0,0:0|3:0,0:0:0:0:
235,179,79067,5,10,0:1:0:0:
250,183,79175,1,8,0:0:0:0:
301,108,79282,6,0,B|445:85|353:55|518:23,1,215.999992370606,12|2,0:1|0:0,0:0:0:0:
364,190,79603,1,8,0:1:0:0:
352,180,79710,2,0,P|344:130|389:102,1,107.999996185303,8|0,0:0|0:0,0:0:0:0:
459,242,79925,5,10,0:1:0:0:
448,247,80032,1,8,0:0:0:0:
459,149,80139,2,0,P|443:202|436:258,1,94.499993778229,10|0,0:1|0:0,0:0:0:0:
288,358,80353,1,8,0:0:0:0:
355,288,80460,1,8,0:0:0:0:
261,256,80567,2,0,P|277:309|284:365,1,94.499993778229,10|0,0:1|0:0,0:0:0:0:
435,332,80782,6,0,B|485:376|596:284|531:165|361:178|305:242|382:276|342:357|242:379|185:295,1,485.999968002321,12|8,0:1|0:0,0:0:0:0:
200,311,81317,1,8,0:1:0:0:
366,384,81425,2,0,P|353:296|315:143,1,202.500000572205,12|0,0:1|0:0,0:0:0:0:
324,175,81746,1,8,0:0:0:0:
402,22,81853,5,12,0:1:0:0:
419,26,81960,1,0,3:0:0:0:
431,44,82067,1,8,0:0:0:0:
430,78,82175,1,8,0:0:0:0:
404,94,82282,1,10,0:0:0:0:
359,87,82389,1,8,0:0:0:0:
311,83,82496,1,8,0:3:0:0:
252,117,82603,1,4,0:3:0:0:
217,180,82710,6,0,P|155:161|103:158,1,87.7499928836826,12|0,0:1|0:0,0:0:0:0:
243,321,82925,2,0,P|305:340|357:343,1,87.7499928836826,6|0,0:3|0:0,0:0:0:0:
148,247,83139,6,0,P|159:289|165:333,1,87.7499928836826,10|0,0:0|0:0,0:0:0:0:
319,159,83353,1,6,0:3:0:0:
319,159,83460,1,2,0:1:0:0:
296,254,83567,2,0,P|302:200|314:147,1,87.7499928836826,10|0,0:1|0:0,0:0:0:0:
193,86,83782,1,6,0:3:0:0:
217,180,83889,2,0,P|212:126|200:73,1,87.7499928836826,2|10,0:1|0:0,0:0:0:0:
35,0,84103,5,0,0:0:0:0:
28,5,84210,1,6,0:3:0:0:
7,44,84317,1,2,0:1:0:0:
40,81,84425,2,0,B|80:90|80:90|131:58,1,80.9999946670534,10|0,0:1|0:0,0:0:0:0:
246,21,84639,2,0,B|287:10|287:10|339:43,1,80.9999946670534,6|0,0:3|0:0,0:0:0:0:
485,127,84853,6,0,P|494:68|506:30,1,87.7499928836826,10|0,0:0|0:0,0:0:0:0:
415,159,85067,1,6,0:3:0:0:
415,159,85175,1,0,0:0:0:0:
347,103,85282,2,0,P|338:162|326:200,1,87.7499928836826,10|2,0:1|0:1,0:0:0:0:
402,243,85496,1,6,0:3:0:0:
478,208,85603,2,0,P|487:267|499:305,1,87.7499928836826,2|10,0:1|0:0,0:0:0:0:
253,354,85817,5,0,0:0:0:0:
251,345,85925,1,6,0:3:0:0:
319,294,86032,1,2,0:1:0:0:
362,363,86139,2,0,P|258:315|154:305,1,188.999987556458,8|6,0:1|0:3,0:0:0:0:
92,313,86460,1,0,3:0:0:0:
105,312,86567,2,0,P|142:282|140:223,1,94.499993778229,10|0,0:0|0:0,0:0:0:0:
69,197,86782,2,0,P|32:227|34:286,1,94.499993778229,6|0,0:3|3:0,0:0:0:0:
229,215,86996,6,0,B|275:199|275:199|279:191|279:191|335:170,1,94.499993778229,10|0,0:1|0:0,0:0:0:0:
388,56,87210,1,6,0:3:0:0:
349,90,87317,1,0,0:0:0:0:
380,135,87425,2,0,B|426:151|426:151|430:159|430:159|486:180,1,94.499993778229,10|0,0:0|3:0,0:0:0:0:
475,175,87639,1,8,0:0:0:0:
380,224,87746,6,0,B|356:97|319:165|289:4,1,215.999992370606,12|0,0:1|0:0,0:0:0:0:
288,20,88067,2,0,P|275:84|268:126,1,80.9999946670534,10|0,0:1|0:3,0:3:0:0:
216,355,88282,2,0,P|209:315|201:275,1,80.9999946670534,12|0,0:0|0:0,0:0:0:0:
193,116,88496,5,8,1:0:0:0:
189,128,88603,1,8,0:0:0:0:
190,152,88710,1,14,0:1:0:0:
206,187,88817,1,0,0:0:0:0:
261,204,88925,1,8,0:0:0:0:
314,180,89032,1,8,0:0:0:0:
386,185,89139,5,10,0:0:0:0:
325,170,89246,1,8,0:0:0:0:
276,119,89353,1,8,0:3:0:0:
282,44,89460,1,4,0:3:0:0:
355,12,89567,6,0,P|410:32|467:40,1,87.7499928836826,12|0,0:1|0:0,0:0:0:0:
192,74,89782,2,0,P|137:54|80:46,1,87.7499928836826,6|0,0:3|0:0,0:0:0:0:
336,182,89996,6,0,P|359:130|336:80,1,87.7499928836826,10|0,0:0|0:0,0:0:0:0:
186,152,90210,1,6,0:3:0:0:
182,160,90317,1,0,0:0:0:0:
193,246,90425,2,0,P|170:194|193:144,1,87.7499928836826,10|0,0:1|0:0,0:0:0:0:
287,253,90639,1,6,0:3:0:0:
276,339,90746,2,0,P|299:287|276:237,1,87.7499928836826,2|10,0:1|0:0,0:0:0:0:
106,240,90960,5,0,0:0:0:0:
96,245,91067,1,6,0:3:0:0:
76,280,91175,1,2,0:1:0:0:
103,317,91282,2,0,B|138:337|138:337|184:325,1,80.9999946670534,10|0,0:1|0:0,0:0:0:0:
336,182,91496,2,0,B|302:161|302:161|256:173,1,80.9999946670534,2|2,0:3|0:1,0:0:0:0:
292,341,91710,2,0,B|345:333|345:333|376:297|376:297|452:283,1,161.999989334107,10|6,0:0|0:3,0:0:0:0:
448,285,92032,1,2,0:1:0:0:
371,344,92139,6,0,L|351:237,1,80.9999946670534,8|2,0:1|0:1,0:0:0:0:
415,202,92353,1,6,0:3:0:0:
498,218,92460,2,0,L|518:111,1,80.9999946670534,0|10,3:0|0:0,0:0:0:0:
388,0,92675,5,0,0:0:0:0:
384,6,92782,1,6,0:3:0:0:
445,56,92889,1,8,0:0:0:0:
512,14,92996,2,0,P|426:14|409:147,1,215.999992370606,12|2,0:1|0:0,0:0:0:0:
419,195,93317,1,0,3:0:0:0:
307,119,93425,2,0,P|274:111|191:106,1,87.7499928836826,10|0,0:0|0:0,0:0:0:0:
289,264,93639,6,0,P|335:226|319:178,1,87.7499928836826,8|4,0:3|3:3,0:0:0:0:
138,90,93853,2,0,P|146:48|184:28,1,87.7499928836826,10|0,0:1|0:0,0:0:0:0:
221,105,94067,5,0,1:0:0:0:
220,137,94139,5,0,1:0:0:0:
245,156,94210,5,8,0:3:0:0:
248,188,94282,5,4,0:3:0:0:
270,21,94496,6,0,P|228:143|196:329,1,303.750000858307,12|0,0:1|0:0,0:0:0:0:
205,316,94925,2,0,P|211:273|170:235,1,101.250000286102,10|0,0:1|0:0,0:0:0:0:
38,284,95139,2,0,P|80:277|116:301,1,87.7499928836826,12|0,0:0|0:0,0:0:0:0:
145,375,95353,5,0,1:0:0:0:
139,382,95460,1,8,0:0:0:0:
280,346,95567,6,0,B|313:337|313:337|322:322|322:322|376:306,1,94.499993778229,8|0,0:1|3:0,0:0:0:0:
440,292,95782,5,8,0:0:0:0:
446,283,95889,1,8,0:0:0:0:
455,257,95996,1,8,0:3:0:0:
441,220,96103,1,8,0:3:0:0:
390,187,96210,1,4,0:3:0:0:
378,125,96317,1,4,0:3:0:0:
433,65,96425,6,0,P|470:54|525:45,1,80.9999946670534,12|0,0:1|0:0,0:0:0:0:
349,32,96639,1,2,0:0:0:0:
341,42,96746,1,10,0:1:0:0:
278,95,96853,1,8,0:0:0:0:
201,55,96960,2,0,P|249:63|280:95,1,80.9999946670534,2|2,0:0|0:0,0:0:0:0:
353,132,97175,1,8,0:1:0:0:
294,245,97282,6,0,P|286:195|275:157,1,67.4999976158142,2|8,0:0|0:0,0:0:0:0:
450,345,97496,2,0,P|456:304|467:265,1,67.4999976158142,10|2,0:1|0:0,0:0:0:0:
231,300,97710,2,0,P|149:285|157:199,1,134.999995231628,10|10,0:0|0:1,0:0:0:0:
298,335,98032,1,0,3:0:0:0:
310,327,98139,2,0,P|346:314|396:301,1,74.2499996433258,10|0,0:1|0:0,0:0:0:0:
424,188,98353,6,0,P|395:225|350:211,1,74.2499996433258,2|8,0:0|0:1,0:0:0:0:
298,335,98567,6,0,P|246:327|234:277,1,87.7499928836826,10|0,0:0|0:0,0:0:0:0:
64,282,98782,6,0,P|43:228|85:189,1,101.250000286102,2|8,0:0|0:1,0:0:0:0:
257,46,98996,5,2,0:0:0:0:
266,104,99103,1,10,0:0:0:0:
235,154,99210,1,10,0:1:0:0:
178,172,99317,1,2,0:0:0:0:
124,148,99425,5,10,0:0:0:0:
161,137,99532,1,2,0:0:0:0:
198,153,99639,1,10,0:1:0:0:
217,188,99746,1,0,3:0:0:0:
209,226,99853,6,0,B|175:239|186:262|145:278,1,80.9999946670534,10|0,0:1|0:0,0:0:0:0:
62,292,100067,1,2,0:0:0:0:
123,352,100175,2,0,P|156:358|207:379,1,80.9999946670534,10|8,0:1|0:0,0:0:0:0:
294,236,100389,2,0,P|341:227|412:198,1,121.49999200058,2|0,0:0|0:0,0:0:0:0:
417,194,100603,2,0,B|448:225|448:225|442:280,1,80.9999946670534,10|0,0:1|0:0,0:0:0:0:
294,384,100817,5,8,0:0:0:0:
303,340,100925,1,10,0:1:0:0:
266,316,101032,1,2,0:0:0:0:
215,260,101139,5,8,0:0:0:0:
206,223,101246,1,2,0:0:0:0:
257,159,101353,5,10,0:1:0:0:
261,133,101460,1,0,0:0:0:0:
212,72,101567,5,8,0:1:0:0:
200,67,101675,2,0,P|171:74|149:85,2,37.1249998216629,2|2|2,0:0|0:0|0:0,0:0:0:0:
329,242,101889,5,10,0:1:0:0:
317,247,101996,2,0,P|288:240|266:229,2,37.1249998216629,10|0|2,0:0|0:0|0:0,0:0:0:0:
496,120,102210,5,12,0:1:0:0:
484,115,102317,2,0,P|455:122|433:133,2,37.1249998216629,2|2|10,0:1|0:1|0:1,0:0:0:0:
334,58,102532,5,8,0:0:0:0:
402,22,102639,2,0,P|371:72|345:165,1,131.624989325524,10|0,0:1|0:0,0:0:0:0:
347,157,102853,5,10,0:0:0:0:
348,196,102960,1,8,0:0:0:0:
320,241,103067,1,8,0:3:0:0:
245,268,103175,1,4,0:3:0:0:
161,242,103282,5,12,0:1:0:0:
92,313,103389,2,0,P|76:252|59:211,1,80.9999946670534,2|2,0:0|0:0,0:0:0:0:
263,179,103603,2,0,P|249:220|239:262,1,80.9999946670534,10|8,0:1|0:0,0:0:0:0:
129,169,103817,2,0,B|58:149|109:126|10:110,1,121.49999200058,2|0,0:0|0:0,0:0:0:0:
15,108,104032,2,0,P|73:95|105:84,1,80.9999946670534,8|0,0:1|0:0,0:0:0:0:
203,118,104246,5,10,0:0:0:0:
219,77,104353,1,8,0:1:0:0:
187,47,104460,1,2,0:0:0:0:
257,7,104567,5,8,0:0:0:0:
278,0,104675,1,2,0:0:0:0:
330,55,104782,5,8,0:1:0:0:
351,62,104889,1,2,0:0:0:0:
419,20,104996,5,8,0:1:0:0:
446,59,105103,1,2,0:0:0:0:
428,97,105210,1,0,3:0:0:0:
421,100,105317,1,10,0:1:0:0:
353,142,105425,5,8,0:0:0:0:
329,181,105532,1,2,0:0:0:0:
347,219,105639,1,0,3:0:0:0:
354,221,105746,1,10,0:1:0:0:
297,282,105853,6,0,P|265:286|204:301,1,87.7499928836826,2|8,0:0|0:0,0:0:0:0:
190,105,106067,2,0,P|222:109|283:124,1,87.7499928836826,10|2,0:1|0:0,0:0:0:0:
204,197,106282,5,10,0:0:0:0:
197,219,106389,1,2,0:0:0:0:
124,245,106496,5,10,0:1:0:0:
131,267,106603,1,2,0:0:0:0:
53,210,106710,6,0,P|76:177|131:173,1,80.9999946670534,12|0,0:1|0:0,0:0:0:0:
207,315,106925,2,0,P|184:348|129:352,1,80.9999946670534,2|8,0:0|0:1,0:0:0:0:
187,110,107139,5,8,0:0:0:0:
210,78,107246,1,2,0:0:0:0:
260,65,107353,1,2,0:0:0:0:
321,89,107460,1,8,0:0:0:0:
350,163,107567,5,10,0:1:0:0:
345,200,107675,1,0,3:0:0:0:
361,243,107782,1,10,0:0:0:0:
417,267,107889,1,10,0:0:0:0:
483,225,107996,5,8,0:3:0:0:
457,149,108103,1,4,0:3:0:0:
512,90,108210,1,12,0:1:0:0:
512,384,108639,5,2,0:0:0:0:
495,364,108746,1,2,0:0:0:0:
474,347,108853,1,2,0:0:0:0:
450,336,108960,1,2,0:0:0:0:
358,173,109175,5,2,0:0:0:0:
200,228,109389,5,2,0:0:0:0:
174,224,109496,2,0,P|154:214|140:201,1,40.4999973335267,2|0,0:0|0:0,0:0:0:0:
78,59,109710,6,0,P|36:25|-5:22,1,80.9999946670534,2|2,0:0|0:0,0:0:0:0:
16,164,110139,6,0,P|41:153|94:141,1,67.4999976158142,12|0,0:1|0:0,0:0:0:0:
241,132,110353,5,2,0:0:0:0:
201,156,110460,1,2,0:0:0:0:
158,124,110567,2,0,B|172:51|193:81|212:-7,1,134.999995231628,10|2,0:1|0:0,0:0:0:0:
277,53,110889,1,2,0:0:0:0:
288,42,110996,2,0,B|317:44|308:21|355:15,2,67.4999976158142,8|0|0,0:1|0:0|0:0,0:0:0:0:
356,191,111317,5,2,0:0:0:0:
344,189,111425,2,0,P|326:133|325:105,1,67.4999976158142,8|0,0:1|0:0,0:0:0:0:
245,275,111639,2,0,P|263:219|264:191,1,67.4999976158142,2|0,0:0|0:0,0:0:0:0:
405,377,111853,6,0,P|480:367|484:293,1,134.999995231628,10|2,0:1|0:0,0:0:0:0:
319,334,112175,1,0,0:0:0:0:
308,344,112282,2,0,P|255:357|228:371,1,67.4999976158142,10|0,0:1|0:0,0:0:0:0:
366,264,112496,1,2,0:0:0:0:
392,285,112603,1,2,0:0:0:0:
422,270,112710,2,0,P|443:205|490:141,1,134.999995231628,8|2,0:1|0:0,0:0:0:0:
509,34,113032,5,0,0:0:0:0:
505,49,113139,2,0,P|462:60|417:62,1,67.4999976158142,8|0,0:1|0:0,0:0:0:0:
388,138,113353,2,0,P|345:127|300:125,1,67.4999976158142,2|0,0:0|0:0,0:0:0:0:
166,0,113567,6,0,P|110:18|106:114,1,134.999995231628,10|0,0:1|0:0,0:0:0:0:
156,135,113889,1,2,0:0:0:0:
162,145,113996,2,0,P|152:182|149:225,2,67.4999976158142,8|0|2,0:1|0:0|0:0,0:0:0:0:
278,30,114317,5,0,0:0:0:0:
279,43,114425,2,0,P|222:65|196:68,2,67.4999976158142,10|0|0,0:1|0:0|0:0,0:0:0:0:
6,146,114746,2,0,P|39:154|69:169,2,67.4999976158142,2|8|0,2:0|2:1|2:0,0:0:0:0:
253,231,115067,5,2,0:0:0:0:
253,231,115175,1,0,0:0:0:0:
197,303,115282,2,0,P|133:309|90:261,1,134.999995231628,8|2,0:1|0:0,0:0:0:0:
230,142,115603,1,0,0:0:0:0:
241,148,115710,2,0,P|281:137|297:95,1,67.4999976158142,8|0,0:1|0:0,0:0:0:0:
151,163,115925,2,0,P|167:220|173:252,1,67.4999976158142,2|0,0:0|0:0,0:0:0:0:
197,303,116139,5,12,0:1:0:0:
197,303,116246,1,0,0:0:0:0:
228,376,116353,6,0,B|261:386|261:386|291:371,1,67.4999976158142,2|4,0:0|0:0,0:0:0:0:
320,278,116567,6,0,B|360:264|360:264|380:232,1,80.9999946670534,10|2,0:1|0:0,0:0:0:0:
241,148,116782,6,0,B|273:111|273:111|259:67,1,94.499993778229,6|2,0:0|0:0,0:0:0:0:
66,94,116996,6,0,L|-22:110,1,67.4999976158142,8|0,0:1|0:0,0:0:0:0:
104,22,117210,5,2,0:0:0:0:
146,9,117317,1,2,0:0:0:0:
177,42,117425,2,0,B|166:95|166:95|146:112|146:112|134:177,1,134.999995231628,10|0,0:1|0:0,0:0:0:0:
74,261,117746,1,2,0:0:0:0:
68,242,117853,2,0,L|49:164,2,67.4999976158142,8|0|0,0:1|0:0|0:0,0:0:0:0:
107,354,118175,5,2,0:0:0:0:
97,342,118282,2,0,P|46:354|22:366,1,67.4999976158142,10|0,0:1|0:0,0:0:0:0:
223,265,118496,2,0,P|172:253|148:241,1,67.4999976158142,2|0,0:0|0:0,0:0:0:0:
317,376,118710,6,0,B|390:367|359:331|450:318,1,134.999995231628,10|2,0:1|0:0,0:0:0:0:
314,286,119032,1,0,0:0:0:0:
305,275,119139,2,0,P|307:234|326:204,1,67.4999976158142,10|0,0:1|0:0,0:0:0:0:
446,94,119353,5,2,0:0:0:0:
457,125,119460,1,2,0:0:0:0:
451,154,119567,2,0,P|403:200|321:201,1,134.999995231628,8|2,0:1|0:0,0:0:0:0:
342,43,119889,1,0,0:0:0:0:
353,58,119996,2,0,P|355:82|324:136,1,67.4999976158142,8|0,0:1|0:0,0:0:0:0:
198,105,120210,2,0,P|238:122|254:156,1,80.9999946670534,2|0,0:0|0:0,0:0:0:0:
261,235,120425,5,8,0:1:0:0:
251,239,120532,1,0,0:0:0:0:
187,288,120639,2,0,P|130:271|102:265,1,80.9999946670534,2|0,0:0|0:0,0:0:0:0:
141,197,120853,1,8,0:1:0:0:
77,148,120960,2,0,P|20:165|-8:171,1,80.9999946670534,2|0,0:0|0:0,0:0:0:0:
33,325,121175,5,2,0:0:0:0:
33,312,121282,2,0,P|24:265|3:223,2,67.4999976158142,10|0|0,0:1|0:0|0:0,0:0:0:0:
198,105,121603,2,0,P|208:151|229:193,2,67.4999976158142,2|8|0,0:0|0:1|0:0,0:0:0:0:
211,364,121925,5,2,0:0:0:0:
187,288,122032,1,0,0:0:0:0:
251,239,122139,2,0,P|303:242|329:276,1,74.2499996433258,8|0,0:1|0:0,0:0:0:0:
492,343,122353,5,2,0:0:0:0:
448,384,122460,1,0,0:0:0:0:
392,361,122567,2,0,P|375:326|387:296,1,67.4999976158142,8|0,0:1|0:0,0:0:0:0:
395,126,122782,5,2,0:0:0:0:
448,141,122889,1,0,0:0:0:0:
455,195,122996,2,0,P|436:224|408:228,1,60.7499960002901,10|0,0:1|0:0,0:0:0:0:
279,322,123210,6,0,P|293:357|296:377,1,53.9999980926514,0|2,0:0|0:0,0:0:0:0:
342,192,123425,2,0,P|322:243|317:273,1,67.4999976158142,8|0,0:1|0:0,0:0:0:0:
279,32,123639,5,2,0:0:0:0:
326,91,123746,1,0,0:0:0:0:
275,151,123853,2,0,P|226:136|182:131,1,87.7499928836826,12|0,0:1|0:0,0:0:0:0:
0,132,124067,2,0,B|70:116|44:74|144:59,1,131.624989325524
120,71,124282,6,0,P|90:41|96:0,1,87.7499928836826,10|0,0:1|0:0,0:0:0:0:
204,55,124496,2,0,P|191:96|182:139,1,74.2499996433258
1,144,124710,2,0,P|15:185|24:228,1,74.2499996433258,10|0,0:1|0:0,0:0:0:0:
101,182,124925,1,2,0:0:0:0:
107,188,125032,1,0,0:0:0:0:
92,267,125139,2,0,P|122:237|116:195,1,87.7499928836826,10|0,0:1|0:0,0:0:0:0:
149,327,125353,5,2,0:0:0:0:
149,327,125460,1,0,0:0:0:0:
60,343,125567,2,0,P|160:285|237:293,1,175.499985767365,8|2,0:1|0:0,0:0:0:0:
276,343,125889,1,0,3:0:0:0:
279,330,125996,2,0,P|306:305|358:308,1,87.7499928836826,10|0,0:1|0:0,0:0:0:0:
263,148,126210,5,2,0:0:0:0:
263,148,126317,1,0,0:0:0:0:
270,221,126425,2,0,P|241:198|190:207,1,74.2499996433258,8|0,0:1|0:0,0:0:0:0:
193,115,126639,2,0,P|227:100|245:68,1,74.2499996433258,2|0,0:0|0:0,0:0:0:0:
321,101,126853,2,0,P|317:137|336:168,1,74.2499996433258,8|0,0:1|0:0,0:0:0:0:
452,348,127067,5,2,0:0:0:0:
452,348,127175,1,0,3:1:0:0:
512,284,127282,2,0,B|459:268|459:268|446:244|446:244|377:221,1,134.999995231628,12|2,0:1|0:0,0:0:0:0:
389,236,127603,1,2,0:0:0:0:
372,313,127710,2,0,B|319:329|319:329|306:353|306:353|237:376,1,134.999995231628,8|0,0:1|0:0,0:0:0:0:
246,372,128032,1,0,0:0:0:0:
203,310,128139,5,10,0:1:0:0:
196,303,128246,1,0,0:0:0:0:
148,242,128353,6,0,P|101:259|87:303,1,80.9999946670534,0|2,0:0|0:0,0:0:0:0:
12,260,128567,2,0,P|3:309|34:343,1,87.7499928836826,8|0,0:1|0:0,0:0:0:0:
167,159,128782,6,0,P|175:109|144:75,1,94.499993778229,2|0,0:0|0:0,0:0:0:0:
207,25,128996,2,0,P|167:-9|120:1,1,101.250000286102,10|0,0:1|0:0,0:0:0:0:
235,213,129210,6,0,P|273:245|318:235,1,87.7499928836826,2|0,0:0|0:0,0:0:0:0:
324,320,129425,2,0,P|371:303|385:258,1,80.9999946670534,8|0,0:1|0:0,0:0:0:0:
325,147,129639,5,2,0:0:0:0:
332,153,129746,1,0,3:0:0:0:
337,159,129853,5,8,0:0:0:0:
416,171,129960,1,8,0:0:0:0:
478,131,130067,1,8,0:0:0:0:
488,70,130175,1,8,0:3:0:0:
455,25,130282,1,8,0:3:0:0:
412,27,130389,1,4,0:3:0:0:
388,54,130496,1,4,0:3:0:0:
388,80,130603,1,8,0:1:0:0:
399,86,130710,6,0,B|351:104|329:64|329:64|326:70|326:70|305:32|246:36|246:36|276:58|279:100,1,222.749998929977,10|8,1:2|0:0,0:0:0:0:
198,100,131139,6,0,P|170:102|145:114,1,53.9999980926514,10|0,0:0|0:0,0:0:0:0:
75,308,132210,6,0,B|-4:262|33:108|150:161|144:249|88:248,1,242.99998400116,12|0,0:1|0:0,0:0:0:0:
75,308,132639,2,0,P|27:285|-13:284,1,80.9999946670534,10|0,0:0|0:0,0:0:0:0:
224,377,132853,6,0,P|260:360|289:359,1,67.4999976158142,12|0,0:1|0:0,0:0:0:0:
212,246,134139,6,0,B|195:267|198:301|198:301|265:231|363:238|363:238|330:254|328:299,1,303.750000858307,10|10,1:2|0:0,0:0:0:0:
283,162,134567,6,0,P|292:128|296:121,1,40.4999985694885,10|2,0:0|0:1,0:0:0:0:
299,116,135425,1,2,0:1:0:0:
512,120,135639,6,0,B|545:78|518:27|470:21|470:21|432:68|372:71|372:71|359:48|331:40,1,283.499981334687,12|0,0:1|0:0,0:0:0:0:
416,4,136067,2,0,P|438:56|414:85,1,94.499993778229,10|0,0:0|0:0,0:0:0:0:
258,44,136282,6,0,P|238:35|215:32,1,40.4999985694885,12|0,0:1|0:0,0:0:0:0:
205,33,136710,5,2,0:0:0:0:
189,44,136817,1,2,0:0:0:0:
175,66,136925,1,2,0:0:0:0:
176,97,137032,1,2,0:0:0:0:
192,130,137139,1,4,0:3:0:0:
185,173,137246,1,2,0:0:0:0:
139,208,137353,1,2,0:0:0:0:
76,198,137460,1,2,0:0:0:0:
24,135,137567,6,0,P|43:193|42:330,1,188.999987556458,12|2,0:1|0:3,0:0:0:0:
204,303,137889,1,0,0:0:0:0:
193,301,137996,2,0,P|141:323|119:356,1,94.499993778229,10|0,0:0|0:0,0:0:0:0:
252,240,138210,5,2,0:3:0:0:
252,240,138317,1,0,0:3:0:0:
323,304,138425,2,0,P|328:270|346:208,1,94.499993778229,8|0,0:1|0:0,0:0:0:0:
175,217,138639,2,0,P|189:171|197:125,1,94.499993778229,2|0,0:3|0:0,0:0:0:0:
199,112,138853,1,10,0:0:0:0:
349,128,139067,6,0,P|394:121|411:79,1,94.499993778229,2|0,0:3|0:3,0:3:0:0:
291,68,139282,2,0,P|385:90|474:151,1,202.500000572205,8|2,0:1|0:3,0:0:0:0:
346,207,139603,1,0,0:0:0:0:
336,212,139710,2,0,P|289:203|272:158,1,101.250000286102,10|0,0:0|0:0,0:0:0:0:
422,0,139925,2,0,P|470:8|487:53,1,101.250000286102,2|0,0:3|0:3,0:0:0:0:
472,142,140139,5,10,0:1:0:0:
465,148,140246,1,0,0:0:0:0:
419,216,140353,6,0,P|433:281|438:326,1,87.7499928836826,2|0,0:3|0:0,0:0:0:0:
512,311,140567,2,0,P|506:354|496:397,1,74.2499996433258,10|0,0:0|0:0,0:0:0:0:
276,332,140782,2,0,P|292:312|345:309,1,60.7499960002901,2|0,0:3|0:3,0:0:0:0:
372,362,140996,6,0,B|278:338|339:289|210:273,1,175.499985767365,12|0,0:1|0:0,0:0:0:0:
211,273,141317,1,8,0:1:0:0:
135,327,141425,2,0,P|88:296|100:247,2,87.7499928836826,8|0|2,0:0|0:0|0:0,0:0:0:0:
150,213,141746,5,8,0:0:0:0:
151,202,141853,2,0,P|139:163|122:113,1,87.7499928836826,10|0,0:1|0:0,0:0:0:0:
336,169,142067,2,0,P|348:130|365:80,1,87.7499928836826,10|2,0:1|0:0,0:0:0:0:
262,18,142282,2,0,P|242:153|241:226,1,175.499985767365,8|2,0:0|0:0,0:0:0:0:
242,359,142603,1,0,1:0:0:0:
233,275,142710,5,12,0:1:0:0:
269,267,142817,1,0,0:0:0:0:
296,288,142925,1,10,0:1:0:0:
297,297,143032,1,2,0:0:0:0:
357,348,143139,5,8,0:0:0:0:
397,367,143246,1,2,0:0:0:0:
429,338,143353,1,2,0:3:0:0:
428,328,143460,1,8,0:3:0:0:
375,271,143567,5,10,0:1:0:0:
352,224,143675,1,10,0:0:0:0:
390,186,143782,1,8,0:3:0:0:
407,191,143889,1,4,0:3:0:0:
472,143,143996,5,10,0:0:0:0:
493,86,144103,1,10,0:0:0:0:
451,42,144210,1,10,0:0:0:0:
403,105,144317,6,0,L|347:119,1,43.8749964418413,12|0,0:1|0:0,0:0:0:0:
360,115,145496,6,0,L|402:105,2,43.8749964418413,8|8|8,0:1|0:1|0:1,0:0:0:0:
321,264,145710,6,0,L|311:306,1,40.4999985694885,12|0,0:0|0:0,0:0:0:0:
358,374,146139,6,0,B|346:245|282:323|265:175,1,215.999992370606,12|2,0:1|0:0,0:0:0:0:
275,169,146460,1,8,0:1:0:0:
200,225,146567,2,0,P|143:202|149:139,1,107.999996185303,8|8,0:0|0:1,0:0:0:0:
72,2,146782,5,2,0:0:0:0:
12,56,146889,1,10,0:0:0:0:
67,112,146996,2,0,P|131:122|287:175,1,215.999992370606,10|8,0:1|0:1,0:0:0:0:
136,161,147317,5,2,0:0:0:0:
132,170,147425,1,10,0:0:0:0:
98,241,147532,5,2,0:0:0:0:
55,234,147639,1,2,0:0:0:0:
30,268,147746,1,2,0:0:0:0:
91,320,147853,6,0,B|131:345|131:345|176:333,1,94.499993778229,10|0,0:1|0:0,0:0:0:0:
290,174,148067,1,2,3:2:0:0:
295,190,148175,2,0,B|255:215|255:215|210:203,1,94.499993778229,8|8,0:1|0:0,0:0:0:0:
457,347,148389,1,8,0:1:0:0:
462,331,148496,2,0,B|422:305|422:305|377:317,1,94.499993778229,2|8,0:0|0:1,0:0:0:0:
327,379,148710,5,10,0:1:0:0:
277,344,148817,1,2,0:0:0:0:
278,291,148925,1,10,0:1:0:0:
303,269,149032,1,2,3:2:0:0:
320,268,149139,5,10,0:0:0:0:
288,310,149246,1,2,0:0:0:0:
244,306,149353,1,10,0:1:0:0:
222,286,149460,1,2,0:0:0:0:
221,275,149567,6,0,P|242:190|254:87,1,188.999987556458,12|2,0:1|0:0,0:0:0:0:
348,134,149889,1,8,0:1:0:0:
410,69,149996,1,8,0:0:0:0:
318,31,150103,2,0,P|337:85|347:145,1,94.499993778229,10|0,0:1|0:0,0:0:0:0:
409,283,150317,1,8,0:0:0:0:
503,235,150425,6,0,P|447:249|410:271,1,94.499993778229,10|0,0:1|0:0,0:0:0:0:
276,168,150639,2,0,P|220:154|183:132,1,94.499993778229,8|2,0:1|0:0,0:0:0:0:
128,26,150853,1,10,0:0:0:0:
353,209,151067,5,8,0:0:0:0:
280,159,151175,2,0,P|226:154|200:282,1,202.500000572205,12|0,0:1|0:0,0:0:0:0:
409,283,151496,2,0,P|436:280|464:350,1,101.250000286102,10|0,0:1|0:0,0:0:0:0:
378,362,151710,5,12,0:0:0:0:
357,362,151817,1,8,0:1:0:0:
338,350,151925,1,0,0:0:0:0:
328,331,152032,1,8,0:0:0:0:
314,253,152139,5,12,0:1:0:0:
340,210,152246,1,2,0:0:0:0:
379,182,152353,1,10,0:1:0:0:
430,183,152460,1,2,0:0:0:0:
482,124,152567,5,10,0:0:0:0:
455,52,152675,1,10,0:0:0:0:
388,21,152782,1,8,0:3:0:0:
319,50,152889,1,4,0:3:0:0:
279,116,152996,6,0,P|133:105|114:20,1,215.999992370606,12|0,0:1|0:0,0:0:0:0:
115,48,153317,1,8,0:1:0:0:
37,66,153425,2,0,P|1:127|21:157,1,107.999996185303,8|8,0:0|0:1,0:0:0:0:
152,185,153639,2,0,P|188:124|168:94,1,107.999996185303,2|8,0:0|0:0,0:0:0:0:
91,132,153853,6,0,B|124:284|154:169|193:346,2,215.999992370606,10|8|8,0:1|0:1|0:0,0:0:0:0:
235,233,154389,5,0,0:0:0:0:
274,244,154496,1,8,0:1:0:0:
303,216,154603,1,8,0:0:0:0:
367,261,154710,6,0,P|350:304|352:351,1,94.499993778229,10|0,0:1|0:0,0:0:0:0:
250,157,154925,2,0,P|249:110|267:66,1,94.499993778229,0|10,3:0|0:1,0:0:0:0:
409,185,155139,5,8,0:0:0:0:
446,114,155246,2,0,P|486:101|533:132,2,94.499993778229,8|2|8,0:1|0:0|0:0,0:0:0:0:
320,0,155567,6,0,B|266:-7|239:65|305:104|367:97|404:27,1,215.999992370606,8|8,0:1|0:1,0:0:0:0:
396,38,155889,1,0,3:0:0:0:
357,116,155996,2,0,B|337:170|324:143|313:218,1,94.499993778229,10|0,0:0|3:0,0:0:0:0:
435,321,156210,5,10,0:1:0:0:
435,321,156317,1,8,0:0:0:0:
374,268,156425,6,0,B|235:301|343:345|153:379,1,215.999992370606,12|2,0:1|0:0,0:0:0:0:
219,229,156746,1,8,0:1:0:0:
232,221,156853,2,0,P|289:241|287:290,1,107.999996185303,8|0,0:0|0:0,0:0:0:0:
73,278,157067,5,2,0:0:0:0:
65,286,157175,1,8,0:0:0:0:
169,293,157282,2,0,P|116:277|60:270,1,94.499993778229,10|0,0:1|0:0,0:0:0:0:
4,123,157496,1,8,0:0:0:0:
72,186,157603,1,8,0:0:0:0:
106,96,157710,2,0,P|53:112|-3:119,1,94.499993778229,10|0,0:1|0:0,0:0:0:0:
238,10,157925,6,0,B|198:149|198:149|82:108|166:31|16:18,1,364.49997600174,12|0,0:1|1:0,0:0:0:0:
39,29,158353,2,0,P|86:21|131:7,1,87.7499928836826,8|8,0:0|0:1,0:0:0:0:
162,169,158567,6,0,B|199:87|292:93|292:93|280:148,1,202.500000572205,12|8,0:1|0:0,0:0:0:0:
282,146,158889,1,8,0:0:0:0:
464,98,158996,5,12,0:1:0:0:
449,80,159103,1,0,3:0:0:0:
430,70,159210,1,8,0:0:0:0:
398,71,159317,1,8,0:0:0:0:
371,101,159425,1,10,0:0:0:0:
379,140,159532,1,8,0:0:0:0:
420,181,159639,1,8,0:3:0:0:
397,247,159746,1,4,0:3:0:0:
320,254,159853,6,0,P|256:234|207:224,1,87.7499928836826,12|0,0:1|0:0,0:0:0:0:
229,61,160067,2,0,P|272:50|313:36,1,87.7499928836826,6|0,0:3|0:0,0:0:0:0:
160,114,160282,6,0,P|154:71|141:29,1,87.7499928836826,10|0,0:0|0:0,0:0:0:0:
236,229,160496,1,6,0:3:0:0:
236,229,160603,1,2,0:1:0:0:
262,136,160710,2,0,P|249:178|243:221,1,87.7499928836826,10|0,0:1|0:0,0:0:0:0:
166,291,160925,1,6,0:3:0:0:
140,198,161032,2,0,P|153:240|159:283,1,87.7499928836826,2|10,0:1|0:0,0:0:0:0:
285,291,161246,5,0,0:0:0:0:
292,296,161353,1,6,0:3:0:0:
313,335,161460,1,2,0:1:0:0:
280,372,161567,2,0,B|240:381|240:381|189:349,1,80.9999946670534,10|0,0:1|0:0,0:0:0:0:
83,303,161782,2,0,B|42:292|42:292|-10:325,1,80.9999946670534,6|0,0:3|0:0,0:0:0:0:
244,221,161996,6,0,B|327:210|275:149|381:124,1,175.499985767365,10|6,0:0|0:3,0:0:0:0:
394,125,162317,1,0,0:0:0:0:
347,48,162425,6,0,P|288:39|250:27,1,87.7499928836826,10|2,0:1|0:1,0:0:0:0:
374,216,162639,1,6,0:3:0:0:
386,210,162746,2,0,P|445:201|483:189,1,87.7499928836826,2|10,0:1|0:0,0:0:0:0:
237,226,162960,5,2,0:1:0:0:
244,221,163067,1,6,0:3:0:0:
297,162,163175,1,2,0:1:0:0:
238,108,163282,2,0,P|266:195|284:323,1,188.999987556458,8|6,0:1|0:3,0:0:0:0:
315,362,163603,1,0,3:0:0:0:
328,358,163710,2,0,P|371:316|332:272,1,94.499993778229,10|0,0:0|0:0,0:0:0:0:
237,226,163925,2,0,P|194:268|233:312,1,94.499993778229,6|0,0:3|3:0,0:0:0:0:
227,383,164139,6,0,B|180:371|180:371|175:363|175:363|117:347,1,94.499993778229,10|0,0:1|0:0,0:0:0:0:
105,196,164353,1,6,0:3:0:0:
137,243,164460,1,0,0:0:0:0:
99,284,164567,2,0,B|52:296|52:296|47:304|47:304|-11:320,1,94.499993778229,10|0,0:0|3:0,0:0:0:0:
1,318,164782,1,8,0:0:0:0:
104,184,164889,6,0,B|129:96|178:138|210:-7,1,215.999992370606,12|0,0:1|0:0,0:0:0:0:
193,0,165210,2,0,P|203:57|210:99,1,80.9999946670534,10|0,0:1|0:3,0:3:0:0:
237,339,165425,2,0,P|244:299|251:259,1,80.9999946670534,12|0,0:0|0:0,0:0:0:0:
293,100,165639,5,8,1:0:0:0:
291,110,165746,1,8,0:0:0:0:
289,118,165853,5,14,0:1:0:0:
312,111,165960,1,0,0:0:0:0:
339,117,166067,1,8,0:0:0:0:
372,136,166175,1,8,0:0:0:0:
385,174,166282,1,10,0:0:0:0:
370,220,166389,1,8,0:0:0:0:
330,274,166496,1,8,0:3:0:0:
345,349,166603,1,4,0:3:0:0:
424,374,166710,6,0,P|479:354|536:346,1,87.7499928836826,12|0,0:1|0:0,0:0:0:0:
265,327,166925,2,0,P|210:347|153:355,1,87.7499928836826,6|0,0:3|0:0,0:0:0:0:
390,217,167139,6,0,P|413:269|390:319,1,87.7499928836826,10|0,0:0|0:0,0:0:0:0:
243,248,167353,1,6,0:3:0:0:
239,240,167460,1,0,0:0:0:0:
250,154,167567,2,0,P|227:206|250:256,1,87.7499928836826,10|0,0:1|0:0,0:0:0:0:
336,144,167782,1,6,0:3:0:0:
325,58,167889,2,0,P|348:110|325:160,1,87.7499928836826,2|10,0:1|0:0,0:0:0:0:
187,91,168103,5,0,0:0:0:0:
195,86,168210,1,6,0:3:0:0:
219,43,168317,1,2,0:1:0:0:
182,11,168425,2,0,B|118:24|118:24|94:63|94:63|5:84,1,175.499985767365,10|2,0:1|0:3,0:0:0:0:
17,81,168746,1,2,0:1:0:0:
86,21,168853,2,0,B|120:51|120:51|105:106,1,87.7499928836826,10|0,0:0|0:0,0:0:0:0:
65,229,169067,2,0,B|31:199|31:199|46:144,1,87.7499928836826,6|2,0:3|0:1,0:0:0:0:
138,174,169282,6,0,L|153:253,1,80.9999946670534,8|0,0:1|0:0,0:0:0:0:
96,311,169496,1,6,0:3:0:0:
18,296,169603,2,0,L|4:375,1,80.9999946670534,0|10,3:0|0:0,0:0:0:0:
295,335,169817,5,0,0:0:0:0:
299,327,169925,1,6,0:3:0:0:
230,289,170032,1,8,0:0:0:0:
172,341,170139,2,0,P|256:321|251:192,1,215.999992370606,12|2,0:1|0:0,0:0:0:0:
197,8,170460,1,0,3:0:0:0:
209,0,170567,2,0,P|252:7|249:74,1,107.999996185303,10|0,0:0|0:0,0:0:0:0:
138,174,170782,6,0,P|187:154|237:125,1,87.7499928836826,8|4,0:3|3:3,0:0:0:0:
357,228,170996,2,0,P|406:248|456:277,1,87.7499928836826,10|0,0:1|0:0,0:0:0:0:
358,59,171210,5,0,1:0:0:0:
355,91,171282,5,0,1:0:0:0:
330,110,171353,5,8,0:3:0:0:
331,142,171425,5,4,0:3:0:0:
509,6,171639,6,0,P|342:103|252:235,1,323.999988555908,12|0,0:1|0:0,0:0:0:0:
259,213,172067,2,0,P|210:176|232:124,1,107.999996185303,10|0,0:1|0:0,0:0:0:0:
358,59,172282,2,0,P|407:96|385:148,1,107.999996185303,12|0,0:0|0:0,0:0:0:0:
354,216,172496,5,0,1:0:0:0:
357,228,172603,1,8,0:0:0:0:
259,64,172710,6,0,P|218:29|169:7,1,107.999996185303,8|0,0:1|3:0,0:0:0:0:
76,42,172925,5,8,0:0:0:0:
68,53,173032,1,8,0:0:0:0:
56,94,173139,1,8,0:0:0:0:
84,143,173246,1,8,0:3:0:0:
144,187,173353,1,4,0:3:0:0:
150,265,173460,1,4,0:3:0:0:
76,323,173567,5,12,0:1:0:0:
76,323,173675,2,0,L|-6:310,1,67.4999976158142,2|0,0:1|0:0,0:0:0:0:
224,199,173889,1,10,0:1:0:0:
224,199,173996,2,0,L|158:188,1,67.4999976158142,14|8,0:3|0:1,0:0:0:0:
227,384,174210,5,2,0:1:0:0:
227,384,174317,2,0,L|161:373,1,67.4999976158142,10|2,0:1|0:3,0:0:0:0:
375,260,174532,1,12,0:3:0:0:
375,260,174639,2,0,L|293:247,1,67.4999976158142,10|0,0:1|0:0,0:0:0:0:
227,293,174853,6,0,L|161:282,1,67.4999976158142,14|8,0:3|0:1,0:0:0:0:
76,232,175067,2,0,L|10:221,1,67.4999976158142,2|0,0:1|3:0,0:0:0:0:
143,69,175282,5,10,0:1:0:0:
143,69,175389,2,0,L|156:-13,1,67.4999976158142,2|0,0:1|0:0,0:0:0:0:
267,217,175603,1,10,0:1:0:0:
267,217,175710,2,0,L|278:150,1,67.4999976158142,14|8,0:3|0:1,0:0:0:0:
82,220,175925,5,2,0:1:0:0:
82,220,176032,2,0,L|93:153,1,67.4999976158142,10|2,0:1|0:3,0:0:0:0:
206,368,176246,1,12,0:3:0:0:
206,368,176353,2,0,L|219:286,1,67.4999976158142,10|0,0:1|0:0,0:0:0:0:
173,220,176567,6,0,L|184:153,1,67.4999976158142,12|8,0:3|0:1,0:0:0:0:
234,69,176782,2,0,L|245:2,1,67.4999976158142,2|8,0:1|0:0,0:0:0:0:
362,159,176996,6,0,P|441:147|475:70,1,161.999989334107,10|0,0:1|0:0,0:0:0:0:
327,230,177317,1,8,0:1:0:0:
319,238,177425,2,0,P|284:221|272:183,1,80.9999946670534,8|0,0:0|0:0,0:0:0:0:
411,238,177639,1,8,0:1:0:0:
405,245,177746,2,0,P|384:294|377:324,1,80.9999946670534,8|0,0:1|0:0,0:0:0:0:
294,97,177960,1,8,0:0:0:0:
386,69,178067,2,0,P|346:74|308:87,1,80.9999946670534,10|0,0:1|3:1,0:0:0:0:
250,17,178282,2,0,P|210:12|172:-1,1,80.9999946670534,12|8,0:3|0:1,0:0:0:0:
52,90,178496,5,2,0:1:0:0:
52,90,178603,1,8,0:0:0:0:
69,0,178710,2,0,P|103:90|114:186,1,161.999989334107,10|2,0:1|0:1,0:0:0:0:
147,231,179032,1,8,0:1:0:0:
162,228,179139,2,0,P|198:187|181:150,1,80.9999946670534,8|0,0:0|0:0,0:0:0:0:
14,202,179353,5,8,0:1:0:0:
22,196,179460,1,0,3:0:0:0:
30,191,179567,1,8,1:2:0:0:
69,221,179675,1,8,1:2:0:0:
48,271,179782,2,0,P|130:265|208:330,1,161.999989334107,12|0,0:1|0:0,0:0:0:0:
263,239,180103,2,0,P|217:174|222:94,1,161.999989334107,12|0,0:1|0:0,0:0:0:0:
436,61,180425,5,12,0:1:0:0:
436,61,180532,2,0,L|518:74,1,67.4999976158142,2|0,0:1|0:0,0:0:0:0:
285,0,180746,1,10,0:1:0:0:
285,0,180853,2,0,L|351:11,1,67.4999976158142,14|8,0:3|0:1,0:0:0:0:
288,185,181067,5,2,0:1:0:0:
288,185,181175,2,0,L|354:196,1,67.4999976158142,10|2,0:1|0:3,0:0:0:0:
137,124,181389,1,12,0:3:0:0:
137,124,181496,2,0,L|219:137,1,67.4999976158142,10|0,0:1|0:0,0:0:0:0:
436,152,181710,6,0,L|502:163,1,67.4999976158142,14|8,0:3|0:1,0:0:0:0:
285,91,181925,2,0,L|351:102,1,67.4999976158142,2|8,0:1|0:0,0:0:0:0:
364,311,182139,5,10,0:1:0:0:
364,311,182246,2,0,L|351:393,1,67.4999976158142,2|0,0:1|0:0,0:0:0:0:
425,160,182460,1,10,0:1:0:0:
425,160,182567,2,0,L|414:227,1,67.4999976158142,14|0,0:3|0:0,0:0:0:0:
240,163,182782,5,10,0:1:0:0:
240,163,182889,2,0,L|229:230,1,67.4999976158142,8|2,0:0|0:3,0:0:0:0:
301,12,183103,1,8,0:0:0:0:
301,12,183210,2,0,L|288:94,1,67.4999976158142,2|8,0:1|0:1,0:0:0:0:
273,311,183425,6,0,L|262:378,1,67.4999976158142,12|0,0:3|0:1,0:0:0:0:
334,160,183639,2,0,L|323:227,1,67.4999976158142,2|0,3:1|3:0,0:0:0:0:
192,299,183853,6,0,B|83:320|134:354|10:370,1,161.999989334107,12|2,0:1|0:1,0:0:0:0:
31,368,184175,1,8,0:1:0:0:
36,283,184282,2,0,P|87:280|105:315,1,80.9999946670534,8|0,0:0|0:0,0:0:0:0:
241,224,184496,1,2,0:1:0:0:
201,188,184603,1,8,0:0:0:0:
157,220,184710,2,0,P|141:130|118:51,1,161.999989334107,8|8,0:1|0:0,0:0:0:0:
117,49,185032,1,0,3:0:0:0:
186,0,185139,5,8,0:3:0:0:
233,11,185246,1,4,0:3:0:0:
288,69,185353,5,8,0:3:0:0:
311,62,185460,1,4,0:3:0:0:
363,0,185567,5,12,0:1:0:0:
345,138,185782,5,8,0:3:0:0:
346,170,185853,5,0,1:0:0:0:
321,189,185925,5,8,0:3:0:0:
318,221,185996,5,10,0:1:0:0:
477,174,186210,6,0,B|512:108|487:43|437:8|437:8|506:32|543:80|555:161|529:224|472:261|408:268|367:265|317:220|317:220|371:245|444:231|477:175,1,809.999946670534,12|0,0:1|0:0,0:0:0:0:
325,257,193496,5,2,0:0:0:0:
309,193,193710,2,0,P|324:237|323:263,1,53.9999980926514,2|0,0:3|0:0,0:0:0:0:
455,160,194139,6,0,P|409:150|375:133,1,60.7499960002901,12|0,0:1|0:0,0:0:0:0:
240,61,194353,2,0,P|225:9|211:-19,1,60.7499960002901,2|0,0:3|0:0,0:0:0:0:
222,135,194567,2,0,P|266:103|338:102,1,101.249996423721,10|0,0:1|0:0,0:0:0:0:
326,94,194782,2,0,P|358:68|354:23,1,67.4999976158142,2|0,0:3|0:0,0:0:0:0:
129,131,194996,6,0,P|147:178|149:205,2,67.4999976158142,10|0|2,0:1|0:0|0:3,0:0:0:0:
185,361,195317,1,2,0:0:0:0:
184,348,195425,2,0,P|201:276|240:209,1,134.999995231628,10|2,0:1|0:3,0:0:0:0:
277,315,195746,5,2,0:0:0:0:
283,323,195853,2,0,P|323:306|364:299,1,67.4999976158142,10|0,0:1|0:0,0:0:0:0:
394,365,196067,2,0,P|431:373|465:389,1,67.4999976158142,2|0,0:3|0:0,0:0:0:0:
484,182,196282,2,0,P|423:204|416:267,1,134.999995231628,10|2,0:1|0:3,0:0:0:0:
425,278,196603,1,0,0:0:0:0:
434,287,196710,1,8,0:1:0:0:
316,209,196925,6,0,P|302:176|298:139,1,74.2499996433258,2|0,0:3|0:0,0:0:0:0:
190,161,197139,2,0,P|205:127|227:97,1,67.4999976158142,10|0,0:1|0:0,0:0:0:0:
147,38,197353,2,0,P|181:24|218:19,1,60.7499960002901,2|0,0:3|0:0,0:0:0:0:
319,16,197567,6,0,P|337:65|356:84,1,67.4999976158142,10|0,0:1|0:0,0:0:0:0:
355,82,197782,1,2,0:3:0:0:
365,86,197889,1,2,0:0:0:0:
297,139,197996,6,0,P|279:188|260:207,1,67.4999976158142,10|0,0:1|0:0,0:0:0:0:
261,205,198210,1,2,0:3:0:0:
251,209,198317,1,2,0:0:0:0:
319,267,198425,6,0,B|342:338|364:306|385:389,1,134.999995231628,10|2,0:1|0:3,0:0:0:0:
459,347,198746,1,0,0:0:0:0:
449,347,198853,2,0,P|399:369|378:391,1,67.4999976158142,12|0,0:1|0:0,0:0:0:0:
314,350,199067,2,0,P|264:328|243:306,1,60.7499960002901,2|0,0:1|0:0,0:0:0:0:
192,367,199282,1,4,0:1:0:0:
256,192,199308,12,0,200996,0:0:0:0:
192,367,202496,6,0,P|183:347|153:332,1,40.4999973335267,2|0,0:0|0:0,0:0:0:0:
116,274,202710,6,0,P|162:257|189:259,1,53.9999980926514,2|0,0:0|0:0,0:0:0:0:
274,235,202925,6,0,P|252:259|246:292,1,67.4999976158142,2|0,0:0|0:0,0:0:0:0:
140,171,203139,6,0,P|139:128|107:81,1,80.9999946670534,2|0,0:0|0:0,0:0:0:0:
230,130,203353,6,0,P|287:149|341:106,1,94.499993778229,2|0,0:0|0:0,0:0:0:0:
99,15,203567,6,0,P|47:0|-2:23,1,107.999996185303,2|2,0:0|0:0,0:0:0:0:
275,65,203782,6,0,P|294:55|306:35,10,43.8749964418413,2|2|2|2|2|2|2|2|2|2|0,0:0|0:0|0:0|0:0|0:0|0:0|0:0|0:0|0:0|0:0|0:0,0:0:0:0:
184,0,204425,6,0,B|306:16|233:86|388:94,1,215.999992370606,12|2,0:1|0:0,0:0:0:0:
387,92,204746,1,8,0:1:0:0:
306,36,204853,2,0,P|247:54|260:125,1,107.999996185303,8|8,0:0|0:1,0:0:0:0:
490,249,205067,5,2,0:0:0:0:
413,274,205175,1,10,0:0:0:0:
369,206,205282,2,0,P|400:107|422:-29,1,215.999992370606,10|8,0:1|0:1,0:0:0:0:
301,156,205603,5,2,0:0:0:0:
291,162,205710,1,10,0:0:0:0:
241,223,205817,5,2,0:0:0:0:
260,268,205925,1,10,0:1:0:0:
221,296,206032,1,2,0:0:0:0:
260,358,206139,6,0,B|299:383|299:383|357:358,1,94.499993778229,10|0,0:1|0:0,0:0:0:0:
204,151,206353,1,2,3:2:0:0:
198,145,206460,2,0,B|153:125|153:125|114:150,1,94.499993778229,8|8,0:1|0:0,0:0:0:0:
103,338,206675,1,8,0:1:0:0:
97,344,206782,2,0,B|52:364|52:364|13:339,1,94.499993778229,2|8,0:0|0:0,0:0:0:0:
86,249,206996,5,10,0:1:0:0:
147,239,207103,1,2,0:0:0:0:
188,279,207210,1,10,0:1:0:0:
191,313,207317,1,2,3:2:0:0:
181,325,207425,5,10,0:0:0:0:
162,268,207532,1,2,0:0:0:0:
186,231,207639,1,10,0:1:0:0:
217,222,207746,1,2,0:0:0:0:
237,230,207853,6,0,P|252:135|287:44,1,188.999987556458,12|2,0:1|0:0,0:0:0:0:
153,8,208175,1,8,0:1:0:0:
102,72,208282,1,8,0:0:0:0:
178,110,208389,2,0,P|177:60|159:14,1,94.499993778229,10|0,0:1|0:0,0:0:0:0:
279,153,208603,1,8,0:0:0:0:
369,110,208710,6,0,P|325:115|282:144,1,94.499993778229,10|0,0:1|0:0,0:0:0:0:
150,261,208925,2,0,P|106:256|63:227,1,94.499993778229,8|2,0:1|0:0,0:0:0:0:
20,153,209139,1,10,0:0:0:0:
210,195,209353,5,8,0:0:0:0:
283,142,209460,2,0,P|337:137|363:265,1,202.500000572205,12|0,0:1|0:0,0:0:0:0:
225,295,209782,2,0,P|198:292|170:362,1,101.250000286102,10|0,0:1|0:0,0:0:0:0:
289,351,209996,5,12,0:0:0:0:
305,337,210103,1,0,0:0:0:0:
311,316,210210,1,8,0:1:0:0:
307,295,210317,1,8,0:0:0:0:
372,255,210425,5,10,0:1:0:0:
363,206,210532,1,2,0:0:0:0:
336,166,210639,1,10,0:0:0:0:
288,151,210746,1,10,0:1:0:0:
257,80,210853,5,10,0:0:0:0:
187,40,210960,1,10,0:0:0:0:
112,60,211067,1,8,0:3:0:0:
76,131,211175,1,4,0:3:0:0:
0,164,211282,6,0,P|33:279|130:287,1,215.999992370606,12|8,0:1|0:1,0:0:0:0:
128,290,211603,1,0,0:0:0:0:
87,367,211710,2,0,P|45:347|35:303,1,94.499993778229,8|8,0:0|0:1,0:0:0:0:
163,214,211925,2,0,P|204:233|214:277,1,94.499993778229,2|8,0:0|0:0,0:0:0:0:
80,210,212139,6,0,B|192:197|130:127|256:114,2,188.999987556458,10|8|8,0:1|0:1|0:0,0:0:0:0:
290,181,212675,5,10,0:1:0:0:
329,170,212782,1,0,0:0:0:0:
358,198,212889,1,8,0:0:0:0:
403,131,212996,6,0,P|401:81|420:38,1,94.499993778229,10|0,0:1|0:0,0:0:0:0:
306,258,213210,2,0,P|288:302|290:349,1,94.499993778229,8|2,0:1|3:2,0:0:0:0:
243,111,213425,5,8,0:0:0:0:
203,180,213532,2,0,P|163:193|116:162,2,94.499993778229,10|2|8,0:1|0:0|0:0,0:0:0:0:
184,24,213853,6,0,B|200:-25|119:-59|74:3|101:86|168:100,1,215.999992370606,8|10,0:1|0:1,0:0:0:0:
160,100,214175,1,10,0:0:0:0:
73,73,214282,2,0,B|23:61|48:42|-24:32,1,80.9999946670534,10|2,0:0|3:2,0:0:0:0:
103,252,214496,6,0,B|153:279|230:247|231:159|195:195|205:113|282:78|347:105,1,323.999988555908,12|0,0:1|0:0,0:0:0:0:
461,208,214925,6,0,P|490:201|517:187,1,53.9999980926514,10|0,0:0|0:0,0:0:0:0:
417,280,215139,6,0,P|405:327|399:408,1,67.4999976158142,10|0,0:0|0:0,0:0:0:0:
338,272,215353,6,0,P|331:231|321:192,1,80.9999946670534,10|0,0:0|0:0,0:0:0:0:
492,345,215567,6,0,P|440:373|401:334,1,94.499993778229,10|0,0:0|0:0,0:0:0:0:
312,180,215782,6,0,P|365:143|404:182,1,107.999996185303,10|0,0:0|0:0,0:0:0:0:
324,362,215996,6,0,P|294:347|235:334,1,80.9999946670534,10|0,0:0|0:0,0:0:0:0:
62,212,216210,6,0,B|28:208|6:236|13:242|-18:266|-18:266|67:328|137:294|156:228|145:194|145:194|154:198|154:198|146:112|227:84,1,485.999968002321,12|2,0:1|0:3,0:0:0:0:
229,84,216746,1,8,0:1:0:0:
231,264,216853,2,0,B|189:257|154:195|154:195|145:200|145:200|131:124|44:127,1,242.99998400116,12|0,0:0|0:0,0:0:0:0:
45,127,217175,1,8,0:0:0:0:
249,175,217282,6,0,P|309:174|341:127,1,87.7499928836826,12|0,0:1|3:0,0:0:0:0:
345,0,217496,2,0,P|315:52|340:103,1,87.7499928836826,8|0,0:0|0:0,0:0:0:0:
424,347,217710,5,10,0:0:0:0:
487,297,217817,1,8,0:0:0:0:
503,219,217925,1,8,0:3:0:0:
469,147,218032,1,4,0:3:0:0:
397,115,218139,6,0,P|354:103|320:77,1,87.7499928836826,12|0,0:1|0:0,0:0:0:0:
166,145,218353,2,0,P|209:157|243:183,1,87.7499928836826,6|0,0:3|0:0,0:0:0:0:
222,0,218567,6,0,P|234:42|239:85,1,87.7499928836826,10|0,0:0|0:0,0:0:0:0:
302,251,218782,1,6,0:3:0:0:
308,258,218889,1,2,0:1:0:0:
336,182,218996,2,0,P|323:224|318:267,1,87.7499928836826,10|0,0:1|0:0,0:0:0:0:
240,344,219210,1,6,0:3:0:0:
215,267,219317,2,0,P|227:309|232:352,1,87.7499928836826,2|10,0:1|0:0,0:0:0:0:
406,282,219532,5,0,0:0:0:0:
413,287,219639,1,6,0:3:0:0:
434,326,219746,1,2,0:1:0:0:
401,363,219853,2,0,B|361:372|361:372|310:340,1,80.9999946670534,10|0,0:1|0:0,0:0:0:0:
215,267,220067,2,0,B|174:256|174:256|122:289,1,80.9999946670534,6|0,0:3|0:0,0:0:0:0:
33,375,220282,6,0,P|24:316|12:278,1,87.7499928836826,10|0,0:0|0:0,0:0:0:0:
0,208,220496,1,6,0:3:0:0:
0,208,220603,1,0,0:0:0:0:
80,228,220710,2,0,P|89:169|101:131,1,87.7499928836826,10|2,0:1|0:1,0:0:0:0:
109,59,220925,1,6,0:3:0:0:
27,87,221032,2,0,P|18:28|6:-10,1,87.7499928836826,2|10,0:1|0:0,0:0:0:0:
270,67,221246,5,2,0:1:0:0:
278,75,221353,1,6,0:3:0:0:
249,147,221460,1,2,0:1:0:0:
176,122,221567,2,0,P|288:99|378:46,1,188.999987556458,12|6,0:1|0:3,0:0:0:0:
424,4,221889,1,0,3:0:0:0:
414,12,221996,2,0,P|401:58|437:104,1,94.499993778229,10|0,0:0|0:0,0:0:0:0:
512,90,222210,2,0,P|524:43|488:-2,1,94.499993778229,6|0,0:3|3:0,0:0:0:0:
324,139,222425,6,0,B|331:187|331:187|338:192|338:192|349:251,1,94.499993778229,10|8,0:1|0:0,0:0:0:0:
512,210,222639,1,6,0:3:0:0:
474,174,222746,1,0,0:0:0:0:
432,208,222853,2,0,B|424:256|424:256|417:261|417:261|406:320,1,94.499993778229,10|0,0:0|3:0,0:0:0:0:
407,310,223067,1,8,0:0:0:0:
285,282,223175,6,0,B|158:258|226:221|65:191,1,215.999992370606,12|0,0:1|0:0,0:0:0:0:
98,206,223496,2,0,P|162:193|204:186,1,80.9999946670534,10|0,0:1|0:3,0:3:0:0:
423,96,223710,2,0,P|383:89|343:81,1,80.9999946670534,12|0,0:0|0:0,0:0:0:0:
261,92,223925,5,8,1:0:0:0:
253,100,224032,1,8,0:0:0:0:
248,113,224139,1,14,0:1:0:0:
245,133,224246,1,0,0:0:0:0:
250,163,224353,1,8,0:0:0:0:
274,190,224460,1,8,0:0:0:0:
320,201,224567,1,10,0:0:0:0:
359,171,224675,1,8,0:0:0:0:
423,163,224782,1,8,0:3:0:0:
493,202,224889,1,4,0:3:0:0:
496,281,224996,6,0,P|477:336|471:393,1,87.7499928836826,12|0,0:1|0:0,0:0:0:0:
489,112,225210,2,0,P|507:56|513:0,1,87.7499928836826,6|0,0:3|0:0,0:0:0:0:
332,235,225425,6,0,P|370:255|412:248,1,87.7499928836826,10|0,0:0|0:0,0:0:0:0:
353,81,225639,1,6,0:3:0:0:
346,78,225746,1,0,0:0:0:0:
261,92,225853,2,0,P|312:67|362:88,1,87.7499928836826,10|0,0:1|0:0,0:0:0:0:
254,181,226067,1,6,0:3:0:0:
168,174,226175,2,0,P|220:195|269:170,1,87.7499928836826,2|10,0:1|0:0,0:0:0:0:
173,87,226389,5,0,0:0:0:0:
168,77,226496,1,6,0:3:0:0:
133,57,226603,1,2,0:1:0:0:
96,84,226710,2,0,B|76:119|76:119|88:165,1,80.9999946670534,10|0,0:1|0:0,0:0:0:0:
238,261,226925,2,0,B|259:227|259:227|247:181,1,80.9999946670534,2|2,0:3|0:1,0:0:0:0:
25,209,227139,2,0,B|33:262|33:262|69:293|69:293|83:369,1,161.999989334107,10|6,0:0|0:3,0:0:0:0:
82,367,227460,1,2,0:1:0:0:
9,291,227567,6,0,L|116:271,1,80.9999946670534,8|2,0:1|0:1,0:0:0:0:
153,324,227782,1,6,0:3:0:0:
220,368,227889,2,0,L|327:348,1,80.9999946670534,0|10,3:0|0:0,0:0:0:0:
388,382,228103,5,0,0:0:0:0:
384,376,228210,1,6,0:3:0:0:
445,326,228317,1,8,0:0:0:0:
512,368,228425,2,0,P|426:368|409:235,1,215.999992370606,12|2,0:1|0:0,0:0:0:0:
419,187,228746,1,0,3:0:0:0:
307,263,228853,2,0,P|274:271|191:276,1,87.7499928836826,12|0,0:0|0:0,0:0:0:0:
289,118,229067,6,0,P|335:156|319:204,1,87.7499928836826,8|8,0:0|0:0,0:0:0:0:
138,292,229282,2,0,P|146:334|184:354,1,87.7499928836826,10|0,0:1|0:0,0:0:0:0:
221,277,229496,5,0,1:0:0:0:
220,245,229567,5,0,1:0:0:0:
245,226,229639,5,8,0:3:0:0:
248,194,229710,5,4,0:3:0:0:
270,361,229925,6,0,P|228:239|196:53,1,303.750000858307,12|0,0:1|0:0,0:0:0:0:
205,66,230353,2,0,P|211:109|170:147,1,101.250000286102,10|0,0:1|0:0,0:0:0:0:
38,98,230567,2,0,P|80:105|116:81,1,87.7499928836826,12|0,0:0|0:0,0:0:0:0:
145,7,230782,5,0,1:0:0:0:
139,0,230889,1,8,0:0:0:0:
292,47,230996,6,0,B|325:38|325:38|334:23|334:23|388:7,1,94.499993778229,8|0,0:1|3:0,0:0:0:0:
494,98,231210,5,8,0:0:0:0:
506,123,231317,1,8,0:0:0:0:
506,170,231425,1,8,0:3:0:0:
464,217,231532,1,8,0:3:0:0:
386,226,231639,1,4,0:3:0:0:
314,185,231746,1,4,0:3:0:0:
255,127,231853,6,0,P|275:230|286:338,1,175.499985767365,12|2,0:1|0:3,0:0:0:0:
309,373,232175,1,2,0:1:0:0:
319,378,232282,2,0,P|357:358|299:302,1,87.7499928836826,10|0,0:0|0:0,0:0:0:0:
168,137,232496,5,6,0:3:0:0:
159,182,232603,1,2,0:1:0:0:
197,207,232710,2,0,B|287:194|236:126|388:119,1,188.999987556458,10|2,0:1|0:3,0:0:0:0:
372,121,233032,1,2,0:1:0:0:
297,56,233139,6,0,P|236:38|208:16,1,94.499993778229,10|2,0:0|0:1,0:0:0:0:
174,111,233353,2,0,P|113:129|85:151,1,94.499993778229,6|2,0:3|0:1,0:0:0:0:
3,48,233567,6,0,P|68:53|75:153,1,161.999989334107,10|2,0:1|0:3,0:0:0:0:
32,203,233889,1,2,0:1:0:0:
25,212,233996,5,10,0:0:0:0:
22,243,234103,1,0,0:0:0:0:
43,281,234210,1,6,0:3:0:0:
101,304,234317,1,2,0:1:0:0:
163,264,234425,5,10,0:1:0:0:
185,193,234532,1,2,0:1:0:0:
246,173,234639,1,2,0:3:0:0:
290,196,234746,1,2,0:1:0:0:
305,221,234853,5,10,0:0:0:0:
325,227,234960,1,2,0:1:0:0:
375,171,235067,5,6,0:3:0:0:
405,160,235175,1,2,0:1:0:0:
475,193,235282,6,0,P|449:256|431:366,1,175.499985767365,12|2,0:1|0:3,0:0:0:0:
431,373,235603,1,2,0:1:0:0:
405,284,235710,2,0,P|386:259|317:253,1,87.7499928836826,10|0,0:0|0:0,0:0:0:0:
177,289,235925,5,2,0:3:0:0:
185,299,236032,1,0,0:1:0:0:
258,350,236139,6,0,P|311:332|352:325,2,74.2499996433258,10|8|2,0:1|0:0|0:3,0:0:0:0:
241,357,236460,1,2,0:1:0:0:
258,266,236567,5,10,0:0:0:0:
252,221,236675,1,8,0:0:0:0:
208,212,236782,1,8,0:0:0:0:
131,178,236889,6,0,P|116:116|58:14,1,175.499985767365,12|0,0:1|0:0,0:0:0:0:
58,30,237210,2,0,P|97:77|153:71,1,87.7499928836826,8|0,0:1|0:0,0:0:0:0:
207,131,237425,6,0,P|223:119|297:96,1,87.7499928836826,14|0,0:0|0:0,0:0:0:0:
332,31,237639,2,0,P|374:42|411:65,1,87.7499928836826,0|8,3:0|0:0,0:0:0:0:
463,269,237853,6,0,B|415:266|402:226|402:226|390:225|390:225|374:184|305:176,1,175.499985767365,12|0,0:1|1:0,0:0:0:0:
310,180,238175,1,8,0:0:0:0:
474,186,238282,2,0,P|495:129|517:92,2,87.7499928836826,10|0|8,0:1|0:0|0:3,0:0:0:0:
370,258,238603,1,4,0:3:0:0:
228,213,238710,6,0,P|161:212|123:332,1,188.999987556458,12|0,0:1|0:0,0:0:0:0:
175,364,239032,1,2,0:3:0:0:
185,366,239139,2,0,P|210:323|172:283,1,80.9999946670534,8|0,0:0|0:0,0:0:0:0:
39,263,239353,2,0,P|14:306|52:346,1,80.9999946670534,2|0,0:3|0:0,0:0:0:0:
290,275,239567,6,0,B|397:301|338:340|481:354,1,175.499985767365,8|2,0:1|0:3,0:0:0:0:
452,337,239889,1,2,0:3:0:0:
360,340,239996,2,0,P|295:360|273:379,1,74.2499996433258,8|0,0:0|0:0,0:0:0:0:
228,213,240210,5,2,0:3:0:0:
257,184,240317,1,0,0:0:0:0:
300,194,240425,2,0,P|317:111|344:26,1,161.999989334107,10|2,0:1|0:3,0:0:0:0:
200,307,240746,1,2,0:1:0:0:
199,297,240853,2,0,P|182:214|155:129,1,161.999989334107,10|6,0:0|0:3,0:0:0:0:
84,32,241175,1,2,0:1:0:0:
4,61,241282,5,10,0:1:0:0:
12,82,241389,2,0,P|43:106|83:113,1,80.9999946670534,2|2,0:1|0:3,0:0:0:0:
162,62,241603,1,2,0:1:0:0:
178,51,241710,2,0,B|222:58|242:95|242:95|265:56|321:57,1,161.999989334107,10|6,0:0|0:3,0:0:0:0:
487,95,242032,1,2,0:1:0:0:
419,43,242139,5,12,0:1:0:0:
388,71,242246,1,0,0:0:0:0:
399,112,242353,1,2,0:1:0:0:
410,117,242460,1,2,0:1:0:0:
464,170,242567,5,10,0:0:0:0:
479,218,242675,1,0,0:0:0:0:
442,256,242782,1,2,0:1:0:0:
427,255,242889,1,2,0:1:0:0:
366,317,242996,6,0,L|377:361,8,40.4999973335267,8|0|0|0|0|0|0|0|8,0:1|0:0|0:0|0:0|1:0|0:0|0:0|0:0|0:1,0:0:0:0:
376,190,243639,6,0,B|282:109|256:177|202:187|202:187|249:255|307:225,1,303.750000858307,12|0,0:1|0:0,0:0:0:0:
376,190,244067,2,0,P|421:165|407:100,1,101.250000286102,8|0,0:1|0:0,0:0:0:0:
269,68,244282,2,0,B|272:41|296:35|308:10|308:10|365:62|332:116,1,188.999987556458,12|0,0:0|3:0,0:0:0:0:
326,128,244603,1,8,0:0:0:0:
195,100,244710,2,0,B|157:91|157:91|154:85|154:85|101:72,1,80.9999946670534,12|0,0:1|0:0,0:0:0:0:
54,18,244925,5,8,0:0:0:0:
41,31,245032,1,8,0:0:0:0:
29,63,245139,1,10,0:0:0:0:
32,104,245246,1,8,0:0:0:0:
65,146,245353,1,8,0:3:0:0:
133,159,245460,1,4,0:3:0:0:
206,113,245567,6,0,P|226:58|234:1,1,87.7499928836826,12|0,0:1|0:0,0:0:0:0:
233,283,245782,2,0,P|213:338|205:395,1,87.7499928836826,6|0,0:3|0:1,0:0:0:0:
290,217,245996,6,0,P|238:194|188:217,1,87.7499928836826,10|0,0:0|0:0,0:0:0:0:
298,356,246210,1,6,0:3:0:0:
306,360,246317,1,2,0:1:0:0:
392,349,246425,2,0,P|340:372|290:349,1,87.7499928836826,10|0,0:1|0:0,0:0:0:0:
365,271,246639,1,6,0:3:0:0:
451,282,246746,2,0,P|399:259|349:282,1,87.7499928836826,2|10,0:1|0:0,0:0:0:0:
416,34,246960,5,0,0:0:0:0:
420,23,247067,1,6,0:3:0:0:
463,0,247175,1,2,0:1:0:0:
495,36,247282,2,0,B|482:100|482:100|443:124|443:124|422:213,1,175.499985767365,10|6,0:1|0:3,0:0:0:0:
342,73,247603,1,0,0:1:0:0:
334,61,247710,2,0,B|304:27|304:27|249:42,1,87.7499928836826,10|0,0:0|0:0,0:0:0:0:
126,82,247925,2,0,B|156:116|156:116|211:101,1,87.7499928836826,6|2,0:3|0:1,0:0:0:0:
277,123,248139,6,0,L|292:202,1,80.9999946670534,10|0,0:1|0:0,0:0:0:0:
241,263,248353,1,6,0:3:0:0:
169,232,248460,2,0,L|155:311,1,80.9999946670534,2|10,0:1|0:0,0:0:0:0:
30,224,248675,5,0,0:0:0:0:
24,216,248782,1,6,0:3:0:0:
53,177,248889,1,2,0:1:0:0:
98,195,248996,2,0,P|70:89|43:27,1,175.499985767365,10|2,0:1|0:3,0:0:0:0:
40,19,249317,1,0,0:1:0:0:
109,83,249425,2,0,P|122:34|139:-7,2,87.7499928836826,10|0|2,0:0|0:0|0:3,0:0:0:0:
107,95,249746,1,0,0:1:0:0:
174,148,249853,6,0,B|285:134|222:97|359:72,1,175.499985767365,10|2,0:1|0:3,0:0:0:0:
344,77,250175,1,0,3:1:0:0:
253,74,250282,5,10,0:0:0:0:
210,54,250389,1,8,0:0:0:0:
212,10,250496,1,14,0:3:0:0:
297,0,250603,6,0,P|260:198|249:300,1,283.499981334687,12|8,0:1|0:1,0:0:0:0:
250,291,251032,1,0,0:0:0:0:
269,365,251139,5,12,0:3:0:0:
290,365,251246,1,2,0:1:0:0:
309,353,251353,1,6,0:3:0:0:
319,334,251460,1,14,0:3:0:0:
328,260,251567,5,10,0:1:0:0:
354,217,251675,1,2,0:1:0:0:
393,189,251782,1,14,0:3:0:0:
444,190,251889,1,12,0:3:0:0:
485,123,251996,5,10,0:1:0:0:
458,51,252103,1,12,0:3:0:0:
391,20,252210,1,8,0:3:0:0:
322,49,252317,1,4,0:3:0:0:
305,127,252425,6,0,P|257:107|203:102,1,87.7499928836826,12|0,0:1|0:0,0:0:0:0:
393,102,252639,2,0,P|441:122|495:127,1,87.7499928836826,10|0,0:1|3:0,0:0:0:0:
269,275,252853,6,0,P|246:223|269:173,1,87.7499928836826,12|0,0:1|3:0,0:0:0:0:
420,268,253067,1,10,0:1:0:0:
424,276,253175,1,0,0:0:0:0:
413,362,253282,2,0,P|436:310|413:260,1,87.7499928836826,12|0,0:1|0:0,0:0:0:0:
308,133,253496,1,0,0:0:0:0:
349,216,253603,2,0,B|254:198|308:132|167:118,1,175.499985767365,12|0,0:1|3:0,0:0:0:0:
46,86,253925,5,10,0:1:0:0:
26,121,254032,1,8,0:0:0:0:
53,158,254139,2,0,B|88:178|88:178|134:166,1,80.9999946670534,12|0,0:1|0:0,0:0:0:0:
250,55,254353,2,0,B|216:34|216:34|170:46,1,80.9999946670534,8|2,0:1|0:1,0:0:0:0:
203,209,254567,2,0,B|211:262|211:262|247:293|247:293|261:369,1,161.999989334107,12|10,0:1|0:1,0:0:0:0:
259,362,254889,1,0,0:0:0:0:
284,273,254996,6,0,L|391:253,1,80.9999946670534,12|0,0:1|0:0,0:0:0:0:
432,298,255210,1,0,0:0:0:0:
398,370,255317,2,0,L|505:390,1,80.9999946670534,12|0,0:1|0:0,0:0:0:0:
337,123,255639,6,0,P|305:76|240:88,1,80.9999946670534,8|0,0:0|0:0,0:0:0:0:
281,186,255853,2,0,P|308:89|395:-43,1,188.999987556458,12|2,0:1|0:0,0:0:0:0:
225,10,256175,5,0,3:0:0:0:
212,13,256282,2,0,P|189:59|208:95,1,67.4999976158142,10|0,0:0|0:0,0:0:0:0:
75,107,256496,6,0,P|109:158|157:160,1,80.9999946670534,8|4,0:3|3:3,0:0:0:0:
116,284,256710,6,0,P|187:279|218:231,1,94.499993778229,10|0,0:1|0:0,0:0:0:0:
316,366,256925,6,0,P|354:288|322:228,1,107.999996185303,0|8,1:0|0:0,0:0:0:0:
488,185,257139,6,0,P|430:98|348:95,1,121.49999200058,4|4,0:3|0:3,0:0:0:0:
384,187,257353,6,0,P|262:139|72:98,1,303.750000858307,12|0,0:1|0:0,0:0:0:0:
87,93,257782,2,0,P|130:94|160:141,1,101.250000286102,10|0,0:1|0:0,0:0:0:0:
89,262,257996,2,0,P|103:221|85:182,1,87.7499928836826,12|0,0:0|0:0,0:0:0:0:
15,138,258210,5,0,1:0:0:0:
7,143,258317,1,8,0:0:0:0:
180,216,258425,6,0,B|219:208|219:208|225:201|225:201|278:191,1,94.499993778229,8|0,0:1|3:0,0:0:0:0:
455,38,258639,5,8,0:0:0:0:
489,80,258746,1,8,0:0:0:0:
485,137,258853,1,8,0:3:0:0:
442,173,258960,1,8,0:3:0:0:
385,169,259067,1,12,0:1:0:0:
348,125,259175,1,2,0:0:0:0:
352,69,259282,5,2,0:0:0:0:
270,116,259496,2,0,P|241:105|191:90,2,67.4999976158142,2|0|0,0:0|0:0|0:0,0:0:0:0:
150,171,260139,5,2,0:0:0:0:
204,224,260353,2,0,P|224:216|259:205,2,53.9999980926514
308,279,260996,5,2,0:0:0:0:
296,304,261210,5,0,0:0:0:0:
290,318,261425,5,0,0:0:0:0:
287,327,261639,5,2,0:0:0:0:
187,360,262067,5,0,0:0:0:0:
153,337,262282,1,2,0:0:0:0:
36,359,262500,6,0,P|30:343|26:334,2,20.2499986667634,0|0|2,0:0|0:0|0:0,0:0:0:0:
68,239,262960,5,0,0:0:0:0:
161,203,263202,5,0,0:0:0:0:
240,235,263452,5,0,0:0:0:0:
331,214,263729,5,2,0:0:0:0:
404,135,264044,5,2,0:0:0:0:
415,11,264441,5,0,0:0:0:0:
192,104,264892,6,0,P|212:79|237:68,1,50.6249982118607
239,66,265163,2,0,P|256:63|273:66,1,33.7499988079071,2|2,0:0|0:0,0:0:0:0:
283,70,265344,2,0,P|326:131|191:107,1,323.999988555908,2|0,0:0|0:0,0:0:0:0:
