osu file format v14

[General]
AudioFilename: audio.mp3
AudioLeadIn: 0
PreviewTime: 66515
Countdown: 0
SampleSet: Soft
StackLeniency: 0.7
Mode: 0
LetterboxInBreaks: 0
WidescreenStoryboard: 0

[Editor]
Bookmarks: 17799,60172,60849,138646,166939,188465,199143,199482,205244,214736,215414,277109
DistanceSpacing: 1.7
BeatDivisor: 4
GridSize: 32
TimelineZoom: 2.4

[Metadata]
Title:The One and Only
TitleUnicode:The One and Only
Artist:Tsuki no Tempest
ArtistUnicode:月のテンペスト
Creator:SayuMana
Version:The Light of the Moon
Source:IDOLY PRIDE
Tags:Moon Tempest 星見プロダクション所属 Hoshimi Production 長瀬琴乃 Nagase Kotono 橘美來 Tachibana Mirai 伊吹渚 Ibuki Nagisa 夏目ここな Natsume Kokona 白石沙季 Shiraishi Saki 宮沢小春 Miyazawa Koharu 成宮すず Narumiya Suzu 相川奏多 Aikawa Kanata 早坂芽衣 Hayasaka Mei 日向もか Moka Hinata japanese anime video game pop jpop j-pop idol girl female vocals vocalist idols ckharv
BeatmapID:3632345
BeatmapSetID:1774018

[Difficulty]
HPDrainRate:5
CircleSize:3.8
OverallDifficulty:9
ApproachRate:9.3
SliderMultiplier:1.7
SliderTickRate:1

[Events]
//Background and Video events
0,0,"bg.jpg",0,0
Video,0,"video.m4v"
//Break Periods
2,206600,211470
//Storyboard Layer 0 (Background)
//Storyboard Layer 1 (Fail)
//Storyboard Layer 2 (Pass)
//Storyboard Layer 3 (Foreground)
//Storyboard Layer 4 (Overlay)
//Storyboard Sound Samples

[TimingPoints]
161,338.983050847458,4,2,1,100,1,0
330,-100,4,2,1,40,0,0
499,338.983050847458,4,2,1,40,1,0
499,-125,4,2,1,40,0,0
11346,-111.111111111111,4,2,1,60,0,0
13973,-111.111111111111,4,2,1,5,0,0
14058,-111.111111111111,4,2,1,60,0,0
15414,-142.857142857143,4,2,1,60,0,0
15583,-142.857142857143,4,2,1,40,0,0
17787,-142.857142857143,4,2,1,5,0,0
18126,-90.9090909090909,4,2,1,80,0,0
23634,-90.9090909090909,4,2,1,5,0,0
23719,-90.9090909090909,4,2,1,80,0,0
23804,-90.9090909090909,4,2,1,5,0,0
23888,-90.9090909090909,4,2,1,80,0,0
23973,-90.9090909090909,4,2,1,5,0,0
24058,-90.9090909090909,4,2,1,80,0,0
24143,-90.9090909090909,4,2,1,5,0,0
24227,-90.9090909090909,4,2,1,80,0,0
24312,-90.9090909090909,4,2,1,5,0,0
24397,-90.9090909090909,4,2,1,80,0,0
24482,-90.9090909090909,4,2,1,5,0,0
24566,-90.9090909090909,4,2,1,80,0,0
29651,-90.9090909090909,4,2,1,85,0,0
30329,-90.9090909090909,4,2,1,80,0,0
31685,-111.111111111111,4,2,1,40,0,0
42193,-249.999999999999,4,2,1,40,0,0
42448,-249.999999999999,4,2,1,5,0,0
42532,-111.111111111111,4,2,1,50,0,0
47956,-100,4,2,1,60,0,0
53380,-142.857142857143,4,2,1,40,0,0
57617,-142.857142857143,4,2,1,5,0,0
57702,-142.857142857143,4,2,1,40,0,0
58465,-333.333333333334,4,2,1,40,0,0
58719,-333.333333333334,4,2,1,5,0,0
58804,-83.3333333333333,4,2,1,60,0,0
59143,-100,4,2,1,60,0,0
60160,-100,4,2,1,70,0,0
60837,-100,4,2,1,75,0,0
61176,-100,4,2,1,70,0,0
61515,-111.111111111111,4,2,1,60,0,0
64227,-100,4,2,1,70,0,0
66939,-90.9090909090909,4,2,1,80,0,1
88295,-83.3333333333333,4,2,1,80,0,1
88549,-83.3333333333333,4,2,1,5,0,1
88634,-90.9090909090909,4,2,1,80,0,1
97448,-90.9090909090909,4,2,1,85,0,1
99482,-90.9090909090909,4,2,1,80,0,0
104990,-90.9090909090909,4,2,1,5,0,0
105075,-90.9090909090909,4,2,1,80,0,0
105160,-90.9090909090909,4,2,1,5,0,0
105244,-90.9090909090909,4,2,1,80,0,0
105329,-90.9090909090909,4,2,1,5,0,0
105414,-90.9090909090909,4,2,1,80,0,0
105499,-90.9090909090909,4,2,1,5,0,0
105583,-90.9090909090909,4,2,1,80,0,0
105668,-90.9090909090909,4,2,1,5,0,0
105753,-90.9090909090909,4,2,1,80,0,0
105838,-90.9090909090909,4,2,1,5,0,0
105922,-90.9090909090909,4,2,1,80,0,0
109821,-90.9090909090909,4,2,1,35,0,0
110329,-125,4,2,1,40,0,0
121176,-111.111111111111,4,2,1,50,0,0
126600,-100,4,2,1,60,0,0
132024,-142.857142857143,4,2,1,40,0,0
136346,-142.857142857143,4,2,1,5,0,0
136431,-142.857142857143,4,2,1,40,0,0
136515,-142.857142857143,4,2,1,5,0,0
136770,-142.857142857143,4,2,1,40,0,0
137109,-250.000000000001,4,2,1,40,0,0
137363,-250.000000000001,4,2,1,5,0,0
137448,-100,4,2,1,50,0,0
140160,-100,4,2,1,60,0,0
142871,-100,4,2,1,70,0,0
144736,-100,4,2,1,75,0,0
145244,-83.3333333333333,4,2,1,75,0,0
145583,-90.9090909090909,4,2,1,80,0,1
156092,-83.3333333333333,4,2,1,80,0,1
156346,-83.3333333333333,4,2,1,80,0,1
156431,-90.9090909090909,4,2,1,80,0,1
175414,-90.9090909090909,4,2,1,85,0,1
178126,-90.9090909090909,4,2,1,70,0,0
182617,-90.9090909090909,4,2,1,5,0,0
182702,-90.9090909090909,4,2,1,70,0,0
182787,-90.9090909090909,4,2,1,5,0,0
182871,-90.9090909090909,4,2,1,70,0,0
182956,-90.9090909090909,4,2,1,5,0,0
183041,-90.9090909090909,4,2,1,70,0,0
183126,-90.9090909090909,4,2,1,5,0,0
183210,-90.9090909090909,4,2,1,70,0,0
183295,-90.9090909090909,4,2,1,5,0,0
183380,-90.9090909090909,4,2,1,70,0,0
196770,-90.9090909090909,4,2,1,70,0,0
196854,-90.9090909090909,4,2,1,70,0,0
196939,-90.9090909090909,4,2,1,70,0,0
197024,-90.9090909090909,4,2,1,70,0,0
197109,-83.3333333333333,4,2,1,70,0,0
197617,-76.9230769230769,4,2,1,70,0,0
198465,-90.9090909090909,4,2,1,70,0,0
199821,-111.111111111111,4,2,1,60,0,0
203888,-111.111111111111,4,2,1,70,0,0
205922,-111.111111111111,4,2,1,40,0,0
206600,-125,4,2,1,40,0,0
212024,-100,4,2,1,70,0,0
215414,-100,4,2,1,75,0,0
218804,-90.9090909090909,4,2,1,80,0,1
238041,-90.9090909090909,4,2,1,5,0,1
238126,-90.9090909090909,4,2,1,80,0,1
238210,-90.9090909090909,4,2,1,5,0,1
238295,-90.9090909090909,4,2,1,80,0,1
238380,-90.9090909090909,4,2,1,5,0,1
238465,-90.9090909090909,4,2,1,80,0,1
248634,-90.9090909090909,4,2,1,85,0,1
252702,-90.9090909090909,4,2,1,80,0,0
277109,-125,4,2,1,40,0,0
280837,-222.222222222222,4,2,1,40,0,0
281515,-222.222222222222,4,2,1,5,0,0
282000,400,4,2,1,40,1,0
282240,504.201680672269,4,2,1,40,1,0
284508,-166.666666666667,4,2,1,40,0,0
284761,-166.666666666667,4,2,1,5,0,0

[Colours]
Combo1 : 255,193,142
Combo2 : 255,251,168
Combo3 : 215,155,255
Combo4 : 158,145,255

[HitObjects]
50,80,330,6,0,L|44:33,1,42.5,2|2,0:0|0:0,0:0:0:0:
125,119,499,2,0,P|117:181|107:255,1,136,2|0,0:0|0:0,0:0:0:0:
61,337,1007,1,2,0:0:0:0:
61,337,1092,1,2,0:0:0:0:
61,337,1176,2,0,P|126:346|185:304,1,136,2|2,0:0|0:0,0:0:0:0:
258,83,1854,5,2,0:0:0:0:
330,45,2024,1,2,0:0:0:0:
408,64,2193,1,2,0:0:0:0:
441,138,2363,1,2,0:0:0:0:
441,138,3041,2,0,L|486:131,1,34,2|2,0:0|0:0,0:0:0:0:
342,157,3210,5,2,0:0:0:0:
304,229,3380,1,2,0:0:0:0:
323,307,3549,1,2,0:0:0:0:
397,340,3719,1,2,0:0:0:0:
404,330,4057,5,2,0:0:0:0:
262,384,4227,1,2,0:0:0:0:
342,157,4566,6,0,B|268:146|282:197|199:180,1,136,2|0,0:0|0:0,0:0:0:0:
32,73,5244,1,2,0:0:0:0:
98,13,5414,1,2,0:0:0:0:
116,99,5583,1,2,0:0:0:0:
0,245,5922,6,0,B|74:234|60:285|143:268,1,136,2|2,0:0|0:0,0:0:0:0:
211,182,6431,2,0,L|222:256,1,68,2|0,0:0|0:0,0:0:0:0:
221,375,6770,1,2,0:0:0:0:
221,375,6939,2,0,P|279:335|347:348,1,136,2|0,0:0|0:0,0:0:0:0:
340,344,7617,6,0,L|430:330,1,68,2|0,0:0|0:0,0:0:0:0:
499,239,7956,2,0,L|409:225,1,68,2|0,0:0|0:0,0:0:0:0:
304,126,8295,2,0,L|321:232,1,102,2|0,0:0|0:0,0:0:0:0:
323,239,8634,6,0,B|249:228|263:279|180:262,1,136,2|2,0:0|0:0,0:0:0:0:
129,140,9143,2,0,L|199:153,1,68,2|0,0:0|0:0,0:0:0:0:
304,126,9482,1,2,0:0:0:0:
126,55,9651,6,0,P|62:79|41:143,1,136,2|2,0:0|0:0,0:0:0:0:
88,227,10160,1,2,0:0:0:0:
88,227,10329,2,0,L|18:240,1,68,2|2,0:0|0:0,0:0:0:0:
129,140,10668,1,2,0:0:0:0:
171,290,10837,5,2,0:0:0:0:
277,230,11007,1,2,0:0:0:0:
153,279,11176,1,2,0:0:0:0:
261,358,11346,6,0,B|324:348|324:348|351:359|351:359|423:347,1,152.999995330811,6|2,1:2|1:2,0:0:0:0:
497,294,11854,2,0,B|505:333|512:374,1,76.4999976654053,2|0,0:0|1:0,0:0:0:0:
368,253,12193,2,0,B|374:216|382:177,1,76.4999976654053,2|0,0:0|1:0,0:0:0:0:
462,112,12532,1,2,0:0:0:0:
305,25,12702,6,0,P|242:35|213:87,1,114.749996498108,0|0,1:0|0:0,0:0:0:0:
215,91,13041,2,0,B|178:97|139:105,1,76.4999976654053,2|0,1:2|0:0,0:0:0:0:
292,239,13380,2,0,B|329:245|368:253,1,76.4999976654053,2|0,1:2|0:0,0:0:0:0:
140,331,13719,2,0,P|130:272|118:201,1,114.749996498108,2|0,1:2|0:0,0:0:0:0:
121,218,14058,5,14,0:0:0:0:
304,117,14227,1,8,0:0:0:0:
81,53,14397,1,8,0:0:0:0:
210,217,14566,1,8,0:0:0:0:
6,249,14736,5,8,0:0:0:0:
206,44,14905,1,8,0:0:0:0:
233,300,15075,1,8,0:0:0:0:
3,100,15244,1,8,0:0:0:0:
298,26,15414,6,0,L|290:91,1,59.4999981842042,14|0,0:0|0:0,0:0:0:0:
402,155,15753,1,2,0:0:0:0:
402,155,15922,2,0,L|394:90,1,59.4999981842042,2|0,0:0|0:0,0:0:0:0:
271,186,16261,1,2,0:0:0:0:
271,186,16431,2,0,B|211:171|201:118|201:118|163:178|111:192|50:158|27:100|47:53|96:27|130:29|130:29|103:49|100:83,1,475.999985473633,2|0,0:0|0:0,0:0:0:0:
100,82,18126,6,0,P|54:75|0:67,1,93.5000028533936,6|0,1:2|0:0,0:0:0:0:
179,219,18465,2,0,P|239:184|244:101,1,140.25000428009,10|0,0:0|0:0,0:0:0:0:
250,118,18804,1,2,1:2:0:0:
43,156,18973,1,0,1:0:0:0:
217,27,19143,2,0,P|263:33|309:40,1,93.5000028533936,10|0,0:0|0:0,0:0:0:0:
446,243,19482,6,0,B|343:223|369:300|254:272,1,187.000005706787,2|8,1:2|0:0,0:0:0:0:
175,215,19990,1,2,0:0:0:0:
292,384,20160,1,2,1:2:0:0:
89,288,20329,1,2,1:2:0:0:
285,184,20499,2,0,P|276:229|268:276,1,93.5000028533936,8|0,0:0|0:0,0:0:0:0:
23,153,20837,6,0,P|63:115|157:121,1,140.25000428009,2|0,1:2|0:0,0:0:0:0:
163,124,21176,2,0,P|155:77|146:32,1,93.5000028533936,10|0,0:0|0:0,0:0:0:0:
105,195,21515,1,2,1:2:0:0:
25,19,21685,1,0,1:0:0:0:
236,70,21854,2,0,P|282:62|331:55,1,93.5000028533936,10|0,0:0|0:0,0:0:0:0:
451,268,22193,6,0,B|378:252|378:252|341:273|341:273|265:256,1,187.000005706787,2|10,1:2|0:0,0:0:0:0:
105,195,22702,1,0,0:0:0:0:
162,358,22871,2,0,P|175:305|189:250,1,93.5000028533936,2|0,1:2|1:0,0:0:0:0:
290,149,23210,2,0,P|242:160|191:173,1,93.5000028533936,10|0,0:0|0:0,0:0:0:0:
68,28,23549,6,0,L|55:72,1,46.7500014266968,2|0,1:2|0:0,0:0:0:0:
10,213,23719,2,0,L|55:203,1,46.7500014266968,2|0,0:0|0:0,0:0:0:0:
200,171,23888,2,0,L|168:137,1,46.7500014266968,10|0,0:0|0:0,0:0:0:0:
23,16,24058,6,0,L|68:27,1,46.7500014266968,2|0,1:2|0:0,0:0:0:0:
232,137,24227,2,0,L|200:170,1,46.7500014266968,2|0,0:0|0:0,0:0:0:0:
22,258,24397,2,0,L|9:214,1,46.7500014266968,2|0,1:2|0:0,0:0:0:0:
202,39,24566,6,0,P|295:52|331:150,1,187.000005706787,14|0,0:0|0:0,0:0:0:0:
428,290,25075,1,0,1:0:0:0:
274,210,25244,2,0,P|326:217|373:223,1,93.5000028533936,8|0,0:0|0:0,0:0:0:0:
446,162,25583,1,0,1:0:0:0:
309,314,25753,1,0,1:0:0:0:
230,123,25922,2,0,P|178:130|131:136,1,93.5000028533936,8|0,0:0|1:0,0:0:0:0:
114,139,26176,1,0,1:0:0:0:
90,143,26261,6,0,P|81:195|111:238,1,93.5000028533936,6|0,1:2|0:0,0:0:0:0:
58,344,26600,1,8,0:0:0:0:
203,202,26770,1,0,1:0:0:0:
0,95,26939,1,8,0:0:0:0:
99,228,27109,1,2,1:2:0:0:
168,42,27278,1,10,0:0:0:0:
1,202,27448,1,2,1:2:0:0:
222,272,27617,5,10,0:0:0:0:
90,150,27787,1,0,1:0:0:0:
90,150,27871,1,2,0:0:0:0:
90,150,27956,1,8,0:0:0:0:
260,88,28126,1,2,1:2:0:0:
105,282,28295,5,10,0:0:0:0:
140,30,28465,1,0,1:0:0:0:
140,30,28549,1,2,0:0:0:0:
140,30,28634,1,8,0:0:0:0:
339,186,28804,1,2,1:2:0:0:
90,150,28973,5,14,0:0:0:0:
0,363,29143,1,8,0:0:0:0:
179,121,29312,5,8,0:0:0:0:
163,384,29482,1,8,0:0:0:0:
266,92,29651,5,8,0:0:0:0:
331,383,29821,1,8,0:0:0:0:
352,57,29990,5,8,0:0:0:0:
484,343,30160,1,8,0:0:0:0:
153,294,30329,1,8,0:0:0:0:
319,133,31685,6,0,P|314:170|310:209,1,76.4999976654053,2|0,1:2|0:0,0:0:0:0:
213,278,32024,2,0,P|209:239|204:201,1,76.4999976654053,0|0,1:0|0:0,0:0:0:0:
231,110,32363,2,0,P|192:115|155:121,1,76.4999976654053,0|2,1:0|0:0,0:0:0:0:
80,81,32702,1,2,1:2:0:0:
80,81,32871,1,2,0:0:0:0:
6,219,33041,6,0,P|65:202|132:268,1,152.999995330811,2|2,1:2|1:2,0:0:0:0:
156,357,33549,2,0,P|116:352|70:347,1,76.4999976654053,2|0,0:0|1:0,0:0:0:0:
211,286,33888,2,0,P|249:281|286:277,1,76.4999976654053,2|0,0:0|1:0,0:0:0:0:
344,378,34227,5,2,0:0:0:0:
344,378,34312,1,2,0:0:0:0:
344,378,34397,2,0,P|398:334|388:247,1,152.999995330811,0|0,1:0|1:0,0:0:0:0:
286,276,34905,2,0,P|291:239|295:201,1,76.4999976654053,2|0,0:0|1:0,0:0:0:0:
304,109,35244,1,2,0:0:0:0:
376,152,35414,1,2,1:2:0:0:
376,67,35583,1,2,0:0:0:0:
289,115,35753,6,0,B|229:106|229:106|202:118|202:118|139:109,1,152.999995330811,2|2,1:2|1:2,0:0:0:0:
6,178,36261,2,0,P|49:190|74:224,1,76.4999976654053,2|0,0:0|1:0,0:0:0:0:
126,308,36600,2,0,P|88:314|47:321,1,76.4999976654053,2|0,0:0|1:0,0:0:0:0:
179,220,36939,5,2,0:0:0:0:
179,220,37024,1,2,0:0:0:0:
179,220,37109,2,0,P|233:264|211:352,1,152.999995330811,0|0,1:0|1:0,0:0:0:0:
357,384,37617,2,0,P|351:342|345:300,1,76.4999976654053,2|0,0:0|1:0,0:0:0:0:
427,237,37956,1,2,0:0:0:0:
281,171,38126,1,2,1:2:0:0:
384,107,38295,2,0,L|392:152,1,38.2499988327027,2|0,0:0|0:0,0:0:0:0:
275,257,38465,6,0,B|194:235|214:306|114:282,1,152.999995330811,2|2,1:2|1:2,0:0:0:0:
22,321,38973,2,0,P|29:278|36:240,1,76.4999976654053,2|0,0:0|1:0,0:0:0:0:
118,153,39312,2,0,L|130:278,1,114.749996498108,2|0,0:0|0:0,0:0:0:0:
130,285,39651,1,2,0:0:0:0:
256,340,39821,6,0,B|337:318|317:389|417:365,1,152.999995330811,2|2,1:2|1:2,0:0:0:0:
480,302,40329,1,2,0:0:0:0:
395,203,40499,2,0,P|388:240|382:278,1,76.4999976654053,0|0,1:0|0:0,0:0:0:0:
475,163,40837,1,0,1:0:0:0:
305,222,41007,5,2,0:0:0:0:
305,222,41092,1,2,0:0:0:0:
305,222,41176,2,0,P|267:215|188:202,1,114.749996498108,0|0,1:0|0:0,0:0:0:0:
191,202,41515,1,2,1:2:0:0:
89,228,41685,2,0,P|83:186|100:155,1,76.4999976654053,2|0,0:0|1:0,0:0:0:0:
234,104,42024,1,2,0:0:0:0:
151,20,42193,6,0,L|158:76,1,51,0|0,1:0|0:0,0:0:0:0:
157,70,42532,6,0,B|217:61|217:61|244:73|244:73|307:64,2,152.999995330811,6|0|0,1:2|1:0|1:0,0:0:0:0:
0,139,43380,1,2,0:0:0:0:
73,0,43549,2,0,P|69:39|65:76,1,76.4999976654053,10|2,0:0|0:0,0:0:0:0:
0,261,43888,6,0,P|53:213|145:230,1,152.999995330811,2|2,1:2|1:2,0:0:0:0:
223,198,44397,2,0,P|214:238|205:275,1,76.4999976654053,2|0,0:0|1:0,0:0:0:0:
222,377,44736,1,2,0:0:0:0:
129,219,44905,1,8,0:0:0:0:
296,261,45075,5,2,0:0:0:0:
296,261,45160,1,2,0:0:0:0:
296,261,45244,2,0,B|323:237|364:252|364:252|391:292|444:286,1,152.999995330811,2|2,1:2|1:2,0:0:0:0:
512,140,45753,2,0,P|472:142|434:206,1,114.749996498108,2|0,0:0|0:0,0:0:0:0:
433,200,46092,1,2,0:0:0:0:
315,70,46261,6,0,B|255:79|255:79|233:99|233:99|170:107,1,152.999995330811,12|0,0:0|1:0,0:0:0:0:
79,70,46770,1,0,0:0:0:0:
166,193,46939,1,2,1:2:0:0:
40,250,47109,5,2,0:0:0:0:
171,107,47278,1,2,1:2:0:0:
201,303,47448,1,2,0:0:0:0:
22,155,47617,1,10,0:0:0:0:
260,187,47787,5,2,0:0:0:0:
260,187,47871,1,2,0:0:0:0:
260,187,47956,2,0,B|350:166|330:236|434:210,1,170,4|8,1:2|0:0,0:0:0:0:
512,88,48465,1,2,0:0:0:0:
345,12,48634,2,0,P|351:53|358:102,1,85,0|0,1:0|1:0,0:0:0:0:
255,271,48973,2,0,P|206:260|179:180,1,127.5,10|0,0:0|0:0,0:0:0:0:
169,182,49312,6,0,P|128:188|79:195,1,85,2|0,1:2|0:0,0:0:0:0:
0,93,49651,1,10,0:0:0:0:
141,0,49821,2,0,P|134:42|128:84,1,85,2|0,0:0|1:0,0:0:0:0:
288,183,50160,1,2,1:2:0:0:
329,106,50329,2,0,P|267:95|214:129,1,127.5,8|0,0:0|0:0,0:0:0:0:
199,143,50668,6,0,P|206:188|213:235,1,85,6|0,1:2|0:0,0:0:0:0:
169,326,51007,1,10,0:0:0:0:
288,183,51176,1,2,0:0:0:0:
94,136,51346,1,0,1:0:0:0:
94,136,51515,1,0,1:0:0:0:
282,51,51685,1,8,0:0:0:0:
211,227,51854,1,2,0:0:0:0:
439,302,52024,5,0,1:0:0:0:
288,183,52193,1,0,1:0:0:0:
442,104,52363,2,0,P|434:146|424:198,1,85,12|0,0:0|0:0,0:0:0:0:
341,320,52702,5,4,3:0:0:0:
512,169,52871,1,8,3:0:0:0:
287,96,53041,1,8,3:0:0:0:
439,302,53210,1,8,3:0:0:0:
227,264,53380,6,0,L|159:281,2,59.4999981842042,2|2|2,0:0|0:0|0:0,0:0:0:0:
288,183,53888,1,2,0:0:0:0:
131,373,54227,1,2,0:0:0:0:
131,373,54397,2,0,P|48:297|118:192,1,237.999992736817,2|0,0:0|0:0,0:0:0:0:
97,199,55414,2,0,L|87:138,1,59.4999981842042,2|0,0:0|0:0,0:0:0:0:
202,81,55753,2,0,L|192:139,1,59.4999981842042,2|0,0:0|0:0,0:0:0:0:
259,277,56092,5,2,0:0:0:0:
292,203,56262,1,2,0:0:0:0:
370,184,56431,1,2,0:0:0:0:
442,222,56601,1,2,0:0:0:0:
442,222,56939,1,2,0:0:0:0:
394,44,57109,6,0,B|297:22|319:96|206:67,1,178.499994552612,2|0,0:0|0:0,0:0:0:0:
169,13,57702,6,0,L|151:2,5,14.874999546051,2|2|2|2|2|2,0:0|0:0|0:0|0:0|0:0|0:0,0:0:0:0:
357,137,58465,6,0,L|352:174,1,38.2499988327027,2|0,1:2|0:0,0:0:0:0:
351,174,58804,6,0,P|297:184|257:154,1,101.999996887207,14|0,0:0|0:0,0:0:0:0:
157,6,59143,2,0,L|201:13,1,42.5,8|0,0:0|0:0,0:0:0:0:
62,86,59312,1,0,1:0:0:0:
62,86,59397,1,0,1:0:0:0:
62,86,59482,2,0,L|18:93,1,42.5,8|0,0:0|1:0,0:0:0:0:
143,198,59651,1,0,1:0:0:0:
143,198,59736,1,0,1:0:0:0:
143,198,59821,2,0,L|150:154,1,42.5,10|2,0:0|1:2,0:0:0:0:
3,232,59990,2,0,L|9:273,1,42.5,2|0,1:2|1:0,0:0:0:0:
128,352,60160,5,8,0:0:0:0:
148,315,60244,1,8,0:0:0:0:
183,292,60329,1,8,0:0:0:0:
225,288,60414,1,8,0:0:0:0:
264,305,60498,1,8,0:0:0:0:
294,334,60583,1,8,0:0:0:0:
333,349,60668,1,8,0:0:0:0:
374,338,60753,1,8,0:0:0:0:
403,307,60837,6,0,L|393:257,1,42.5,8|8,0:0|0:0,0:0:0:0:
512,100,61007,2,0,L|503:141,1,42.5,8|8,0:0|0:0,0:0:0:0:
356,172,61176,1,8,3:0:0:0:
335,176,61260,1,8,3:0:0:0:
314,180,61345,1,8,3:0:0:0:
293,184,61430,1,8,3:0:0:0:
273,187,61515,6,0,B|215:177|215:177|182:193|182:193|126:182,1,152.999995330811,6|0,1:2|0:0,0:0:0:0:
16,221,62024,1,2,1:2:0:0:
56,65,62193,2,0,P|136:74|166:113,1,114.749996498108,8|0,0:0|0:0,0:0:0:0:
169,107,62532,2,0,P|178:60|188:9,1,76.4999976654053,2|0,1:2|0:0,0:0:0:0:
356,172,62871,5,2,1:2:0:0:
403,96,63041,2,0,P|342:83|271:145,1,152.999995330811,8|2,0:0|1:2,0:0:0:0:
209,227,63549,2,0,P|246:234|284:241,1,76.4999976654053,8|0,0:0|1:0,0:0:0:0:
412,319,63888,1,10,0:0:0:0:
356,172,64058,1,0,0:0:0:0:
226,315,64227,6,0,B|173:324|173:324|153:337|153:337|87:349,1,127.5,6|0,1:2|0:0,0:0:0:0:
78,343,64566,2,0,P|69:295|61:250,1,85,8|0,0:0|0:0,0:0:0:0:
0,141,64905,1,0,1:0:0:0:
209,227,65075,1,0,1:0:0:0:
153,47,65244,2,0,P|145:88|137:130,1,85,8|0,0:0|1:0,0:0:0:0:
137,130,65499,1,0,1:0:0:0:
137,130,65583,5,8,0:0:0:0:
377,41,65753,1,8,0:0:0:0:
493,256,66939,6,0,B|392:237|418:313|298:285,1,187.000005706787,6|8,1:2|0:0,0:0:0:0:
139,343,67448,1,2,1:2:0:0:
139,343,67532,1,8,0:0:0:0:
139,343,67617,1,0,1:0:0:0:
339,197,67787,1,0,1:0:0:0:
150,135,67956,2,0,P|158:182|167:239,1,93.5000028533936,10|0,0:0|0:0,0:0:0:0:
416,105,68295,6,0,P|353:68|291:85,1,140.25000428009,2|0,1:2|0:0,0:0:0:0:
278,94,68634,2,0,P|270:47|262:1,1,93.5000028533936,8|0,0:0|1:0,0:0:0:0:
262,1,68888,1,8,0:0:0:0:
262,1,68973,1,0,1:0:0:0:
343,169,69143,1,0,1:0:0:0:
167,69,69312,2,0,P|120:76|74:84,1,93.5000028533936,10|2,0:0|0:0,0:0:0:0:
28,307,69651,6,0,B|92:314|92:314|104:324|104:324|164:331,1,140.25000428009,2|0,1:2|0:0,0:0:0:0:
163,331,69990,1,10,0:0:0:0:
343,169,70160,1,2,1:2:0:0:
343,169,70244,1,8,0:0:0:0:
343,169,70329,1,0,1:0:0:0:
146,243,70499,1,0,1:0:0:0:
344,368,70668,2,0,P|387:318|372:247,1,140.25000428009,10|0,0:0|0:0,0:0:0:0:
370,240,71007,6,0,P|422:243|468:246,1,93.5000028533936,2|0,1:2|0:0,0:0:0:0:
288,291,71346,1,8,0:0:0:0:
427,140,71515,1,0,1:0:0:0:
427,140,71600,1,8,0:0:0:0:
427,140,71685,1,0,1:0:0:0:
474,341,71854,1,0,1:0:0:0:
286,135,72024,1,10,0:0:0:0:
462,244,72193,1,2,0:0:0:0:
394,17,72363,5,6,1:2:0:0:
234,217,72532,1,2,0:0:0:0:
115,28,72702,1,10,0:0:0:0:
286,135,72871,1,2,1:2:0:0:
286,135,72956,1,8,0:0:0:0:
286,135,73041,1,0,1:0:0:0:
55,192,73210,1,2,1:2:0:0:
211,7,73380,2,0,P|203:57|193:112,1,93.5000028533936,10|2,0:0|0:0,0:0:0:0:
120,275,73719,5,2,1:2:0:0:
286,135,73888,1,2,0:0:0:0:
55,98,74058,1,10,0:0:0:0:
226,242,74227,1,2,1:2:0:0:
226,242,74312,1,8,0:0:0:0:
226,242,74397,2,0,P|279:248|323:254,1,93.5000028533936,0|2,1:0|1:2,0:0:0:0:
400,323,74736,1,10,0:0:0:0:
286,135,74905,1,2,0:0:0:0:
180,318,75075,6,0,B|108:309|108:309|71:330|71:330|-4:320,1,187.000005706787,6|10,1:2|0:0,0:0:0:0:
152,179,75583,1,2,1:2:0:0:
152,179,75668,1,8,0:0:0:0:
152,179,75753,1,0,1:0:0:0:
258,357,75922,1,2,1:2:0:0:
67,209,76092,2,0,P|59:158|121:99,1,140.25000428009,8|0,0:0|0:0,0:0:0:0:
117,99,76431,5,14,0:0:0:0:
290,255,76600,1,0,1:0:0:0:
425,85,76770,1,0,1:0:0:0:
205,27,76939,2,0,P|214:76|222:125,1,93.5000028533936,14|0,0:0|0:0,0:0:0:0:
290,255,77278,2,0,L|295:199,1,46.7500014266968,8|8,0:0|0:0,0:0:0:0:
386,7,77448,1,10,0:0:0:0:
431,0,77532,1,2,0:0:0:0:
474,17,77617,1,2,0:0:0:0:
504,53,77702,1,2,0:0:0:0:
512,98,77787,6,0,P|499:189|486:283,1,187.000005706787,6|8,1:2|0:0,0:0:0:0:
294,208,78296,1,2,1:2:0:0:
294,208,78380,1,8,0:0:0:0:
294,208,78465,1,0,1:0:0:0:
404,384,78635,1,0,1:0:0:0:
393,177,78804,2,0,P|385:130|377:83,1,93.5000028533936,10|0,0:0|0:0,0:0:0:0:
100,55,79143,6,0,P|169:74|194:141,1,140.25000428009,2|0,1:2|0:0,0:0:0:0:
193,149,79482,2,0,P|146:155|100:160,1,93.5000028533936,8|0,0:0|1:0,0:0:0:0:
101,160,79736,1,8,0:0:0:0:
101,160,79821,1,0,1:0:0:0:
294,208,79991,1,0,1:0:0:0:
87,280,80160,1,10,0:0:0:0:
281,119,80329,1,2,0:0:0:0:
327,356,80499,6,0,P|387:345|416:215,1,187.000005706787,2|10,1:2|0:0,0:0:0:0:
281,119,81008,1,2,1:2:0:0:
281,119,81092,1,8,0:0:0:0:
281,119,81176,1,0,1:0:0:0:
491,173,81346,1,0,1:0:0:0:
354,24,81515,1,10,0:0:0:0:
284,237,81685,5,2,0:0:0:0:
284,237,81770,1,2,0:0:0:0:
284,237,81855,2,0,P|235:243|191:249,1,93.5000028533936,2|0,1:2|0:0,0:0:0:0:
75,67,82194,1,8,0:0:0:0:
281,119,82363,1,0,1:0:0:0:
281,119,82447,1,8,0:0:0:0:
281,119,82531,1,0,1:0:0:0:
65,188,82702,1,0,1:0:0:0:
254,19,82872,1,10,0:0:0:0:
191,248,83041,1,2,0:0:0:0:
420,184,83210,5,6,1:2:0:0:
172,111,83380,1,2,1:2:0:0:
382,34,83549,1,10,0:0:0:0:
290,246,83719,2,0,P|300:311|311:386,1,140.25000428009,14|0,0:0|0:0,0:0:0:0:
310,384,84058,1,2,1:2:0:0:
420,184,84227,1,10,0:0:0:0:
510,306,84397,1,2,0:0:0:0:
349,122,84566,5,6,1:2:0:0:
349,122,84736,1,2,1:2:0:0:
510,212,84905,1,10,0:0:0:0:
310,260,85075,2,0,P|260:251|201:241,1,93.5000028533936,6|0,1:2|0:0,0:0:0:0:
95,274,85414,1,2,1:2:0:0:
261,147,85583,1,8,0:0:0:0:
67,56,85753,5,2,1:2:0:0:
67,56,85837,1,0,1:0:0:0:
67,56,85922,1,12,0:0:0:0:
217,243,86092,1,2,1:2:0:0:
316,45,86261,1,10,0:0:0:0:
92,147,86431,1,2,1:2:0:0:
315,254,86600,5,10,0:0:0:0:
197,26,86770,1,2,1:2:0:0:
430,116,86939,1,10,0:0:0:0:
217,243,87109,1,2,1:2:0:0:
316,45,87278,5,12,0:0:0:0:
433,273,87448,1,4,3:0:0:0:
433,273,87532,1,4,3:0:0:0:
433,273,87617,2,0,L|487:263,1,46.7500014266968,8|8,3:0|3:0,0:0:0:0:
316,145,87787,2,0,L|262:155,1,46.7500014266968,8|8,3:0|3:0,0:0:0:0:
173,331,87956,5,4,3:0:0:0:
149,327,88040,1,4,3:0:0:0:
126,324,88125,1,4,3:0:0:0:
103,321,88210,1,4,3:0:0:0:
80,318,88295,6,0,P|26:264|66:196,1,152.999995330811,14|0,0:0|0:0,0:0:0:0:
91,121,88634,6,0,B|192:102|166:178|286:150,1,187.000005706787,6|10,1:2|0:0,0:0:0:0:
386,18,89143,2,0,P|394:69|404:126,1,93.5000028533936,6|0,1:2|0:0,0:0:0:0:
480,227,89482,1,2,1:2:0:0:
269,153,89651,6,0,P|174:162|143:249,1,187.000005706787,14|2,0:0|0:0,0:0:0:0:
294,374,90160,1,0,1:0:0:0:
387,213,90329,2,0,P|436:220|501:230,1,93.5000028533936,10|0,0:0|0:0,0:0:0:0:
287,361,90668,2,0,P|240:354|194:347,1,93.5000028533936,2|0,1:2|1:0,0:0:0:0:
417,308,91007,1,8,0:0:0:0:
269,153,91176,5,2,0:0:0:0:
269,153,91261,1,2,0:0:0:0:
269,153,91346,2,0,B|205:160|205:160|193:170|193:170|133:177,1,140.25000428009,6|0,1:2|0:0,0:0:0:0:
133,176,91685,1,10,0:0:0:0:
45,35,91854,2,0,P|94:44|143:54,1,93.5000028533936,6|0,1:2|0:0,0:0:0:0:
235,13,92193,1,2,1:2:0:0:
47,152,92363,6,0,P|42:215|150:267,1,187.000005706787,14|2,0:0|0:0,0:0:0:0:
324,350,92871,1,2,1:2:0:0:
263,174,93041,5,10,0:0:0:0:
240,273,93210,1,2,0:0:0:0:
222,374,93380,1,2,1:2:0:0:
369,231,93549,5,2,1:2:0:0:
165,164,93719,1,10,0:0:0:0:
324,350,93888,5,2,0:0:0:0:
324,350,93973,1,2,0:0:0:0:
324,350,94058,2,0,P|372:341|423:331,1,93.5000028533936,14|0,0:0|0:0,0:0:0:0:
512,183,94397,1,10,0:0:0:0:
477,384,94566,1,2,1:2:0:0:
294,218,94736,1,8,0:0:0:0:
480,270,94905,1,2,1:2:0:0:
348,100,95075,1,8,0:0:0:0:
252,300,95244,5,2,1:2:0:0:
252,300,95329,1,2,1:2:0:0:
252,300,95414,2,0,P|203:291|142:281,1,93.5000028533936,8|0,0:0|1:0,0:0:0:0:
340,89,95753,2,0,P|386:96|432:105,1,93.5000028533936,10|0,0:0|1:0,0:0:0:0:
480,270,96092,1,10,0:0:0:0:
247,162,96261,1,0,1:0:0:0:
375,349,96431,1,10,0:0:0:0:
432,105,96600,1,0,1:0:0:0:
432,105,96685,1,0,1:0:0:0:
432,105,96770,5,14,0:0:0:0:
302,322,96939,1,8,0:0:0:0:
306,58,97109,5,8,0:0:0:0:
218,337,97278,1,8,0:0:0:0:
148,52,97448,5,8,0:0:0:0:
139,357,97617,1,8,0:0:0:0:
0,96,97787,5,8,0:0:0:0:
59,384,97956,1,10,0:0:0:0:
295,177,98126,1,14,0:0:0:0:
250,282,99482,6,0,P|182:269|126:308,1,140.25000428009,6|0,1:2|0:0,0:0:0:0:
119,326,99821,2,0,P|110:279|103:233,1,93.5000028533936,10|0,0:0|0:0,0:0:0:0:
274,174,100160,1,2,1:2:0:0:
200,354,100329,1,0,1:0:0:0:
136,142,100499,2,0,P|89:149|43:157,1,93.5000028533936,10|0,0:0|0:0,0:0:0:0:
246,15,100837,6,0,P|333:9|388:84,1,187.000005706787,2|8,1:2|0:0,0:0:0:0:
472,189,101346,1,2,0:0:0:0:
295,95,101515,1,2,1:2:0:0:
370,273,101685,1,2,1:2:0:0:
482,92,101854,2,0,P|475:45|468:0,1,93.5000028533936,8|0,0:0|0:0,0:0:0:0:
288,108,102193,6,0,B|224:115|224:115|212:125|212:125|152:132,1,140.25000428009,2|0,1:2|0:0,0:0:0:0:
137,145,102532,2,0,P|130:192|159:232,1,93.5000028533936,10|0,0:0|0:0,0:0:0:0:
304,362,102871,1,2,1:2:0:0:
241,200,103041,1,0,1:0:0:0:
136,384,103210,2,0,P|87:376|27:368,1,93.5000028533936,10|0,0:0|0:0,0:0:0:0:
240,293,103549,6,0,P|290:277|396:346,1,187.000005706787,2|10,1:2|0:0,0:0:0:0:
505,234,104058,1,0,0:0:0:0:
390,141,104227,2,0,P|402:186|414:232,1,93.5000028533936,2|0,1:2|1:0,0:0:0:0:
470,40,104566,2,0,P|426:35|373:29,1,93.5000028533936,10|0,0:0|0:0,0:0:0:0:
207,202,104905,6,0,L|250:188,1,46.7500014266968,2|0,1:2|0:0,0:0:0:0:
390,141,105075,2,0,L|355:109,1,46.7500014266968,2|0,0:0|0:0,0:0:0:0:
248,12,105244,2,0,L|238:56,1,46.7500014266968,10|0,0:0|0:0,0:0:0:0:
224,245,105414,6,0,L|207:202,1,46.7500014266968,2|0,1:2|0:0,0:0:0:0:
201,4,105583,2,0,L|246:11,1,46.7500014266968,2|0,0:0|0:0,0:0:0:0:
421,106,105753,2,0,L|391:141,1,46.7500014266968,2|0,1:2|0:0,0:0:0:0:
169,104,105922,6,0,P|108:133|112:244,1,187.000005706787,14|0,0:0|0:0,0:0:0:0:
209,384,106431,1,0,1:0:0:0:
299,243,106600,2,0,P|351:250|398:256,1,93.5000028533936,8|0,0:0|0:0,0:0:0:0:
446,337,106939,1,0,1:0:0:0:
362,159,107109,1,0,1:0:0:0:
223,300,107278,2,0,P|171:307|124:313,1,93.5000028533936,8|0,0:0|1:0,0:0:0:0:
111,315,107532,1,0,1:0:0:0:
92,319,107617,6,0,P|81:268|117:224,1,93.5000028533936,6|0,1:2|0:0,0:0:0:0:
29,174,107871,6,0,P|67:138|123:148,1,93.5000028533936,2|0,0:0|0:0,0:0:0:0:
127,50,108126,6,0,P|157:54|174:69,1,46.7500014266968,2|0,0:0|0:0,0:0:0:0:
236,221,108295,6,0,B|302:205|302:205|274:180,1,93.5000028533936,10|0,0:0|1:0,0:0:0:0:
416,72,108549,6,0,B|396:137|396:137|431:126,1,93.5000028533936,2|0,0:0|0:0,0:0:0:0:
430,277,108804,6,0,B|406:252|406:252|402:270,1,46.7500014266968,2|0,1:2|0:0,0:0:0:0:
243,351,108973,5,10,0:0:0:0:
468,200,109143,1,10,0:0:0:0:
468,200,109821,5,2,0:0:0:0:
465,211,109905,1,2,0:0:0:0:
463,222,109990,1,2,0:0:0:0:
459,235,110329,6,0,P|447:162|435:80,2,136,6|0|0,1:2|0:0|0:0,0:0:0:0:
341,313,111176,1,2,0:0:0:0:
341,313,111346,1,2,0:0:0:0:
437,338,111515,1,2,1:2:0:0:
341,218,111685,6,0,P|275:209|225:252,1,136,2|2,1:2|0:0,0:0:0:0:
206,347,112193,2,0,P|172:340|139:334,1,68,2|0,0:0|0:0,0:0:0:0:
68,230,112532,2,0,P|101:223|134:217,1,68,2|0,0:0|0:0,0:0:0:0:
134,217,112871,1,2,0:0:0:0:
232,118,113041,6,0,B|223:171|223:171|233:195|233:195|223:261,1,136,0|0,1:0|0:0,0:0:0:0:
341,313,113549,2,0,P|335:279|330:245,1,68,2|0,0:0|0:0,0:0:0:0:
389,167,113888,1,2,0:0:0:0:
389,167,114058,1,2,0:0:0:0:
468,215,114227,1,2,1:2:0:0:
407,81,114397,6,0,B|333:71|351:124|262:107,1,136,2|2,1:2|0:0,0:0:0:0:
231,31,114905,2,0,P|197:34|163:38,1,68,2|0,0:0|0:0,0:0:0:0:
83,80,115244,2,0,P|71:47|74:14,1,68,2|0,0:0|0:0,0:0:0:0:
73,14,115583,1,2,0:0:0:0:
0,152,115753,6,0,B|74:142|56:195|145:178,1,136,0|0,1:0|0:0,0:0:0:0:
218,141,116261,2,0,P|214:174|210:208,1,68,2|0,0:0|0:0,0:0:0:0:
238,289,116600,1,2,0:0:0:0:
238,289,116770,1,2,0:0:0:0:
167,342,116939,1,2,1:2:0:0:
287,381,117109,6,0,B|340:372|340:372|364:382|364:382|419:373,1,136,2|2,1:2|0:0,0:0:0:0:
512,384,117617,2,0,P|508:351|502:314,1,68,2|0,0:0|0:0,0:0:0:0:
507,210,117956,2,0,P|444:213|406:270,1,136,2|0,0:0|0:0,0:0:0:0:
280,167,118465,6,0,P|283:133|288:99,1,68,0|0,1:2|0:0,0:0:0:0:
303,18,118804,1,2,0:0:0:0:
303,18,118973,2,0,B|229:8|247:61|158:44,1,136,2|0,0:0|0:0,0:0:0:0:
97,0,119482,1,2,0:0:0:0:
43,140,119651,5,2,1:2:0:0:
43,140,119821,2,0,P|77:143|111:147,1,68,2|0,1:2|0:0,0:0:0:0:
216,130,120160,1,2,0:0:0:0:
216,130,120329,2,0,P|218:195|166:239,1,136,2|2,0:0|0:0,0:0:0:0:
167,238,120753,1,2,0:0:0:0:
167,238,120837,1,2,0:0:0:0:
365,384,121176,6,0,B|376:321|376:321|362:293|362:293|372:234,2,152.999995330811,6|0|0,1:2|1:0|1:0,0:0:0:0:
450,277,122024,1,2,0:0:0:0:
286,332,122193,2,0,P|247:324|204:315,1,76.4999976654053,10|2,0:0|0:0,0:0:0:0:
119,168,122532,6,0,B|200:146|180:217|280:193,1,152.999995330811,2|2,1:2|1:2,0:0:0:0:
373,93,123041,2,0,P|334:100|286:109,1,76.4999976654053,2|0,0:0|1:0,0:0:0:0:
318,12,123380,1,2,0:0:0:0:
348,187,123549,2,0,P|340:224|334:262,1,76.4999976654053,8|0,0:0|0:0,0:0:0:0:
499,134,123888,6,0,P|471:96|373:92,1,152.999995330811,2|2,1:2|1:2,0:0:0:0:
348,187,124397,2,0,P|291:176|216:166,1,114.749996498108,2|0,0:0|0:0,0:0:0:0:
234,168,124736,1,2,0:0:0:0:
106,302,124905,6,0,B|162:292|162:292|190:306|190:306|253:295,1,152.999995330811,12|2,0:0|1:2,0:0:0:0:
352,322,125414,1,2,0:0:0:0:
234,168,125583,1,2,1:2:0:0:
393,67,125753,5,2,0:0:0:0:
323,217,125922,1,2,1:2:0:0:
402,53,126092,1,2,0:0:0:0:
426,257,126261,1,10,0:0:0:0:
234,168,126431,5,2,0:0:0:0:
234,168,126515,1,2,0:0:0:0:
234,168,126600,2,0,B|144:147|164:217|60:191,1,170,4|8,1:2|0:0,0:0:0:0:
1,276,127109,1,2,0:0:0:0:
99,99,127278,1,0,1:0:0:0:
99,99,127448,1,0,1:0:0:0:
221,252,127617,2,0,P|227:210|233:167,1,85,10|0,0:0|0:0,0:0:0:0:
196,0,127956,6,0,P|260:51|364:23,1,170,2|10,1:2|0:0,0:0:0:0:
441,0,128465,2,0,P|435:42|429:84,1,85,2|0,0:0|1:0,0:0:0:0:
320,144,128804,1,2,1:2:0:0:
512,189,128973,2,0,P|469:194|427:200,1,85,8|0,0:0|0:0,0:0:0:0:
271,322,129312,6,0,P|265:278|259:237,1,85,6|0,1:2|0:0,0:0:0:0:
320,144,129651,1,10,0:0:0:0:
437,304,129821,1,2,0:0:0:0:
260,238,129990,1,0,1:0:0:0:
260,238,130160,1,0,1:0:0:0:
157,69,130329,1,8,0:0:0:0:
105,292,130499,1,2,0:0:0:0:
255,75,130668,5,4,3:0:0:0:
78,174,130837,1,4,3:0:0:0:
260,238,131007,1,4,3:0:0:0:
157,69,131176,1,4,3:0:0:0:
105,292,131346,5,8,3:0:0:0:
344,137,131515,1,8,3:0:0:0:
63,87,131685,1,8,3:0:0:0:
211,337,131854,1,8,3:0:0:0:
259,83,132024,6,0,P|265:49|270:13,2,59.4999981842042,2|2|2,0:0|0:0|0:0,0:0:0:0:
184,151,132532,1,2,0:0:0:0:
322,310,132871,1,2,0:0:0:0:
322,310,133041,2,0,B|384:299|393:226|393:226|437:288|510:283,1,237.999992736817,2|0,0:0|0:0,0:0:0:0:
492,283,134058,2,0,L|503:203,1,59.4999981842042,2|0,0:0|0:0,0:0:0:0:
385,168,134397,2,0,L|393:226,1,59.4999981842042,2|0,0:0|0:0,0:0:0:0:
281,375,134736,5,2,0:0:0:0:
242,303,134906,1,2,0:0:0:0:
163,289,135075,1,2,0:0:0:0:
94,332,135245,1,2,0:0:0:0:
94,332,135583,1,2,0:0:0:0:
9,189,135753,6,0,B|152:168|152:168|118:159|96:124,1,208.249993644715,2|0,0:0|0:0,0:0:0:0:
164,57,136431,2,0,L|169:86,1,29.7499990921021,2|0,0:0|0:0,0:0:0:0:
301,264,136770,5,8,0:0:0:0:
329,167,136939,1,0,1:0:0:0:
400,243,137109,2,0,L|456:252,1,51,0|0,1:0|0:0,0:0:0:0:
450,251,137448,5,6,1:2:0:0:
329,167,137617,2,0,P|260:165|201:250,1,170,0|2,1:0|1:2,0:0:0:0:
230,357,138126,2,0,P|188:350|145:346,1,85,8|2,0:0|0:0,0:0:0:0:
43,310,138465,2,0,L|36:359,2,42.5,2|2|2,1:2|0:0|0:0,0:0:0:0:
179,146,138804,5,2,1:2:0:0:
41,198,138973,2,0,B|112:208|112:208|134:229|134:229|204:239,1,170,8|2,0:0|1:2,0:0:0:0:
287,331,139482,1,8,0:0:0:0:
431,171,139651,1,0,1:0:0:0:
264,137,139821,1,8,0:0:0:0:
392,293,139990,1,0,1:0:0:0:
462,73,140160,6,0,P|422:77|369:84,1,85,6|0,1:2|0:0,0:0:0:0:
264,137,140499,1,8,0:0:0:0:
470,251,140668,1,2,0:0:0:0:
470,251,140837,1,0,1:0:0:0:
377,82,141007,1,0,1:0:0:0:
287,283,141176,2,0,P|282:325|277:367,1,85,10|0,0:0|0:0,0:0:0:0:
40,225,141515,6,0,B|141:221|86:300|205:293,1,170,2|8,1:2|0:0,0:0:0:0:
276,367,142024,1,2,0:0:0:0:
195,190,142193,1,0,1:0:0:0:
195,190,142363,1,0,1:0:0:0:
114,384,142532,1,10,0:0:0:0:
297,228,142702,1,0,0:0:0:0:
102,135,142871,5,6,1:2:0:0:
208,308,143041,1,0,1:0:0:0:
0,248,143210,2,0,P|42:239|85:230,1,85,8|0,0:0|0:0,0:0:0:0:
292,133,143549,1,8,3:0:0:0:
333,134,143633,1,8,3:0:0:0:
367,157,143718,1,8,3:0:0:0:
387,194,143803,1,8,3:0:0:0:
382,237,143888,5,8,3:0:0:0:
360,234,143973,1,4,3:0:0:0:
339,232,144057,1,4,3:0:0:0:
318,230,144142,1,4,3:0:0:0:
297,228,144226,1,8,0:0:0:0:
120,384,144397,1,8,0:0:0:0:
243,82,144736,6,0,P|228:55|210:40,1,42.5,8|8,0:0|0:0,0:0:0:0:
77,106,144905,6,0,P|48:97|24:99,1,42.5,8|0,0:0|1:0,0:0:0:0:
0,265,145075,5,0,1:0:0:0:
0,265,145160,1,0,1:0:0:0:
0,265,145244,2,0,P|50:253|112:244,1,101.999996887207,12|0,0:0|0:0,0:0:0:0:
318,384,145583,6,0,P|387:336|361:235,1,187.000005706787,6|8,1:2|0:0,0:0:0:0:
226,182,146092,1,2,1:2:0:0:
226,182,146176,1,8,0:0:0:0:
226,182,146261,1,0,1:0:0:0:
174,368,146431,1,0,1:0:0:0:
372,244,146600,2,0,P|420:250|469:258,1,93.5000028533936,10|0,0:0|0:0,0:0:0:0:
269,100,146939,6,0,P|202:85|148:126,1,140.25000428009,2|0,1:2|0:0,0:0:0:0:
138,140,147278,2,0,P|130:93|122:47,1,93.5000028533936,8|0,0:0|0:0,0:0:0:0:
226,182,147617,1,0,1:0:0:0:
33,116,147787,1,0,1:0:0:0:
113,291,147956,2,0,P|166:281|210:273,1,93.5000028533936,10|2,0:0|0:0,0:0:0:0:
427,189,148295,6,0,P|417:253|407:335,1,140.25000428009,2|0,1:2|0:0,0:0:0:0:
407,327,148634,1,10,0:0:0:0:
327,157,148804,1,2,1:2:0:0:
327,157,148888,1,8,0:0:0:0:
327,157,148973,1,0,1:0:0:0:
512,270,149143,1,0,1:0:0:0:
313,368,149312,2,0,P|306:312|299:269,1,93.5000028533936,10|0,0:0|0:0,0:0:0:0:
354,64,149651,6,0,B|253:45|279:121|159:93,1,187.000005706787,2|8,1:2|0:0,0:0:0:0:
36,156,150160,1,0,1:0:0:0:
36,156,150244,1,8,0:0:0:0:
36,156,150329,1,0,1:0:0:0:
145,5,150499,1,0,1:0:0:0:
216,203,150668,1,10,0:0:0:0:
42,57,150837,1,2,0:0:0:0:
68,281,151007,5,6,1:2:0:0:
175,96,151176,1,2,0:0:0:0:
237,321,151346,1,10,0:0:0:0:
36,156,151515,1,2,1:2:0:0:
36,156,151599,1,8,0:0:0:0:
36,156,151684,1,0,1:0:0:0:
272,0,151854,1,2,1:2:0:0:
216,203,152024,1,10,0:0:0:0:
42,57,152193,1,2,0:0:0:0:
175,96,152363,5,2,1:2:0:0:
175,96,152532,1,2,0:0:0:0:
68,281,152702,1,10,0:0:0:0:
295,173,152871,1,2,1:2:0:0:
295,173,152956,1,8,0:0:0:0:
295,173,153041,2,0,P|343:180|387:188,1,93.5000028533936,0|2,1:0|1:2,0:0:0:0:
509,145,153380,1,10,0:0:0:0:
382,296,153549,1,2,0:0:0:0:
298,83,153719,6,0,P|234:94|206:208,1,187.000005706787,6|10,1:2|0:0,0:0:0:0:
68,281,154227,1,2,1:2:0:0:
68,281,154312,1,8,0:0:0:0:
68,281,154397,1,0,1:0:0:0:
264,335,154566,1,2,1:2:0:0:
104,172,154736,1,8,0:0:0:0:
49,384,154905,1,2,1:2:0:0:
201,199,155075,5,12,0:0:0:0:
0,128,155244,1,8,0:0:0:0:
186,37,155414,1,8,0:0:0:0:
186,37,155499,1,8,0:0:0:0:
186,37,155583,2,0,L|171:105,1,46.7500014266968,10|8,0:0|0:0,0:0:0:0:
181,302,155753,1,8,3:0:0:0:
226,309,155837,1,4,3:0:0:0:
269,291,155922,1,4,3:0:0:0:
296,253,156007,1,4,3:0:0:0:
299,207,156092,6,0,B|366:215|366:215|383:228|383:228|470:239,1,152.999995330811,14|0,0:0|0:0,0:0:0:0:
512,173,156431,6,0,P|472:101|366:111,1,187.000005706787,14|8,0:0|0:0,0:0:0:0:
186,37,156939,1,2,1:2:0:0:
186,37,157024,1,8,0:0:0:0:
186,37,157109,1,0,1:0:0:0:
299,207,157278,1,0,1:0:0:0:
291,0,157448,2,0,P|282:48|275:93,1,93.5000028533936,10|0,0:0|0:0,0:0:0:0:
162,261,157787,6,0,B|98:250|98:250|84:256|84:256|24:246,1,140.25000428009,2|0,1:2|0:0,0:0:0:0:
10,247,158126,2,0,P|-9:290|7:336,1,93.5000028533936,8|0,0:0|1:0,0:0:0:0:
3,332,158380,1,8,0:0:0:0:
3,332,158465,1,0,1:0:0:0:
138,164,158634,1,0,1:0:0:0:
190,370,158804,1,10,0:0:0:0:
10,247,158973,1,2,0:0:0:0:
260,202,159143,6,0,B|299:164|345:171|345:171|375:228|444:223,1,187.000005706787,2|10,1:2|0:0,0:0:0:0:
504,82,159651,1,2,1:2:0:0:
504,82,159736,1,8,0:0:0:0:
504,82,159821,2,0,P|455:89|429:126,1,93.5000028533936,0|0,1:0|1:0,0:0:0:0:
327,271,160160,1,10,0:0:0:0:
509,166,160329,1,2,0:0:0:0:
319,78,160499,6,0,P|260:89|165:108,1,140.25000428009,2|0,1:2|0:0,0:0:0:0:
181,104,160837,1,8,0:0:0:0:
1,0,161007,1,0,1:0:0:0:
1,0,161092,1,8,0:0:0:0:
1,0,161176,1,0,1:0:0:0:
87,180,161346,1,0,1:0:0:0:
215,0,161515,1,10,0:0:0:0:
14,102,161685,1,2,0:0:0:0:
222,250,161854,5,6,1:2:0:0:
89,42,162024,1,2,1:2:0:0:
319,78,162193,1,10,0:0:0:0:
87,180,162363,2,0,P|73:251|126:297,1,140.25000428009,14|0,0:0|0:0,0:0:0:0:
117,294,162702,1,2,1:2:0:0:
270,173,162871,1,10,0:0:0:0:
211,384,163041,1,2,0:0:0:0:
390,248,163210,5,6,1:2:0:0:
390,248,163380,1,2,1:2:0:0:
270,173,163549,1,10,0:0:0:0:
322,352,163719,2,0,P|371:361|431:372,1,93.5000028533936,6|0,1:2|0:0,0:0:0:0:
467,189,164058,1,2,1:2:0:0:
256,262,164227,1,8,0:0:0:0:
387,107,164397,5,2,1:2:0:0:
387,107,164482,1,0,1:0:0:0:
387,107,164566,1,12,0:0:0:0:
331,338,164736,1,0,1:0:0:0:
163,171,164905,1,8,0:0:0:0:
390,248,165075,1,0,1:0:0:0:
167,369,165244,5,8,0:0:0:0:
265,162,165414,1,2,1:2:0:0:
63,163,165583,1,10,0:0:0:0:
256,262,165753,1,2,1:2:0:0:
33,350,165922,6,0,L|23:297,1,46.7500014266968,8|0,0:0|0:0,0:0:0:0:
0,83,166092,1,8,0:0:0:0:
40,60,166176,1,8,0:0:0:0:
86,59,166261,1,8,0:0:0:0:
126,83,166346,1,8,0:0:0:0:
150,122,166430,1,8,0:0:0:0:
173,162,166515,1,8,0:0:0:0:
213,185,166599,1,10,0:0:0:0:
259,186,166685,1,8,0:0:0:0:
299,162,166769,1,10,0:0:0:0:
323,123,166853,1,8,0:0:0:0:
317,75,166939,5,10,3:0:0:0:
340,77,167023,1,4,3:0:0:0:
363,80,167109,1,4,3:0:0:0:
386,83,167193,1,4,3:0:0:0:
409,86,167278,6,0,P|443:168|378:233,1,187.000005706787,6|10,1:2|0:0,0:0:0:0:
259,360,167787,2,0,P|252:306|245:255,1,93.5000028533936,6|0,1:2|0:0,0:0:0:0:
401,339,168126,1,2,1:2:0:0:
277,179,168295,6,0,B|176:160|202:236|82:208,1,187.000005706787,14|2,0:0|0:0,0:0:0:0:
0,144,168804,1,0,1:0:0:0:
148,0,168973,2,0,P|142:45|135:102,1,93.5000028533936,10|0,0:0|0:0,0:0:0:0:
246,267,169312,1,2,1:2:0:0:
354,105,169482,1,0,1:0:0:0:
136,92,169651,2,0,P|181:98|238:105,1,93.5000028533936,8|0,0:0|0:0,0:0:0:0:
437,258,169990,6,0,P|367:259|325:318,1,140.25000428009,6|0,1:2|0:0,0:0:0:0:
326,310,170329,1,10,0:0:0:0:
175,383,170499,2,0,P|169:336|163:290,1,93.5000028533936,6|0,1:2|0:0,0:0:0:0:
243,181,170837,1,2,1:2:0:0:
60,236,171007,6,0,P|-4:193|20:81,1,187.000005706787,14|2,0:0|0:0,0:0:0:0:
165,122,171515,5,2,1:2:0:0:
79,148,171685,1,10,0:0:0:0:
155,0,171854,5,2,0:0:0:0:
241,26,172024,1,2,1:2:0:0:
370,208,172193,5,2,1:2:0:0:
165,122,172363,1,10,0:0:0:0:
341,0,172532,5,2,0:0:0:0:
341,0,172617,1,2,0:0:0:0:
341,0,172702,2,0,P|335:45|328:102,1,93.5000028533936,14|0,0:0|0:0,0:0:0:0:
263,262,173041,1,10,0:0:0:0:
457,141,173210,1,2,1:2:0:0:
393,344,173380,1,8,0:0:0:0:
253,153,173549,1,2,1:2:0:0:
455,245,173719,1,8,0:0:0:0:
250,354,173888,5,2,1:2:0:0:
250,354,173973,1,2,1:2:0:0:
250,354,174058,2,0,P|257:302|265:240,1,93.5000028533936,8|0,0:0|1:0,0:0:0:0:
82,100,174397,2,0,P|88:146|94:192,1,93.5000028533936,10|0,0:0|1:0,0:0:0:0:
12,327,174736,1,10,0:0:0:0:
221,176,174905,1,0,1:0:0:0:
0,128,175075,1,10,0:0:0:0:
145,347,175244,5,0,1:0:0:0:
145,347,175329,1,0,1:0:0:0:
145,347,175414,5,14,0:0:0:0:
82,100,175583,1,8,0:0:0:0:
244,357,175753,5,8,0:0:0:0:
216,66,175922,1,8,0:0:0:0:
343,373,176092,5,8,0:0:0:0:
357,48,176261,1,8,0:0:0:0:
435,384,176431,5,8,0:0:0:0:
512,59,176600,1,10,0:0:0:0:
206,150,176770,1,14,0:0:0:0:
349,314,178126,6,0,B|409:304|409:304|423:310|423:310|487:299,1,140.25000428009,4|0,1:2|0:0,0:0:0:0:
502,303,178465,2,0,P|510:255|485:202,1,93.5000028533936,10|2,0:0|0:0,0:0:0:0:
303,182,178804,1,2,1:2:0:0:
269,376,178973,1,2,1:2:0:0:
401,209,179143,2,0,P|392:161|385:116,1,93.5000028533936,8|2,0:0|0:0,0:0:0:0:
218,254,179482,5,2,1:2:0:0:
293,51,179651,1,2,0:0:0:0:
137,203,179821,1,10,0:0:0:0:
89,2,179990,1,2,0:0:0:0:
303,182,180160,1,0,1:0:0:0:
303,182,180329,1,0,1:0:0:0:
91,108,180499,2,0,P|42:117|-4:126,1,93.5000028533936,8|2,0:0|0:0,0:0:0:0:
111,347,180837,6,0,B|212:328|186:404|306:376,1,187.000005706787,2|10,1:2|0:0,0:0:0:0:
391,253,181346,2,0,P|398:297|407:350,1,93.5000028533936,2|0,0:0|1:0,0:0:0:0:
303,182,181685,1,2,1:2:0:0:
512,163,181854,2,0,P|467:155|421:146,1,93.5000028533936,8|2,0:0|0:0,0:0:0:0:
247,37,182193,5,0,1:0:0:0:
189,255,182363,1,2,0:0:0:0:
189,255,182448,1,2,0:0:0:0:
189,255,182532,2,0,L|178:194,1,46.7500014266968,10|0,0:0|0:0,0:0:0:0:
128,0,182702,2,0,L|117:61,1,46.7500014266968,2|0,0:0|0:0,0:0:0:0:
9,219,182871,6,0,L|57:229,1,46.7500014266968,2|0,1:2|0:0,0:0:0:0:
241,128,183041,2,0,L|195:118,1,46.7500014266968,2|0,1:2|0:0,0:0:0:0:
1,228,183210,2,0,L|49:238,1,46.7500014266968,10|0,0:0|0:0,0:0:0:0:
197,384,183380,5,2,0:0:0:0:
197,384,183465,1,2,0:0:0:0:
197,384,183549,2,0,P|258:342|320:359,1,140.25000428009,6|0,1:2|0:0,0:0:0:0:
331,369,183888,2,0,P|339:322|347:276,1,93.5000028533936,10|0,0:0|0:0,0:0:0:0:
241,128,184227,1,2,1:2:0:0:
453,163,184397,2,0,P|406:171|360:178,1,93.5000028533936,2|8,1:2|0:0,0:0:0:0:
179,255,184736,1,2,0:0:0:0:
279,35,184905,5,2,1:2:0:0:
346,276,185075,1,2,0:0:0:0:
465,77,185244,1,10,0:0:0:0:
241,128,185414,1,2,0:0:0:0:
241,128,185499,1,2,0:0:0:0:
241,128,185583,2,0,P|246:171|253:221,1,93.5000028533936,0|0,1:0|1:0,0:0:0:0:
200,332,185922,1,8,0:0:0:0:
360,177,186092,1,2,0:0:0:0:
471,384,186261,6,0,B|370:403|396:327|276:355,1,187.000005706787,2|10,1:2|0:0,0:0:0:0:
108,292,186770,2,0,P|114:338|120:384,1,93.5000028533936,2|0,0:0|1:0,0:0:0:0:
252,220,187109,2,0,P|258:174|263:128,1,93.5000028533936,2|8,1:2|0:0,0:0:0:0:
176,42,187448,1,2,0:0:0:0:
363,125,187617,5,0,1:0:0:0:
134,201,187787,1,0,1:0:0:0:
278,41,187956,1,8,0:0:0:0:
339,256,188126,1,0,1:0:0:0:
104,124,188295,6,0,P|82:114|57:116,1,46.7500014266968,2|0,1:2|1:0,0:0:0:0:
36,268,188465,5,2,1:2:0:0:
36,268,188549,1,10,0:0:0:0:
36,268,188634,2,0,P|13:276|-2:295,1,46.7500014266968,2|10,1:2|0:0,0:0:0:0:
182,384,188804,5,10,0:0:0:0:
177,361,188888,1,10,0:0:0:0:
173,338,188973,2,0,B|245:329|245:329|282:350|282:350|357:340,1,187.000005706787,6|10,1:2|0:0,0:0:0:0:
415,206,189482,1,0,0:0:0:0:
505,384,189651,2,0,P|509:333|514:281,1,93.5000028533936,2|0,1:2|1:0,0:0:0:0:
319,159,189990,2,0,P|323:205|326:252,1,93.5000028533936,10|0,0:0|0:0,0:0:0:0:
406,76,190329,5,2,1:2:0:0:
201,165,190499,1,2,0:0:0:0:
415,206,190668,1,10,0:0:0:0:
247,28,190837,2,0,P|200:38|136:51,1,93.5000028533936,2|0,0:0|1:0,0:0:0:0:
0,151,191176,1,0,1:0:0:0:
89,0,191346,1,8,0:0:0:0:
201,165,191515,2,0,L|208:110,1,46.7500014266968,2|2,0:0|0:0,0:0:0:0:
0,288,191685,6,0,P|59:241|166:253,1,187.000005706787,2|10,1:2|0:0,0:0:0:0:
282,347,192193,1,2,0:0:0:0:
341,157,192363,1,0,1:0:0:0:
341,157,192532,1,2,1:2:0:0:
164,252,192702,1,8,0:0:0:0:
375,311,192871,1,2,0:0:0:0:
395,76,193041,5,0,1:0:0:0:
261,233,193210,1,0,1:0:0:0:
489,300,193380,2,0,P|482:251|474:202,1,93.5000028533936,8|0,0:0|0:0,0:0:0:0:
400,29,193719,2,0,L|394:84,1,46.7500014266968,0|0,1:0|0:0,0:0:0:0:
261,233,193888,5,10,0:0:0:0:
219,212,193972,1,8,0:0:0:0:
175,223,194057,1,10,0:0:0:0:
151,264,194143,1,0,1:0:0:0:
114,293,194227,1,2,1:2:0:0:
69,292,194312,1,0,1:0:0:0:
36,258,194397,5,14,0:0:0:0:
231,85,194566,1,2,0:0:0:0:
320,324,194736,1,8,0:0:0:0:
76,136,194905,1,4,1:2:0:0:
76,136,195075,1,2,0:0:0:0:
310,30,195244,1,0,1:0:0:0:
214,302,195414,1,12,0:0:0:0:
455,147,195583,5,4,3:0:0:0:
455,147,195668,1,4,3:0:0:0:
455,147,195753,2,0,L|404:140,1,46.7500014266968,8|8,3:0|0:0,0:0:0:0:
203,219,195922,2,0,L|257:228,1,46.7500014266968,8|8,3:0|3:0,0:0:0:0:
471,133,196092,2,0,L|420:126,1,46.7500014266968,8|4,3:0|3:0,0:0:0:0:
213,56,196261,5,4,3:0:0:0:
169,41,196345,1,4,3:0:0:0:
123,48,196430,1,4,3:0:0:0:
85,75,196515,1,4,3:0:0:0:
64,116,196600,6,0,P|72:142|89:157,1,46.7500014266968,6|4,3:0|3:0,0:0:0:0:
14,251,196770,6,0,P|38:263|60:262,1,46.7500014266968,14|0,0:0|0:0,0:0:0:0:
81,384,196939,6,0,P|107:376|122:359,1,46.7500014266968,2|0,0:0|0:0,0:0:0:0:
250,227,197109,6,0,B|308:243|341:194|341:194|355:254|434:255,1,203.999993774414,6|8,1:2|0:0,0:0:0:0:
512,36,197617,2,0,P|461:43|389:55,1,110.499994941712,4|0,1:2|0:0,0:0:0:0:
412,253,197956,1,0,1:0:0:0:
301,15,198126,1,12,0:0:0:0:
512,123,198295,1,0,0:0:0:0:
245,236,198465,5,0,1:0:0:0:
166,275,198578,5,8,0:0:0:0:
89,249,198691,5,8,0:0:0:0:
50,185,198804,5,8,0:0:0:0:
65,118,198917,5,8,0:0:0:0:
114,80,199030,5,8,0:0:0:0:
168,93,199143,5,8,3:0:0:0:
198,86,199256,1,8,3:0:0:0:
228,78,199369,1,8,3:0:0:0:
271,8,199482,5,4,3:0:0:0:
301,15,199595,1,4,3:0:0:0:
331,23,199708,1,4,3:0:0:0:
421,0,199821,6,0,P|429:58|334:116,1,152.999995330811,6|2,1:2|0:0,0:0:0:0:
176,192,200329,1,0,1:0:0:0:
252,70,200499,2,0,P|262:140|274:226,1,152.999995330811,8|0,0:0|1:0,0:0:0:0:
346,291,201007,1,10,0:0:0:0:
176,192,201176,5,2,1:2:0:0:
176,192,201346,2,0,B|95:170|115:241|15:217,1,152.999995330811,8|0,0:0|1:0,0:0:0:0:
162,288,201854,1,8,0:0:0:0:
42,130,202024,1,0,1:0:0:0:
176,192,202193,1,10,0:0:0:0:
194,188,202277,1,2,0:0:0:0:
213,184,202362,1,2,0:0:0:0:
232,181,202447,1,2,0:0:0:0:
251,177,202532,6,0,B|309:185|309:185|335:210|335:210|392:217,1,152.999995330811,6|2,1:2|0:0,0:0:0:0:
502,278,203041,1,0,1:0:0:0:
512,91,203210,2,0,P|451:79|377:134,1,152.999995330811,8|2,0:0|0:0,0:0:0:0:
392,217,203719,1,2,0:0:0:0:
281,41,203888,5,12,0:0:0:0:
469,183,204058,1,0,1:0:0:0:
415,0,204227,1,0,1:0:0:0:
257,146,204397,1,0,1:0:0:0:
67,30,204566,5,8,0:0:0:0:
291,295,204736,1,8,0:0:0:0:
0,198,204905,1,8,0:0:0:0:
281,41,205075,1,8,0:0:0:0:
512,274,212024,6,0,P|457:268|410:262,1,85,14|8,0:0|0:0,0:0:0:0:
427,264,212278,1,8,0:0:0:0:
427,264,212363,1,2,1:2:0:0:
210,333,212532,5,10,0:0:0:0:
210,333,212617,1,8,0:0:0:0:
210,333,212702,1,0,1:0:0:0:
382,161,212871,5,10,0:0:0:0:
382,161,212956,1,8,0:0:0:0:
382,161,213041,1,0,1:0:0:0:
126,75,213210,6,0,L|135:136,1,42.5,10|8,0:0|0:0,0:0:0:0:
257,249,213380,2,0,P|262:206|269:147,1,85,0|8,1:0|0:0,0:0:0:0:
267,165,213634,1,8,0:0:0:0:
267,165,213719,1,2,1:2:0:0:
402,0,213888,5,8,0:0:0:0:
402,0,213973,1,8,0:0:0:0:
402,0,214058,1,2,1:2:0:0:
512,155,214227,6,0,L|462:145,1,42.5,8|8,0:0|0:0,0:0:0:0:
257,249,214397,1,2,1:2:0:0:
309,18,214566,2,0,L|318:79,1,42.5,8|8,0:0|0:0,0:0:0:0:
332,318,214736,5,14,0:0:0:0:
296,341,214820,1,8,0:0:0:0:
255,348,214905,1,8,0:0:0:0:
214,339,214990,1,8,0:0:0:0:
180,313,215074,1,8,0:0:0:0:
160,276,215159,1,8,0:0:0:0:
155,234,215244,2,0,L|103:241,1,42.5,10|8,0:0|0:0,0:0:0:0:
349,141,215414,2,0,L|391:145,1,42.5,10|8,0:0|0:0,0:0:0:0:
173,25,215583,2,0,L|164:86,1,42.5,10|8,0:0|0:0,0:0:0:0:
344,234,215753,5,10,0:0:0:0:
386,238,215837,1,8,0:0:0:0:
428,243,215922,1,10,0:0:0:0:
470,248,216007,1,10,0:0:0:0:
512,253,216092,1,14,0:0:0:0:
470,361,218126,5,8,0:0:0:0:
433,349,218210,1,8,3:0:0:0:
433,310,218295,1,4,3:0:0:0:
470,299,218380,1,4,3:0:0:0:
492,330,218465,1,8,0:0:0:0:
425,109,218634,2,0,L|417:164,1,42.5,0|0,1:0|1:0,0:0:0:0:
307,302,218804,6,0,B|235:293|235:293|198:314|198:314|123:304,1,187.000005706787,6|0,1:2|1:0,0:0:0:0:
0,384,219312,1,2,1:2:0:0:
176,218,219482,1,0,1:0:0:0:
0,135,219651,1,0,1:0:0:0:
126,304,219821,1,10,0:0:0:0:
139,94,219990,5,2,0:0:0:0:
139,94,220075,1,2,0:0:0:0:
139,94,220160,2,0,P|205:79|259:120,1,140.25000428009,2|0,1:2|0:0,0:0:0:0:
271,133,220499,2,0,P|279:86|287:40,1,93.5000028533936,8|0,0:0|1:0,0:0:0:0:
287,40,220753,1,8,0:0:0:0:
287,40,220838,1,0,1:0:0:0:
430,176,221007,1,0,1:0:0:0:
491,18,221176,1,10,0:0:0:0:
271,133,221346,1,2,0:0:0:0:
462,277,221515,6,0,B|361:296|387:220|267:248,1,187.000005706787,2|10,1:2|0:0,0:0:0:0:
120,297,222024,1,2,1:2:0:0:
120,297,222109,1,8,0:0:0:0:
120,297,222194,2,0,P|115:251|109:202,1,93.5000028533936,0|0,1:0|1:0,0:0:0:0:
271,133,222532,1,10,0:0:0:0:
320,330,222702,1,0,0:0:0:0:
161,124,222871,6,0,P|71:118|14:189,1,187.000005706787,2|8,1:2|0:0,0:0:0:0:
189,343,223380,1,0,1:0:0:0:
189,343,223465,1,8,0:0:0:0:
189,343,223549,1,0,1:0:0:0:
271,133,223719,1,0,1:0:0:0:
109,204,223888,1,10,0:0:0:0:
301,260,224058,1,2,0:0:0:0:
179,35,224227,5,6,1:2:0:0:
409,153,224397,1,2,0:0:0:0:
191,248,224566,1,10,0:0:0:0:
327,27,224736,1,2,1:2:0:0:
327,27,224821,1,8,0:0:0:0:
327,27,224905,1,0,1:0:0:0:
403,258,225075,1,2,1:2:0:0:
496,66,225244,1,10,0:0:0:0:
271,133,225414,1,2,0:0:0:0:
360,344,225583,5,2,1:2:0:0:
409,153,225753,1,2,0:0:0:0:
497,303,225922,1,10,0:0:0:0:
307,226,226092,1,2,1:2:0:0:
307,226,226176,1,8,0:0:0:0:
307,226,226261,1,0,1:0:0:0:
221,363,226431,1,2,1:2:0:0:
271,133,226600,1,10,0:0:0:0:
221,363,226770,1,2,0:0:0:0:
19,184,226939,6,0,B|58:146|104:153|104:153|134:210|203:205,1,187.000005706787,6|10,1:2|0:0,0:0:0:0:
350,49,227448,1,2,1:2:0:0:
350,49,227532,1,8,0:0:0:0:
350,49,227617,1,0,1:0:0:0:
384,267,227787,1,2,1:2:0:0:
183,120,227956,1,8,0:0:0:0:
389,170,228126,1,2,1:2:0:0:
171,293,228295,5,14,0:0:0:0:
204,30,228465,1,8,0:0:0:0:
158,24,228549,1,8,0:0:0:0:
115,42,228634,1,8,0:0:0:0:
88,80,228719,1,8,0:0:0:0:
83,125,228804,2,0,L|141:120,1,46.7500014266968,6|0,1:2|0:0,0:0:0:0:
293,225,228973,5,8,0:0:0:0:
323,190,229057,1,8,0:0:0:0:
367,176,229142,1,8,0:0:0:0:
412,185,229227,1,8,0:0:0:0:
447,216,229311,1,8,0:0:0:0:
463,260,229396,1,8,0:0:0:0:
454,305,229481,1,8,0:0:0:0:
425,341,229566,1,8,0:0:0:0:
381,355,229651,6,0,P|386:245|389:164,1,187.000005706787,6|8,1:2|0:0,0:0:0:0:
512,0,230160,1,2,1:2:0:0:
512,0,230244,1,8,0:0:0:0:
512,0,230329,1,0,1:0:0:0:
512,191,230499,1,0,1:0:0:0:
316,89,230668,2,0,P|268:97|209:106,1,93.5000028533936,10|0,0:0|0:0,0:0:0:0:
57,276,231007,6,0,B|121:279|121:279|134:288|134:288|194:292,1,140.25000428009,2|0,1:2|0:0,0:0:0:0:
208,296,231346,2,0,P|216:342|190:383,1,93.5000028533936,8|0,0:0|1:0,0:0:0:0:
192,380,231600,1,8,0:0:0:0:
192,380,231685,1,0,1:0:0:0:
128,187,231854,1,0,1:0:0:0:
316,270,232024,1,10,0:0:0:0:
87,365,232193,1,2,0:0:0:0:
281,181,232363,6,0,B|384:156|358:232|459:213,1,187.000005706787,2|10,1:2|0:0,0:0:0:0:
342,352,232871,1,2,1:2:0:0:
342,352,232956,1,8,0:0:0:0:
342,352,233041,1,0,1:0:0:0:
427,134,233210,1,0,1:0:0:0:
249,262,233380,1,10,0:0:0:0:
458,384,233549,5,2,0:0:0:0:
458,384,233634,1,2,0:0:0:0:
458,384,233719,2,0,P|450:326|444:277,1,93.5000028533936,2|0,1:2|0:0,0:0:0:0:
281,181,234058,1,8,0:0:0:0:
235,384,234227,1,0,1:0:0:0:
235,384,234312,1,8,0:0:0:0:
235,384,234397,1,0,1:0:0:0:
385,210,234566,1,0,1:0:0:0:
183,148,234736,1,10,0:0:0:0:
342,352,234905,1,2,0:0:0:0:
89,274,235075,5,6,1:2:0:0:
243,77,235244,1,2,1:2:0:0:
11,129,235414,1,10,0:0:0:0:
200,317,235583,2,0,P|209:265|217:217,1,93.5000028533936,14|0,0:0|0:0,0:0:0:0:
357,72,235922,1,2,1:2:0:0:
149,0,236092,1,10,0:0:0:0:
215,224,236261,1,2,0:0:0:0:
437,163,236431,5,6,1:2:0:0:
437,163,236600,1,2,1:2:0:0:
298,0,236770,1,10,0:0:0:0:
328,201,236939,2,0,P|320:247|312:293,1,93.5000028533936,6|0,1:2|0:0,0:0:0:0:
205,384,237278,1,2,1:2:0:0:
411,237,237448,1,8,0:0:0:0:
166,137,237617,5,2,1:2:0:0:
166,137,237702,1,0,1:0:0:0:
166,137,237787,1,12,0:0:0:0:
311,293,237956,2,0,L|365:303,1,46.7500014266968,2|0,1:2|0:0,0:0:0:0:
113,384,238126,2,0,L|67:375,1,46.7500014266968,10|0,0:0|0:0,0:0:0:0:
320,284,238295,2,0,L|374:294,1,46.7500014266968,2|0,1:2|0:0,0:0:0:0:
111,214,238465,5,10,0:0:0:0:
333,112,238634,1,2,1:2:0:0:
92,78,238804,1,10,0:0:0:0:
220,312,238973,1,2,1:2:0:0:
427,164,239143,5,12,0:0:0:0:
239,9,239312,2,0,L|248:72,1,46.7500014266968,4|4,3:0|3:0,0:0:0:0:
220,312,239482,1,8,3:0:0:0:
174,319,239566,1,8,3:0:0:0:
132,299,239651,1,8,0:0:0:0:
109,260,239736,1,8,0:0:0:0:
111,214,239821,6,0,L|181:224,1,46.7500014266968,10|8,0:0|0:0,0:0:0:0:
344,140,239990,2,0,L|297:133,1,46.7500014266968,10|8,0:0|0:0,0:0:0:0:
103,0,240160,5,10,0:0:0:0:
52,0,240244,1,8,0:0:0:0:
13,31,240329,1,8,0:0:0:0:
0,80,240414,1,8,0:0:0:0:
20,126,240499,6,0,B|92:117|92:117|129:138|129:138|204:128,1,187.000005706787,6|10,1:2|0:0,0:0:0:0:
354,232,241007,2,0,P|348:183|343:136,1,93.5000028533936,6|0,1:2|0:0,0:0:0:0:
405,33,241346,1,2,1:2:0:0:
451,260,241515,6,0,P|409:315|289:309,1,187.000005706787,14|2,0:0|0:0,0:0:0:0:
183,217,242024,1,0,1:0:0:0:
92,384,242193,2,0,P|46:377|-4:369,1,93.5000028533936,10|0,0:0|0:0,0:0:0:0:
175,204,242532,2,0,P|221:211|267:218,1,93.5000028533936,2|0,1:2|1:0,0:0:0:0:
343,139,242871,1,8,0:0:0:0:
121,114,243041,5,2,0:0:0:0:
121,114,243126,1,2,0:0:0:0:
121,114,243210,2,0,P|72:152|81:241,1,140.25000428009,6|0,1:2|0:0,0:0:0:0:
70,225,243549,1,10,0:0:0:0:
195,384,243719,2,0,P|201:335|206:288,1,93.5000028533936,6|0,1:2|0:0,0:0:0:0:
44,362,244058,1,2,1:2:0:0:
175,204,244227,6,0,B|276:185|250:261|370:233,1,187.000005706787,14|2,0:0|0:0,0:0:0:0:
501,164,244736,5,2,1:2:0:0:
484,323,244905,1,10,0:0:0:0:
353,236,245075,1,2,0:0:0:0:
448,241,245244,1,2,1:2:0:0:
374,131,245414,5,2,1:2:0:0:
484,323,245583,1,10,0:0:0:0:
334,253,245753,5,2,0:0:0:0:
334,253,245837,1,2,0:0:0:0:
334,253,245922,2,0,P|287:258|241:266,1,93.5000028533936,14|0,0:0|0:0,0:0:0:0:
133,159,246261,1,10,0:0:0:0:
251,357,246431,1,2,1:2:0:0:
264,99,246600,1,8,0:0:0:0:
97,263,246770,1,2,1:2:0:0:
346,332,246939,1,8,0:0:0:0:
133,159,247109,5,2,1:2:0:0:
133,159,247193,1,2,1:2:0:0:
133,159,247278,2,0,P|141:109|148:52,1,93.5000028533936,10|0,0:0|1:0,0:0:0:0:
383,146,247617,1,10,0:0:0:0:
227,0,247787,1,0,1:0:0:0:
284,234,247956,1,10,0:0:0:0:
455,54,248126,1,0,1:0:0:0:
223,122,248295,1,10,0:0:0:0:
408,302,248465,5,0,1:0:0:0:
408,302,248549,1,0,1:0:0:0:
408,302,248634,5,14,0:0:0:0:
455,54,248804,1,8,0:0:0:0:
329,324,248973,5,8,0:0:0:0:
308,20,249143,1,8,0:0:0:0:
251,355,249312,5,8,0:0:0:0:
132,36,249482,1,8,0:0:0:0:
174,384,249651,5,8,0:0:0:0:
3,125,249821,1,10,0:0:0:0:
311,145,249990,1,14,0:0:0:0:
228,297,252024,5,8,0:0:0:0:
206,266,252109,1,8,3:0:0:0:
169,277,252194,1,4,3:0:0:0:
169,316,252279,1,4,3:0:0:0:
206,328,252363,1,8,0:0:0:0:
395,346,252532,2,0,L|402:295,1,46.7500014266968,0|0,1:0|1:0,0:0:0:0:
326,150,252702,6,0,B|254:141|254:141|217:162|217:162|142:152,1,187.000005706787,6|8,1:2|0:0,0:0:0:0:
0,213,253210,1,2,1:2:0:0:
0,213,253295,1,8,0:0:0:0:
0,213,253380,1,0,1:0:0:0:
154,65,253549,1,0,1:0:0:0:
206,266,253719,1,10,0:0:0:0:
55,80,253888,2,0,B|47:133,1,46.7500014266968,2|2,0:0|0:0,0:0:0:0:
144,340,254058,6,0,P|248:353|298:272,1,187.000005706787,2|8,1:2|0:0,0:0:0:0:
326,150,254566,1,0,1:0:0:0:
326,150,254651,1,8,0:0:0:0:
326,150,254736,2,0,P|280:155|210:163,1,93.5000028533936,0|0,1:0|1:0,0:0:0:0:
409,27,255075,2,0,L|401:80,1,46.7500014266968,10|2,0:0|0:0,0:0:0:0:
457,220,255244,2,0,L|450:173,1,46.7500014266968,2|2,0:0|0:0,0:0:0:0:
236,49,255414,6,0,P|141:81|121:164,1,187.000005706787,2|10,1:2|0:0,0:0:0:0:
78,328,255922,1,2,1:2:0:0:
78,328,256007,1,8,0:0:0:0:
78,328,256092,1,0,1:0:0:0:
233,160,256261,1,0,1:0:0:0:
9,122,256431,2,0,P|15:168|24:230,1,93.5000028533936,10|0,0:0|0:0,0:0:0:0:
167,324,256770,6,0,B|268:305|242:381|362:353,1,187.000005706787,2|8,1:2|0:0,0:0:0:0:
447,239,257278,2,0,L|439:288,1,46.7500014266968,2|8,1:2|0:0,0:0:0:0:
475,384,257448,1,0,1:0:0:0:
315,247,257617,1,0,1:0:0:0:
512,161,257787,2,0,P|466:155|419:148,1,93.5000028533936,8|0,0:0|0:0,0:0:0:0:
211,46,258126,6,0,P|282:-12|371:16,1,187.000005706787,6|8,1:2|0:0,0:0:0:0:
286,172,258634,1,0,1:0:0:0:
286,172,258719,1,8,0:0:0:0:
286,172,258804,2,0,P|292:126|299:79,1,93.5000028533936,0|2,1:0|1:2,0:0:0:0:
207,247,259143,1,10,0:0:0:0:
385,141,259312,1,2,0:0:0:0:
207,47,259482,6,0,B|143:54|143:54|131:64|131:64|71:71,1,140.25000428009,2|0,1:2|0:0,0:0:0:0:
59,82,259821,2,0,P|45:130|74:175,1,93.5000028533936,10|2,0:0|1:2,0:0:0:0:
63,166,260075,1,8,0:0:0:0:
63,166,260160,1,0,1:0:0:0:
33,356,260329,1,2,1:2:0:0:
207,247,260499,2,0,P|201:201|194:154,1,93.5000028533936,10|0,0:0|0:0,0:0:0:0:
383,91,260837,5,2,1:2:0:0:
307,293,261007,1,2,0:0:0:0:
368,75,261176,1,10,0:0:0:0:
512,228,261346,1,2,1:2:0:0:
512,228,261431,1,8,0:0:0:0:
512,228,261515,2,0,P|465:237|412:249,1,93.5000028533936,0|2,1:0|1:2,0:0:0:0:
239,345,261854,1,10,0:0:0:0:
342,160,262024,2,0,L|335:208,1,46.7500014266968,2|0,0:0|0:0,0:0:0:0:
367,384,262193,5,10,0:0:0:0:
228,250,262363,1,10,0:0:0:0:
54,328,262532,1,2,1:2:0:0:
249,160,262702,1,10,0:2:0:0:
249,160,262787,1,10,0:0:0:0:
249,160,262871,2,0,L|257:113,1,46.7500014266968,10|0,0:0|0:0,0:0:0:0:
116,6,263041,1,2,0:0:0:0:
70,0,263126,1,10,0:0:0:0:
28,22,263210,1,10,3:0:0:0:
3,63,263295,1,6,3:0:0:0:
1,109,263380,1,6,3:0:0:0:
22,149,263464,1,6,3:0:0:0:
58,179,263549,6,0,L|115:167,1,46.7500014266968,6|8,1:2|3:0,0:0:0:0:
249,293,263719,1,8,3:0:0:0:
249,293,263804,1,8,3:0:0:0:
249,293,263888,2,0,L|203:283,1,46.7500014266968,8|4,3:0|3:0,0:0:0:0:
256,113,264058,1,6,3:0:0:0:
298,95,264142,1,8,3:0:0:0:
345,98,264227,1,8,3:0:0:0:
385,121,264312,1,8,3:0:0:0:
410,160,264397,2,0,L|404:217,1,46.7500014266968,0|4,1:0|3:0,0:0:0:0:
479,357,264566,2,0,L|483:310,1,46.7500014266968,6|4,3:0|3:0,0:0:0:0:
249,293,264736,5,4,3:0:0:0:
249,293,264821,1,4,3:0:0:0:
249,293,264905,2,0,B|177:284|177:284|140:305|140:305|65:295,1,187.000005706787,6|8,1:2|0:0,0:0:0:0:
130,122,265414,1,0,1:0:0:0:
130,122,265499,1,8,0:0:0:0:
130,122,265583,2,0,P|123:168|114:226,1,93.5000028533936,0|0,1:0|1:0,0:0:0:0:
35,66,265922,1,10,0:0:0:0:
207,186,266092,1,2,0:0:0:0:
255,0,266261,6,0,P|336:-2|388:55,1,140.25000428009,2|0,1:2|0:0,0:0:0:0:
378,34,266600,1,8,0:0:0:0:
512,181,266770,1,2,1:2:0:0:
512,181,266854,1,8,0:0:0:0:
512,181,266939,1,0,1:0:0:0:
480,0,267109,1,0,1:0:0:0:
300,80,267278,2,0,P|307:126|316:184,1,93.5000028533936,10|0,0:0|0:0,0:0:0:0:
476,296,267617,6,0,B|375:277|401:353|281:325,1,187.000005706787,2|8,1:2|0:0,0:0:0:0:
124,262,268126,1,0,1:0:0:0:
124,262,268210,1,8,0:0:0:0:
124,262,268295,1,0,1:0:0:0:
314,172,268465,1,0,1:0:0:0:
196,362,268634,1,8,0:0:0:0:
113,152,268804,5,2,0:0:0:0:
113,152,268888,1,2,0:0:0:0:
113,152,268973,2,0,P|213:165|305:179,1,187.000005706787,6|8,1:2|0:0,0:0:0:0:
462,228,269482,2,0,L|472:172,1,46.7500014266968,2|2,0:0|0:0,0:0:0:0:
371,39,269651,2,0,P|378:83|386:136,1,93.5000028533936,2|0,1:2|1:0,0:0:0:0:
339,323,269990,2,0,P|280:314|218:379,1,140.25000428009,10|0,0:0|0:0,0:0:0:0:
210,377,270329,6,0,P|203:330|195:284,1,93.5000028533936,4|0,1:2|0:0,0:0:0:0:
298,177,270668,1,10,0:0:0:0:
98,229,270837,2,0,P|34:189|55:71,1,187.000005706787,2|2,1:2|1:2,0:0:0:0:
217,0,271346,1,10,0:0:0:0:
112,137,271515,1,2,1:2:0:0:
310,84,271685,6,0,P|304:130|296:187,1,93.5000028533936,6|2,1:2|0:0,0:0:0:0:
352,274,272024,1,10,0:0:0:0:
205,110,272193,1,2,0:0:0:0:
400,146,272363,1,0,1:0:0:0:
400,146,272532,1,0,1:0:0:0:
216,307,272702,2,0,P|209:260|203:214,1,93.5000028533936,8|2,0:0|0:0,0:0:0:0:
351,45,273041,6,0,B|415:52|415:52|427:62|427:62|487:69,1,140.25000428009,0|0,1:0|0:0,0:0:0:0:
499,80,273380,2,0,P|513:128|484:173,1,93.5000028533936,10|2,0:0|0:0,0:0:0:0:
356,259,273719,1,2,1:2:0:0:
255,84,273888,1,2,1:2:0:0:
450,237,274058,1,10,0:0:0:0:
224,314,274227,2,0,L|228:267,1,46.7500014266968,2|0,1:2|0:0,0:0:0:0:
255,84,274397,6,0,P|156:77|95:157,1,187.000005706787,6|8,1:2|0:0,0:0:0:0:
44,295,274905,1,2,0:0:0:0:
200,168,275075,1,0,1:0:0:0:
0,83,275244,1,0,1:0:0:0:
142,257,275414,1,8,0:0:0:0:
255,84,275583,5,0,1:2:0:0:
255,84,275668,1,2,0:0:0:0:
255,84,275753,1,12,0:0:0:0:
393,289,275922,1,0,1:0:0:0:
457,32,276092,1,8,0:0:0:0:
200,168,276261,1,8,0:0:0:0:
512,233,276431,5,8,0:0:0:0:
243,2,276600,1,8,0:0:0:0:
207,335,276770,1,8,0:0:0:0:
412,155,276939,5,10,0:0:0:0:
412,155,277024,1,2,0:0:0:0:
412,155,277109,2,0,P|404:216|392:302,1,136,6|2,1:2|0:0,0:0:0:0:
326,355,277617,2,0,B|290:352|272:321|272:321|237:345|206:334,1,136,2|2,0:0|0:0,0:0:0:0:
124,384,278126,1,2,0:0:0:0:
105,154,278804,5,2,0:0:0:0:
224,42,279143,1,2,0:0:0:0:
262,202,279482,1,2,0:0:0:0:
142,315,279821,5,2,0:0:0:0:
211,272,279991,1,2,0:0:0:0:
290,285,280160,1,2,0:0:0:0:
328,357,280330,1,2,0:0:0:0:
328,357,280668,1,2,0:0:0:0:
365,210,280837,6,0,B|445:200|429:252|521:235,1,152.999995330811,2|0,0:0|0:0,0:0:0:0:
511,236,282000,6,0,L|506:193,2,28.3333333333333,2|2|2,0:0|0:0|0:0,0:0:0:0:
505,192,282240,1,2,0:0:0:0:
485,75,284256,6,0,L|476:149,1,42.5,2|2,0:0|0:0,0:0:0:0:
474,133,284445,1,2,0:0:0:0:
466,148,284508,2,0,B|423:177|364:161|364:161|398:120|411:91|412:62|407:6|368:5|306:-4|301:66|301:66|257:17|185:32|171:91|192:140|236:154|256:162|288:175|288:175|252:197|218:213|199:249|212:279|230:297|249:318|249:318|290:372|369:375|397:308|380:238|299:214|262:264|247:294|250:319|250:319|223:315|205:326|172:355|135:334|124:285|98:260|71:252|27:278,1,1376.9999579773,2|0,0:0|0:0,0:0:0:0:
