osu file format v14

[General]
AudioFilename: audio.mp3
AudioLeadIn: 0
PreviewTime: 66515
Countdown: 0
SampleSet: Soft
StackLeniency: 0.7
Mode: 0
LetterboxInBreaks: 0
WidescreenStoryboard: 1

[Editor]
Bookmarks: 17799,60172,60849,138646,166939,188465,199143,199482,205244,214736,215414,277109
DistanceSpacing: 1.7
BeatDivisor: 4
GridSize: 32
TimelineZoom: 2.4

[Metadata]
Title:The One and Only
TitleUnicode:The One and Only
Artist:Tsuki no Tempest
ArtistUnicode:月のテンペスト
Creator:SayuMana
Version:Insane
Source:IDOLY PRIDE
Tags:Moon Tempest 星見プロダクション所属 Hoshimi Production 長瀬琴乃 Nagase Kotono 橘美來 Tachibana Mirai 伊吹渚 Ibuki Nagisa 夏目ここな Natsume Kokona 白石沙季 Shiraishi Saki 宮沢小春 Miyazawa Koharu 成宮すず Narumiya Suzu 相川奏多 Aikawa Kanata 早坂芽衣 Hayasaka Mei 日向もか Moka Hinata japanese anime video game pop jpop j-pop idol girl female vocals vocalist idols ckharv
BeatmapID:3672893
BeatmapSetID:1774018

[Difficulty]
HPDrainRate:5
CircleSize:3.8
OverallDifficulty:8
ApproachRate:9
SliderMultiplier:1.7
SliderTickRate:1

[Events]
//Background and Video events
0,0,"bg.jpg",0,0
Video,0,"video.m4v"
//Break Periods
2,206600,211424
//Storyboard Layer 0 (Background)
//Storyboard Layer 1 (Fail)
//Storyboard Layer 2 (Pass)
//Storyboard Layer 3 (Foreground)
//Storyboard Layer 4 (Overlay)
//Storyboard Sound Samples

[TimingPoints]
161,338.983050847458,4,2,1,100,1,0
330,-100,4,2,1,40,0,0
499,338.983050847458,4,2,1,40,1,0
499,-125,4,2,1,40,0,0
11346,-111.111111111111,4,2,1,60,0,0
13973,-111.111111111111,4,2,1,60,0,0
14058,-111.111111111111,4,2,1,60,0,0
15414,-142.857142857143,4,2,1,60,0,0
15583,-142.857142857143,4,2,1,40,0,0
17787,-142.857142857143,4,2,1,5,0,0
18126,-90.9090909090909,4,2,1,80,0,0
23634,-90.9090909090909,4,2,1,80,0,0
23719,-90.9090909090909,4,2,1,80,0,0
23804,-90.9090909090909,4,2,1,80,0,0
23888,-90.9090909090909,4,2,1,80,0,0
23973,-90.9090909090909,4,2,1,80,0,0
24058,-90.9090909090909,4,2,1,80,0,0
24143,-90.9090909090909,4,2,1,80,0,0
24227,-90.9090909090909,4,2,1,80,0,0
24312,-90.9090909090909,4,2,1,80,0,0
24397,-90.9090909090909,4,2,1,80,0,0
24482,-90.9090909090909,4,2,1,80,0,0
24566,-90.9090909090909,4,2,1,80,0,0
29651,-90.9090909090909,4,2,1,85,0,0
30329,-90.9090909090909,4,2,1,80,0,0
31685,-111.111111111111,4,2,1,40,0,0
42193,-249.999999999999,4,2,1,40,0,0
42448,-249.999999999999,4,2,1,5,0,0
42532,-111.111111111111,4,2,1,50,0,0
47956,-100,4,2,1,60,0,0
53380,-142.857142857143,4,2,1,40,0,0
57617,-142.857142857143,4,2,1,5,0,0
57702,-142.857142857143,4,2,1,40,0,0
58465,-333.333333333334,4,2,1,40,0,0
58719,-333.333333333334,4,2,1,5,0,0
58804,-83.3333333333333,4,2,1,60,0,0
59143,-100,4,2,1,60,0,0
60160,-100,4,2,1,70,0,0
60837,-100,4,2,1,75,0,0
61176,-100,4,2,1,70,0,0
61515,-111.111111111111,4,2,1,60,0,0
64227,-100,4,2,1,70,0,0
66939,-90.9090909090909,4,2,1,80,0,1
88295,-83.3333333333333,4,2,1,80,0,1
88549,-83.3333333333333,4,2,1,5,0,1
88634,-90.9090909090909,4,2,1,80,0,1
97448,-90.9090909090909,4,2,1,85,0,1
99482,-90.9090909090909,4,2,1,80,0,0
104990,-90.9090909090909,4,2,1,80,0,0
105075,-90.9090909090909,4,2,1,80,0,0
105160,-90.9090909090909,4,2,1,80,0,0
105244,-90.9090909090909,4,2,1,80,0,0
105329,-90.9090909090909,4,2,1,80,0,0
105414,-90.9090909090909,4,2,1,80,0,0
105499,-90.9090909090909,4,2,1,80,0,0
105583,-90.9090909090909,4,2,1,80,0,0
105668,-90.9090909090909,4,2,1,80,0,0
105753,-90.9090909090909,4,2,1,80,0,0
105838,-90.9090909090909,4,2,1,80,0,0
105922,-90.9090909090909,4,2,1,80,0,0
109821,-166.666666666667,4,2,1,35,0,0
110329,-125,4,2,1,40,0,0
121176,-111.111111111111,4,2,1,50,0,0
126600,-100,4,2,1,60,0,0
132024,-142.857142857143,4,2,1,40,0,0
136346,-142.857142857143,4,2,1,5,0,0
136431,-142.857142857143,4,2,1,40,0,0
136515,-142.857142857143,4,2,1,5,0,0
136770,-142.857142857143,4,2,1,40,0,0
137109,-250.000000000001,4,2,1,40,0,0
137363,-250.000000000001,4,2,1,5,0,0
137448,-100,4,2,1,50,0,0
140160,-100,4,2,1,60,0,0
142871,-100,4,2,1,70,0,0
144736,-100,4,2,1,75,0,0
145244,-83.3333333333333,4,2,1,75,0,0
145583,-90.9090909090909,4,2,1,80,0,1
156092,-83.3333333333333,4,2,1,80,0,1
156346,-83.3333333333333,4,2,1,80,0,1
156431,-90.9090909090909,4,2,1,80,0,1
175414,-90.9090909090909,4,2,1,85,0,1
178126,-90.9090909090909,4,2,1,70,0,0
182617,-90.9090909090909,4,2,1,70,0,0
182702,-90.9090909090909,4,2,1,70,0,0
182787,-90.9090909090909,4,2,1,70,0,0
182871,-90.9090909090909,4,2,1,70,0,0
182956,-90.9090909090909,4,2,1,70,0,0
183041,-90.9090909090909,4,2,1,70,0,0
183126,-90.9090909090909,4,2,1,70,0,0
183210,-90.9090909090909,4,2,1,70,0,0
183295,-90.9090909090909,4,2,1,70,0,0
183380,-90.9090909090909,4,2,1,70,0,0
198465,-90.9090909090909,4,2,1,70,0,0
199821,-111.111111111111,4,2,1,60,0,0
203888,-111.111111111111,4,2,1,70,0,0
205922,-111.111111111111,4,2,1,40,0,0
206600,-125,4,2,1,40,0,0
212024,-100,4,2,1,70,0,0
215414,-100,4,2,1,75,0,0
218804,-90.9090909090909,4,2,1,80,0,1
238041,-90.9090909090909,4,2,1,80,0,1
238126,-90.9090909090909,4,2,1,80,0,1
238210,-90.9090909090909,4,2,1,80,0,1
238295,-90.9090909090909,4,2,1,80,0,1
238380,-90.9090909090909,4,2,1,80,0,1
238465,-90.9090909090909,4,2,1,80,0,1
248634,-90.9090909090909,4,2,1,85,0,1
252702,-90.9090909090909,4,2,1,80,0,0
277109,-125,4,2,1,40,0,0
280837,-222.222222222222,4,2,1,40,0,0
281515,-222.222222222222,4,2,1,5,0,0
282000,400,4,2,1,40,1,0
282240,504.201680672269,4,2,1,40,1,0
284508,-166.666666666667,4,2,1,40,0,0
290811,-166.666666666667,4,2,1,5,0,0

[Colours]
Combo1 : 255,193,142
Combo2 : 255,251,168
Combo3 : 215,155,255
Combo4 : 158,145,255

[HitObjects]
0,290,330,5,2,0:0:0:0:
0,290,415,1,2,0:0:0:0:
0,290,499,2,0,P|65:280|148:268,1,136,2|0,0:0|0:0,0:0:0:0:
207,335,1007,1,2,0:0:0:0:
207,335,1092,1,2,0:0:0:0:
207,335,1176,2,0,P|232:286|205:206,1,136,2|2,0:0|0:0,0:0:0:0:
102,94,1854,6,0,L|110:15,2,68,2|2|2,0:0|0:0|0:0,0:0:0:0:
29,150,2363,1,2,0:0:0:0:
212,215,3041,5,2,0:0:0:0:
212,215,3126,1,2,0:0:0:0:
212,215,3210,2,0,L|289:204,1,68,2|2,0:0|0:0,0:0:0:0:
371,233,3549,1,2,0:0:0:0:
371,233,3719,1,2,0:0:0:0:
231,103,4058,1,2,0:0:0:0:
231,103,4228,1,2,0:0:0:0:
424,54,4566,6,0,P|444:20|437:71,1,136,2|0,0:0|0:0,0:0:0:0:
452,74,5244,2,0,L|467:160,2,68,2|2|2,0:0|0:0|0:0,0:0:0:0:
371,233,5922,6,0,P|315:198|244:213,1,136,2|2,0:0|0:0,0:0:0:0:
212,303,6431,2,0,B|140:287|155:351|61:323,1,136,2|2,0:0|0:0,0:0:0:0:
3,263,6939,6,0,P|9:189|13:127,1,136,2|0,0:0|0:0,0:0:0:0:
13,127,7617,2,0,P|48:108|87:111,1,68,2|0,0:0|0:0,0:0:0:0:
113,21,7956,2,0,P|151:32|176:62,1,68,2|0,0:0|0:0,0:0:0:0:
271,65,8295,2,0,P|266:117|259:179,1,102,2|0,0:0|0:0,0:0:0:0:
260,166,8634,6,0,B|332:150|317:214|411:186,1,136,2|2,0:0|0:0,0:0:0:0:
467,141,9143,2,0,P|488:189|453:262,1,136,2|2,0:0|0:0,0:0:0:0:
390,327,9651,6,0,B|302:299|302:299|249:332,1,136,2|2,0:0|0:0,0:0:0:0:
182,374,10160,1,2,0:0:0:0:
182,374,10329,2,0,L|173:305,1,68,2|2,0:0|0:0,0:0:0:0:
210,228,10668,1,2,0:0:0:0:
91,178,10837,2,0,L|82:245,1,68,2|2,0:0|0:0,0:0:0:0:
8,301,11176,1,2,0:0:0:0:
14,115,11346,6,0,P|67:80|163:106,1,152.999995330811,6|2,1:2|1:2,0:0:0:0:
215,170,11854,2,0,P|255:162|309:153,1,76.4999976654053,2|0,0:0|1:0,0:0:0:0:
409,38,12193,2,0,P|369:30|315:21,1,76.4999976654053,2|0,0:0|1:0,0:0:0:0:
245,62,12532,1,2,0:0:0:0:
409,189,12702,6,0,P|402:246|395:310,1,114.749996498108,0|0,1:0|0:0,0:0:0:0:
395,302,13041,2,0,P|362:323|325:324,1,76.4999976654053,2|0,1:2|0:0,0:0:0:0:
215,170,13380,2,0,P|248:187|268:219,1,76.4999976654053,2|0,1:2|0:0,0:0:0:0:
190,384,13719,2,0,P|188:346|205:312,1,76.4999976654053,2|0,1:2|0:0,0:0:0:0:
405,185,14058,6,0,P|443:190|481:196,1,76.4999976654053,14|8,0:0|0:0,0:0:0:0:
369,1,14397,2,0,P|331:6|293:12,1,76.4999976654053,8|8,0:0|0:0,0:0:0:0:
215,170,14736,1,8,0:0:0:0:
390,99,14905,1,8,0:0:0:0:
181,54,15075,1,8,0:0:0:0:
328,225,15244,1,8,0:0:0:0:
125,314,15414,6,0,P|114:246|104:191,1,118.999996368408,14|2,0:0|0:0,0:0:0:0:
0,132,15922,2,0,B|61:146|49:97|125:113,1,118.999996368408,2|2,0:0|0:0,0:0:0:0:
181,54,16431,1,2,0:0:0:0:
256,192,16515,12,0,17787,0:0:0:0:
239,348,18126,6,0,B|303:340|303:340|325:348|325:348|397:339,1,140.25000428009,6|0,1:2|0:0,0:0:0:0:
377,341,18465,2,0,P|393:295|378:253,1,93.5000028533936,10|0,0:0|0:0,0:0:0:0:
241,179,18804,2,0,P|192:185|140:192,1,93.5000028533936,2|0,1:2|1:0,0:0:0:0:
351,69,19143,2,0,P|345:118|338:170,1,93.5000028533936,10|0,0:0|0:0,0:0:0:0:
158,291,19482,6,0,P|91:281|55:174,1,187.000005706787,2|8,1:2|0:0,0:0:0:0:
185,102,19990,1,2,0:0:0:0:
0,64,20160,1,2,1:2:0:0:
174,1,20329,1,2,1:2:0:0:
148,190,20499,2,0,P|194:183|240:178,1,93.5000028533936,8|0,0:0|0:0,0:0:0:0:
337,44,20837,6,0,P|409:34|470:83,1,140.25000428009,2|0,1:2|0:0,0:0:0:0:
462,70,21176,2,0,P|456:119|449:171,1,93.5000028533936,10|0,0:0|0:0,0:0:0:0:
472,296,21515,2,0,P|428:287|378:276,1,93.5000028533936,2|0,1:2|1:0,0:0:0:0:
240,177,21854,2,0,P|284:168|334:157,1,93.5000028533936,10|0,0:0|0:0,0:0:0:0:
249,351,22193,6,0,B|185:343|185:343|163:351|163:351|91:342,1,140.25000428009,2|0,1:2|0:0,0:0:0:0:
111,344,22532,2,0,P|95:298|110:256,1,93.5000028533936,10|0,0:0|0:0,0:0:0:0:
228,84,22871,2,0,P|234:133|241:185,1,93.5000028533936,2|0,1:2|1:0,0:0:0:0:
365,324,23210,2,0,P|371:277|376:231,1,93.5000028533936,10|0,0:0|0:0,0:0:0:0:
503,123,23549,5,2,1:2:0:0:
416,67,23719,1,2,0:0:0:0:
315,89,23888,1,10,0:0:0:0:
508,116,24058,5,2,1:2:0:0:
418,58,24228,1,2,0:0:0:0:
314,81,24397,1,2,1:2:0:0:
375,231,24566,6,0,B|270:205|299:278|185:253,1,187.000005706787,14|0,0:0|0:0,0:0:0:0:
20,201,25075,1,0,1:0:0:0:
95,367,25244,2,0,P|101:320|108:274,1,93.5000028533936,8|0,0:0|0:0,0:0:0:0:
194,155,25583,1,2,1:2:0:0:
194,155,25668,1,2,0:0:0:0:
194,155,25753,2,0,P|145:167|101:178,1,93.5000028533936,2|8,1:2|0:0,0:0:0:0:
127,70,26092,1,0,1:0:0:0:
254,221,26261,6,0,B|323:205|323:205|362:223|362:223|433:205,1,187.000005706787,6|8,1:2|0:0,0:0:0:0:
512,91,26770,1,0,1:0:0:0:
350,0,26939,2,0,P|345:44|339:95,1,93.5000028533936,8|2,0:0|1:2,0:0:0:0:
254,221,27278,1,10,0:0:0:0:
428,121,27448,1,2,1:2:0:0:
444,329,27617,6,0,P|395:317|351:306,1,93.5000028533936,10|0,0:0|1:0,0:0:0:0:
353,306,27871,1,2,0:0:0:0:
353,306,27956,1,8,0:0:0:0:
254,221,28126,1,2,1:2:0:0:
208,354,28295,5,10,0:0:0:0:
191,151,28465,1,0,1:0:0:0:
191,151,28549,1,2,0:0:0:0:
191,151,28634,1,8,0:0:0:0:
379,219,28804,1,2,1:2:0:0:
142,250,28973,6,0,P|94:245|41:238,1,93.5000028533936,14|8,0:0|0:0,0:0:0:0:
180,58,29312,2,0,P|185:104|190:150,1,93.5000028533936,8|8,0:0|0:0,0:0:0:0:
208,354,29651,1,8,0:0:0:0:
379,219,29821,1,8,0:0:0:0:
190,150,29990,1,8,0:0:0:0:
354,324,30160,1,8,0:0:0:0:
431,108,30329,1,8,0:0:0:0:
202,305,31685,6,0,P|279:314|373:326,2,152.999995330811,2|0|0,1:2|1:0|1:0,0:0:0:0:
119,355,32532,1,2,0:0:0:0:
119,355,32702,1,2,1:2:0:0:
26,235,32871,5,2,0:0:0:0:
26,235,33041,2,0,P|88:193|161:207,1,152.999995330811,2|2,1:2|1:2,0:0:0:0:
263,226,33549,2,0,P|256:183|250:139,1,76.4999976654053,2|0,0:0|1:0,0:0:0:0:
372,89,33888,2,0,P|366:126|360:164,1,76.4999976654053,2|0,0:0|1:0,0:0:0:0:
456,313,34227,5,2,0:0:0:0:
456,313,34312,1,2,0:0:0:0:
456,313,34397,2,0,B|372:301|395:361|294:342,1,152.999995330811,0|0,1:0|1:0,0:0:0:0:
218,374,34905,2,0,P|214:328|228:299,1,76.4999976654053,2|0,0:0|1:0,0:0:0:0:
305,254,35244,1,2,0:0:0:0:
305,254,35414,1,2,1:2:0:0:
227,136,35583,5,2,0:0:0:0:
227,136,35753,2,0,B|165:144|165:144|145:164|145:164|80:173,1,152.999995330811,2|2,1:2|1:2,0:0:0:0:
10,216,36261,2,0,P|-7:175|4:137,1,76.4999976654053,2|0,0:0|1:0,0:0:0:0:
92,8,36600,2,0,P|95:46|100:84,1,76.4999976654053,2|0,0:0|1:0,0:0:0:0:
238,223,36939,5,2,0:0:0:0:
238,223,37024,1,2,0:0:0:0:
238,223,37109,2,0,P|295:193|306:105,1,152.999995330811,0|0,1:0|1:0,0:0:0:0:
261,18,37617,2,0,P|299:14|337:10,1,76.4999976654053,2|0,0:0|1:0,0:0:0:0:
410,80,37956,1,2,0:0:0:0:
410,80,38126,1,2,1:2:0:0:
489,0,38295,1,2,0:0:0:0:
512,155,38465,6,0,B|428:143|451:203|350:184,1,152.999995330811,2|2,1:2|1:2,0:0:0:0:
271,118,38973,2,0,P|267:156|263:194,1,76.4999976654053,2|0,0:0|1:0,0:0:0:0:
313,294,39312,2,0,P|238:303|178:259,1,152.999995330811,2|2,0:0|0:0,0:0:0:0:
53,171,39821,6,0,P|57:133|61:94,1,76.4999976654053,2|0,1:2|0:0,0:0:0:0:
49,2,40160,1,2,1:2:0:0:
49,2,40329,2,0,B|111:8|111:8|131:28|131:28|196:36,1,152.999995330811,2|0,0:0|0:0,0:0:0:0:
305,0,40837,2,0,P|353:11|375:41,1,76.4999976654053,0|2,1:0|0:0,0:0:0:0:
379,50,41092,1,2,0:0:0:0:
389,70,41176,6,0,P|379:140|368:235,1,152.999995330811,0|2,1:0|1:2,0:0:0:0:
414,314,41685,2,0,P|375:318|338:324,1,76.4999976654053,2|0,0:0|1:0,0:0:0:0:
272,245,42024,1,2,0:0:0:0:
203,384,42193,6,0,L|197:329,1,51,0|0,1:0|0:0,0:0:0:0:
197,333,42532,6,0,B|135:339|135:339|115:359|115:359|50:367,2,152.999995330811,6|0|0,1:2|1:0|1:0,0:0:0:0:
272,245,43380,1,2,0:0:0:0:
134,168,43549,2,0,P|138:207|143:262,1,76.4999976654053,10|2,0:0|0:0,0:0:0:0:
323,341,43888,6,0,P|378:286|367:210,1,152.999995330811,2|2,1:2|1:2,0:0:0:0:
323,128,44397,2,0,P|361:124|399:120,1,76.4999976654053,2|0,0:0|1:0,0:0:0:0:
257,27,44736,1,2,0:0:0:0:
256,206,44905,2,0,P|217:202|179:198,1,76.4999976654053,8|2,0:0|0:0,0:0:0:0:
163,208,45160,1,2,0:0:0:0:
146,216,45244,6,0,P|92:165|97:91,1,152.999995330811,2|2,1:2|1:2,0:0:0:0:
180,21,45753,2,0,P|218:24|274:28,1,76.4999976654053,2|0,0:0|0:0,0:0:0:0:
369,176,46092,1,2,0:0:0:0:
386,86,46261,6,0,B|302:74|325:134|224:115,1,152.999995330811,12|0,0:0|1:0,0:0:0:0:
97,91,46770,2,0,P|103:128|110:173,1,76.4999976654053,0|2,0:0|1:2,0:0:0:0:
228,305,47109,1,2,0:0:0:0:
205,216,47278,1,2,1:2:0:0:
140,282,47448,1,2,0:0:0:0:
295,242,47617,2,0,P|334:245|383:250,1,76.4999976654053,10|2,0:0|0:0,0:0:0:0:
388,257,47871,1,2,0:0:0:0:
405,268,47956,6,0,P|453:182|415:119,1,170,4|8,1:2|0:0,0:0:0:0:
308,54,48465,2,0,P|313:96|318:138,1,85,2|0,0:0|1:0,0:0:0:0:
295,242,48804,1,0,1:0:0:0:
153,117,48973,2,0,B|99:124|99:124|82:135|82:135|25:142,1,127.5,10|0,0:0|0:0,0:0:0:0:
29,141,49312,6,0,P|-1:217|47:283,1,170,2|10,1:2|0:0,0:0:0:0:
183,338,49821,2,0,P|178:296|173:254,1,85,2|0,0:0|1:0,0:0:0:0:
240,151,50160,1,2,1:2:0:0:
359,269,50329,2,0,P|317:274|275:279,1,85,8|0,0:0|0:0,0:0:0:0:
166,100,50668,6,0,P|200:70|250:70,1,85,6|0,1:2|0:0,0:0:0:0:
419,112,51007,1,10,0:0:0:0:
318,0,51176,2,0,P|327:80|337:179,1,170,2|0,0:0|1:0,0:0:0:0:
496,267,51685,2,0,P|501:225|506:183,1,85,8|2,0:0|0:0,0:0:0:0:
419,112,52024,5,0,1:0:0:0:
380,288,52193,1,0,1:0:0:0:
252,179,52363,2,0,P|294:174|336:169,1,85,12|0,0:0|0:0,0:0:0:0:
203,63,52702,1,4,3:0:0:0:
146,261,52871,1,8,3:0:0:0:
63,70,53041,1,8,3:0:0:0:
252,179,53210,1,8,3:0:0:0:
58,234,53380,6,0,L|1:250,2,59.4999981842042,2|2|2,0:0|0:0|0:0,0:0:0:0:
146,261,53888,1,2,0:0:0:0:
143,384,54227,1,2,0:0:0:0:
143,384,54397,2,0,P|235:320|361:349,1,237.999992736817,2|0,0:0|0:0,0:0:0:0:
352,342,55414,1,2,0:0:0:0:
512,226,55753,1,2,0:0:0:0:
365,109,56092,6,0,L|378:184,1,59.4999981842042,2|2,0:0|0:0,0:0:0:0:
264,222,56431,2,0,L|274:163,1,59.4999981842042,2|2,0:0|0:0,0:0:0:0:
274,163,56939,1,2,0:0:0:0:
189,57,57109,6,0,B|63:76|63:76|83:62|91:27,1,178.499994552612,2|0,0:0|0:0,0:0:0:0:
14,16,57702,6,0,L|-4:21,5,14.874999546051,2|2|2|2|2|2,0:0|0:0|0:0|0:0|0:0|0:0,0:0:0:0:
128,170,58465,6,0,L|124:210,1,38.2499988327027,2|0,1:2|0:0,0:0:0:0:
124,208,58804,6,0,P|174:223|223:193,1,101.999996887207,14|0,0:0|0:0,0:0:0:0:
334,71,59143,5,8,0:0:0:0:
334,71,59228,1,0,1:0:0:0:
334,71,59312,2,0,L|346:157,1,85,0|8,1:0|0:0,0:0:0:0:
345,155,59566,1,0,1:0:0:0:
345,155,59651,1,0,1:0:0:0:
441,237,59821,2,0,L|489:230,2,42.5,10|2|2,0:0|1:2|1:2,0:0:0:0:
324,374,60160,5,8,0:0:0:0:
324,374,60244,1,8,0:0:0:0:
324,374,60329,2,0,L|331:323,1,42.5,8|8,0:0|0:0,0:0:0:0:
216,201,60499,1,8,0:0:0:0:
216,201,60583,1,8,0:0:0:0:
216,201,60668,2,0,L|223:252,1,42.5,8|8,0:0|0:0,0:0:0:0:
168,371,60837,5,8,0:0:0:0:
127,383,60921,1,8,0:0:0:0:
86,374,61006,1,8,0:0:0:0:
55,346,61091,1,8,0:0:0:0:
42,306,61176,2,0,L|-6:313,3,42.5,8|8|8|8,3:0|3:0|3:0|3:0,0:0:0:0:
67,188,61515,6,0,B|150:169|133:227|228:197,1,152.999995330811,6|0,1:2|0:0,0:0:0:0:
313,110,62024,1,2,1:2:0:0:
313,110,62193,2,0,B|321:164|332:237,1,114.749996498108,8|0,0:0|0:0,0:0:0:0:
329,223,62532,2,0,P|376:233|414:213,1,76.4999976654053,2|0,1:2|0:0,0:0:0:0:
456,70,62871,5,2,1:2:0:0:
456,70,63041,2,0,B|393:80|393:80|372:100|372:100|308:110,1,152.999995330811,8|2,0:0|1:2,0:0:0:0:
191,52,63549,2,0,L|203:132,1,76.4999976654053,8|0,0:0|1:0,0:0:0:0:
120,271,63888,2,0,P|175:268|211:310,1,114.749996498108,10|0,0:0|0:0,0:0:0:0:
211,310,64227,6,0,B|299:286|278:350|382:321,1,170,6|8,1:2|0:0,0:0:0:0:
512,227,64736,1,0,0:0:0:0:
475,384,64905,2,0,P|467:336|460:292,1,85,0|0,1:0|1:0,0:0:0:0:
349,158,65244,2,0,P|342:199|335:241,1,85,8|0,0:0|1:0,0:0:0:0:
335,241,65499,1,0,1:0:0:0:
335,241,65583,5,8,0:0:0:0:
178,159,65753,1,8,0:0:0:0:
0,131,66939,6,0,B|99:111|77:183|178:160,1,187.000005706787,6|8,1:2|0:0,0:0:0:0:
331,87,67448,1,2,1:2:0:0:
331,87,67532,1,8,0:0:0:0:
331,87,67617,2,0,P|322:144|314:194,1,93.5000028533936,0|0,1:0|1:0,0:0:0:0:
170,301,67956,2,0,P|238:291|295:329,1,140.25000428009,10|0,0:0|0:0,0:0:0:0:
294,329,68295,6,0,B|365:317|365:317|400:334|400:334|482:319,1,187.000005706787,2|8,1:2|0:0,0:0:0:0:
512,201,68804,1,0,1:0:0:0:
512,201,68888,1,8,0:0:0:0:
512,201,68973,2,0,P|503:144|495:94,1,93.5000028533936,0|0,1:0|1:0,0:0:0:0:
331,87,69312,1,10,0:0:0:0:
502,13,69482,1,2,0:0:0:0:
380,172,69651,6,0,P|323:183|234:85,1,187.000005706787,2|10,1:2|0:0,0:0:0:0:
164,0,70160,1,2,1:2:0:0:
164,0,70244,1,8,0:0:0:0:
164,0,70329,2,0,P|107:9|57:17,1,93.5000028533936,0|0,1:0|1:0,0:0:0:0:
0,176,70668,2,0,P|68:166|125:204,1,140.25000428009,10|0,0:0|0:0,0:0:0:0:
125,204,71007,6,0,B|113:275|113:275|130:310|130:310|115:392,1,187.000005706787,2|8,1:2|0:0,0:0:0:0:
244,270,71515,1,0,1:0:0:0:
244,270,71599,1,8,0:0:0:0:
245,270,71684,2,0,P|291:277|337:284,1,93.5000028533936,0|0,1:0|1:0,0:0:0:0:
442,349,72024,1,10,0:0:0:0:
305,191,72193,1,2,0:0:0:0:
512,167,72363,6,0,P|504:213|497:259,1,93.5000028533936,6|2,1:2|0:0,0:0:0:0:
388,110,72702,1,10,0:0:0:0:
337,284,72871,1,2,1:2:0:0:
337,284,72955,1,8,0:0:0:0:
336,284,73040,2,0,P|290:291|244:298,1,93.5000028533936,0|2,1:0|1:2,0:0:0:0:
56,257,73380,1,10,0:0:0:0:
210,384,73549,1,2,0:0:0:0:
163,195,73719,6,0,P|155:241|148:287,1,93.5000028533936,2|2,1:2|0:0,0:0:0:0:
0,340,74058,1,10,0:0:0:0:
54,172,74227,1,2,1:2:0:0:
54,172,74312,1,8,0:0:0:0:
54,172,74397,2,0,P|46:126|39:80,1,93.5000028533936,0|2,1:0|1:2,0:0:0:0:
148,0,74736,1,10,0:0:0:0:
272,143,74905,1,2,0:0:0:0:
333,64,75075,6,0,P|242:52|173:111,1,187.000005706787,6|10,1:2|0:0,0:0:0:0:
149,238,75583,1,2,1:2:0:0:
149,238,75667,1,8,0:0:0:0:
150,238,75752,2,0,P|196:231|242:224,1,93.5000028533936,0|2,1:0|1:2,0:0:0:0:
409,153,76092,2,0,P|402:217|392:307,1,140.25000428009,8|0,0:0|0:0,0:0:0:0:
393,292,76431,5,14,0:0:0:0:
272,143,76600,1,0,1:0:0:0:
484,236,76770,1,0,1:0:0:0:
309,336,76939,2,0,P|263:343|217:350,1,93.5000028533936,14|0,0:0|0:0,0:0:0:0:
103,256,77278,1,8,0:0:0:0:
103,256,77363,1,8,0:0:0:0:
103,256,77448,2,0,L|113:208,1,46.7500014266968,10|2,0:0|0:0,0:0:0:0:
1,339,77617,2,0,L|10:384,1,46.7500014266968,2|2,0:0|0:0,0:0:0:0:
19,178,77787,6,0,P|82:126|184:144,1,187.000005706787,6|8,1:2|0:0,0:0:0:0:
320,102,78295,1,2,1:2:0:0:
320,102,78380,1,8,0:0:0:0:
320,102,78465,2,0,P|312:148|305:194,1,93.5000028533936,0|0,1:0|1:0,0:0:0:0:
247,354,78804,2,0,B|298:360|298:360|320:352|320:352|384:360,1,140.25000428009,10|0,0:0|0:0,0:0:0:0:
384,360,79143,6,0,P|442:331|446:216,1,187.000005706787,2|8,1:2|0:0,0:0:0:0:
304,194,79651,1,0,1:0:0:0:
304,194,79736,1,8,0:0:0:0:
304,194,79821,2,0,P|312:148|319:102,1,93.5000028533936,0|0,1:0|1:0,0:0:0:0:
232,34,80160,1,10,0:0:0:0:
409,138,80329,1,2,0:0:0:0:
233,251,80499,6,0,B|134:231|156:303|55:280,1,187.000005706787,2|10,1:2|0:0,0:0:0:0:
11,168,81007,1,2,1:2:0:0:
11,168,81092,1,8,0:0:0:0:
11,168,81177,2,0,P|5:117|0:72,1,93.5000028533936,0|0,1:0|1:0,0:0:0:0:
181,0,81515,2,0,B|173:64|173:64|181:86|181:86|175:137,1,140.25000428009,10|2,0:0|0:0,0:0:0:0:
174,137,81854,6,0,P|249:159|333:101,1,187.000005706787,2|8,1:2|0:0,0:0:0:0:
439,0,82363,1,0,1:0:0:0:
439,0,82448,1,8,0:0:0:0:
439,0,82533,2,0,P|444:46|449:92,1,93.5000028533936,0|0,1:0|1:0,0:0:0:0:
512,195,82871,1,10,0:0:0:0:
333,100,83041,1,2,0:0:0:0:
311,286,83210,6,0,P|357:279|403:272,1,93.5000028533936,6|2,1:2|1:2,0:0:0:0:
488,340,83549,1,10,0:0:0:0:
284,384,83719,2,0,P|229:347|231:229,1,187.000005706787,14|2,0:0|1:2,0:0:0:0:
333,100,84227,2,0,P|338:146|343:192,1,93.5000028533936,10|2,0:0|0:0,0:0:0:0:
170,76,84566,5,6,1:2:0:0:
170,76,84736,1,2,1:2:0:0:
348,0,84905,1,10,0:0:0:0:
258,156,85075,2,0,B|159:136|181:208|80:185,1,187.000005706787,6|2,1:2|1:2,0:0:0:0:
0,345,85583,2,0,P|68:340|130:388,1,140.25000428009,8|0,0:0|1:0,0:0:0:0:
124,379,85922,6,0,P|180:367|244:354,1,93.5000028533936,12|2,0:0|1:2,0:0:0:0:
385,297,86261,1,10,0:0:0:0:
196,180,86431,1,2,1:2:0:0:
309,145,86600,2,0,P|305:184|299:238,1,93.5000028533936,10|2,0:0|1:2,0:0:0:0:
417,384,86939,1,10,0:0:0:0:
461,216,87109,1,2,1:2:0:0:
299,326,87278,6,0,L|207:306,1,93.5000028533936,12|4,0:0|3:0,0:0:0:0:
154,244,87532,1,4,3:0:0:0:
154,244,87617,2,0,L|93:256,1,46.7500014266968,8|8,3:0|3:0,0:0:0:0:
261,135,87787,2,0,L|318:146,1,46.7500014266968,8|8,3:0|3:0,0:0:0:0:
94,60,87956,5,4,3:0:0:0:
48,66,88040,1,4,3:0:0:0:
13,96,88125,1,4,3:0:0:0:
2,141,88210,1,4,3:0:0:0:
17,184,88295,6,0,P|9:262|0:343,1,152.999995330811,14|0,0:0|0:0,0:0:0:0:
0,336,88634,6,0,B|99:316|77:388|178:365,1,187.000005706787,6|10,1:2|0:0,0:0:0:0:
284,226,89143,2,0,P|289:271|295:322,1,93.5000028533936,6|0,1:2|0:0,0:0:0:0:
367,380,89482,1,2,1:2:0:0:
386,202,89651,6,0,P|360:158|220:144,1,187.000005706787,14|2,0:0|0:0,0:0:0:0:
54,178,90160,1,0,1:0:0:0:
165,282,90329,2,0,P|159:235|154:189,1,93.5000028533936,10|0,0:0|0:0,0:0:0:0:
56,73,90668,2,0,P|102:79|153:86,1,93.5000028533936,2|0,1:2|1:0,0:0:0:0:
285,215,91007,2,0,P|278:286|273:365,1,140.25000428009,8|0,0:0|0:0,0:0:0:0:
273,354,91346,6,0,P|348:376|432:318,1,187.000005706787,6|10,1:2|0:0,0:0:0:0:
512,220,91854,2,0,P|465:213|419:208,1,93.5000028533936,6|0,1:2|0:0,0:0:0:0:
246,132,92193,1,2,1:2:0:0:
334,266,92363,6,0,B|324:194|324:194|342:160|342:160|331:84,1,187.000005706787,14|2,0:0|0:0,0:0:0:0:
194,25,92871,1,2,1:2:0:0:
209,1,93041,1,10,0:0:0:0:
145,173,93210,1,2,0:0:0:0:
160,197,93380,1,2,1:2:0:0:
66,40,93549,1,2,1:2:0:0:
233,137,93719,1,10,0:0:0:0:
60,238,93888,5,2,0:0:0:0:
60,238,93973,1,2,0:0:0:0:
60,238,94058,2,0,P|125:289|242:264,1,187.000005706787,14|10,0:0|0:0,0:0:0:0:
388,213,94566,2,0,P|435:219|481:226,1,93.5000028533936,2|8,1:2|0:0,0:0:0:0:
338,384,94905,2,0,P|330:337|324:291,1,93.5000028533936,2|8,1:2|0:0,0:0:0:0:
335,116,95244,1,2,1:2:0:0:
229,281,95414,6,0,B|165:290|165:290|146:304|146:304|93:311,1,140.25000428009,8|0,0:0|0:0,0:0:0:0:
94,311,95753,2,0,P|65:261|78:221,1,93.5000028533936,10|0,0:0|1:0,0:0:0:0:
201,64,96092,2,0,P|207:110|214:156,1,93.5000028533936,10|0,0:0|1:0,0:0:0:0:
329,296,96431,2,0,P|396:301|443:252,1,140.25000428009,10|0,0:0|1:0,0:0:0:0:
443,251,96770,6,0,P|437:204|432:158,1,93.5000028533936,14|8,0:0|0:0,0:0:0:0:
481,20,97109,2,0,P|441:29|386:42,1,93.5000028533936,8|8,0:0|0:0,0:0:0:0:
214,156,97448,1,8,0:0:0:0:
299,0,97617,1,8,0:0:0:0:
283,230,97787,1,8,0:0:0:0:
83,103,97956,1,10,0:0:0:0:
306,107,98126,1,14,0:0:0:0:
203,43,99482,6,0,P|145:5|77:16,1,140.25000428009,6|0,1:2|0:0,0:0:0:0:
77,16,99821,2,0,P|70:62|65:108,1,93.5000028533936,10|0,0:0|0:0,0:0:0:0:
0,223,100160,2,0,P|40:246|99:236,1,93.5000028533936,2|0,1:2|1:0,0:0:0:0:
194,158,100499,2,0,P|240:163|286:169,1,93.5000028533936,10|0,0:0|0:0,0:0:0:0:
416,343,100837,6,0,B|311:317|340:390|226:365,1,187.000005706787,2|8,1:2|0:0,0:0:0:0:
85,242,101346,1,2,0:0:0:0:
286,169,101516,1,2,1:2:0:0:
133,348,101685,1,2,1:2:0:0:
189,156,101854,2,0,P|195:202|200:248,1,93.5000028533936,8|0,0:0|0:0,0:0:0:0:
421,346,102193,6,0,P|463:294|447:220,1,140.25000428009,2|0,1:2|0:0,0:0:0:0:
450,225,102532,2,0,P|455:178|461:132,1,93.5000028533936,10|0,0:0|0:0,0:0:0:0:
409,20,102871,2,0,P|455:14|501:9,1,93.5000028533936,2|0,1:2|1:0,0:0:0:0:
364,164,103210,2,0,P|317:157|271:152,1,93.5000028533936,10|0,0:0|0:0,0:0:0:0:
80,110,103549,6,0,B|72:174|72:174|80:196|80:196|71:268,1,140.25000428009,2|0,1:2|0:0,0:0:0:0:
73,247,103888,2,0,P|114:275|163:269,1,93.5000028533936,10|0,0:0|0:0,0:0:0:0:
271,152,104227,2,0,P|317:157|364:164,1,93.5000028533936,2|0,1:2|1:0,0:0:0:0:
451,321,104566,2,0,P|404:327|358:332,1,93.5000028533936,10|0,0:0|0:0,0:0:0:0:
167,376,104905,5,2,1:2:0:0:
156,272,105075,1,2,0:0:0:0:
222,191,105244,1,10,0:0:0:0:
157,376,105414,5,2,1:2:0:0:
147,270,105584,1,2,0:0:0:0:
215,187,105753,1,2,1:2:0:0:
363,263,105922,6,0,P|424:230|424:93,1,187.000005706787,14|0,0:0|0:0,0:0:0:0:
234,85,106431,1,0,1:0:0:0:
358,0,106600,2,0,P|353:44|347:95,1,93.5000028533936,8|0,0:0|0:0,0:0:0:0:
215,187,106939,1,2,1:2:0:0:
215,187,107024,1,2,0:0:0:0:
215,187,107109,2,0,P|261:181|307:176,1,93.5000028533936,2|8,1:2|0:0,0:0:0:0:
454,255,107448,1,0,1:0:0:0:
345,384,107617,6,0,P|358:353|331:377,1,93.5000028533936,6|0,1:2|0:0,0:0:0:0:
231,316,107871,6,0,P|218:285|216:320,1,93.5000028533936,2|0,0:0|0:0,0:0:0:0:
105,339,108126,6,0,P|89:332|101:347,1,46.7500014266968,2|0,0:0|0:0,0:0:0:0:
6,227,108295,6,0,P|12:177|17:134,1,93.5000028533936,10|0,0:0|1:0,0:0:0:0:
17,134,108549,1,2,0:0:0:0:
17,134,108634,1,8,0:0:0:0:
170,0,108804,1,2,1:2:0:0:
205,149,108973,5,10,0:0:0:0:
0,0,109143,1,10,0:0:0:0:
205,149,109821,6,0,L|211:105,2,25.4999992218018,2|2|2,0:0|0:0|0:0,0:0:0:0:
200,304,110329,6,0,P|125:311|55:319,2,136,6|0|0,1:2|0:0|0:0,0:0:0:0:
266,248,111176,1,2,0:0:0:0:
266,248,111346,1,2,0:0:0:0:
332,368,111515,5,2,1:2:0:0:
332,368,111685,2,0,P|396:333|392:253,1,136,2|2,1:2|0:0,0:0:0:0:
382,189,112193,2,0,B|458:178|444:227|523:211,1,136,2|2,0:0|0:0,0:0:0:0:
404,46,112871,5,2,0:0:0:0:
404,46,113041,2,0,P|324:39|278:79,1,136,0|0,1:0|0:0,0:0:0:0:
244,147,113549,2,0,P|210:144|171:141,1,68,2|0,0:0|0:0,0:0:0:0:
120,78,113888,1,2,0:0:0:0:
120,78,114058,1,2,0:0:0:0:
28,164,114227,5,2,1:2:0:0:
28,164,114397,2,0,P|36:230|48:307,1,136,2|2,1:2|0:0,0:0:0:0:
0,373,114905,2,0,P|80:380|126:340,1,136,2|2,0:0|0:0,0:0:0:0:
244,147,115583,5,2,0:0:0:0:
244,147,115753,2,0,B|303:156|303:156|322:172|322:172|386:182,1,136,0|0,1:0|0:0,0:0:0:0:
457,153,116261,2,0,P|460:196|447:226,1,68,2|0,0:0|0:0,0:0:0:0:
383,269,116600,1,2,0:0:0:0:
383,269,116770,1,2,0:0:0:0:
428,343,116939,1,2,1:2:0:0:
297,372,117109,6,0,B|221:383|235:334|156:350,1,136,2|2,1:2|0:0,0:0:0:0:
84,372,117617,2,0,P|82:327|98:297,1,68,2|0,0:0|0:0,0:0:0:0:
168,255,117956,2,0,P|144:230|43:224,1,136,2|0,0:0|0:0,0:0:0:0:
0,79,118465,6,0,P|35:73|73:66,1,68,0|0,1:2|0:0,0:0:0:0:
125,0,118804,1,2,0:0:0:0:
125,0,118974,2,0,B|184:9|184:9|203:25|203:25|267:35,1,136,2|0,0:0|0:0,0:0:0:0:
345,0,119482,1,2,0:0:0:0:
407,107,119651,5,2,1:2:0:0:
407,107,119821,2,0,L|416:176,1,68,2|0,1:2|0:0,0:0:0:0:
493,221,120160,1,2,0:0:0:0:
493,221,120329,2,0,P|469:246|368:252,1,136,2|2,0:0|0:0,0:0:0:0:
372,254,120753,1,2,0:0:0:0:
372,254,120837,1,2,0:0:0:0:
204,384,121176,6,0,B|198:322|198:322|178:302|178:302|170:237,2,152.999995330811,6|0|0,1:2|1:0|1:0,0:0:0:0:
255,258,122024,1,2,0:0:0:0:
119,361,122193,2,0,P|80:357|25:352,1,76.4999976654053,10|2,0:0|0:0,0:0:0:0:
92,179,122532,6,0,P|157:143|229:164,1,152.999995330811,2|2,1:2|1:2,0:0:0:0:
255,258,123041,2,0,P|293:254|331:250,1,76.4999976654053,2|0,0:0|1:0,0:0:0:0:
492,192,123380,1,2,0:0:0:0:
431,345,123549,2,0,P|427:307|423:269,1,76.4999976654053,8|0,0:0|0:0,0:0:0:0:
512,111,123888,6,0,B|428:99|451:159|350:140,1,152.999995330811,2|2,1:2|1:2,0:0:0:0:
299,69,124397,2,0,P|261:73|223:77,1,76.4999976654053,2|0,0:0|0:0,0:0:0:0:
144,228,124736,1,2,0:0:0:0:
64,185,124905,6,0,P|133:145|207:165,1,152.999995330811,12|2,0:0|1:2,0:0:0:0:
288,201,125414,2,0,P|292:239|296:277,1,76.4999976654053,2|2,0:0|1:2,0:0:0:0:
152,361,125753,1,2,0:0:0:0:
217,295,125923,1,2,1:2:0:0:
240,384,126092,1,2,0:0:0:0:
124,274,126261,2,0,P|86:278|48:282,1,76.4999976654053,10|2,0:0|0:0,0:0:0:0:
34,295,126515,1,2,0:0:0:0:
18,309,126600,6,0,P|-5:213|44:152,1,170,4|8,1:2|0:0,0:0:0:0:
120,138,127109,2,0,P|125:96|130:54,1,85,2|0,0:0|1:0,0:0:0:0:
47,0,127448,1,0,1:0:0:0:
217,109,127617,2,0,P|270:91|299:22,1,127.5,10|0,0:0|0:0,0:0:0:0:
299,29,127956,6,0,B|370:38|370:38|392:63|392:63|459:72,1,170,2|10,1:2|0:0,0:0:0:0:
512,154,128465,2,0,P|507:198|502:240,1,85,2|0,0:0|1:0,0:0:0:0:
416,298,128804,1,2,1:2:0:0:
318,189,128973,2,0,P|360:183|402:179,1,85,8|0,0:0|0:0,0:0:0:0:
493,337,129312,6,0,P|465:375|420:384,1,85,6|0,1:2|0:0,0:0:0:0:
266,317,129651,1,10,0:0:0:0:
318,189,129821,2,0,B|326:253|326:253|351:275|351:275|360:346,1,170,2|0,0:0|1:0,0:0:0:0:
176,333,130329,2,0,P|181:281|218:244,1,85,8|2,0:0|0:0,0:0:0:0:
83,75,130668,6,0,P|40:82|-5:90,1,85,4|4,3:0|3:0,0:0:0:0:
167,155,131007,2,0,P|208:147|250:140,1,85,4|4,3:0|3:0,0:0:0:0:
395,191,131346,1,8,3:0:0:0:
193,62,131515,1,8,3:0:0:0:
273,281,131685,1,8,3:0:0:0:
425,104,131854,1,8,3:0:0:0:
259,199,132024,6,0,P|254:169|248:128,2,59.4999981842042,2|2|2,0:0|0:0|0:0,0:0:0:0:
273,281,132532,1,2,0:0:0:0:
68,358,132871,1,2,0:0:0:0:
68,358,133041,2,0,B|132:365|173:311|173:311|196:373|270:387,1,237.999992736817,2|0,0:0|0:0,0:0:0:0:
257,384,134058,1,2,0:0:0:0:
412,300,134397,1,2,0:0:0:0:
259,199,134736,6,0,P|226:204|194:209,1,59.4999981842042,2|2,0:0|0:0,0:0:0:0:
144,98,135075,2,0,P|173:102|202:107,1,59.4999981842042,2|2,0:0|0:0,0:0:0:0:
202,107,135583,1,2,0:0:0:0:
309,280,135753,6,0,P|345:238|495:242,1,208.249993644715,2|0,0:0|0:0,0:0:0:0:
512,315,136431,6,0,L|505:354,1,29.7499990921021,2|0,0:0|0:0,0:0:0:0:
487,236,136770,5,8,0:0:0:0:
487,236,136939,1,0,1:0:0:0:
359,287,137109,2,0,L|302:279,1,51,0|0,1:0|0:0,0:0:0:0:
308,279,137448,5,6,1:2:0:0:
214,362,137617,2,0,B|126:342|140:404|44:382,1,170,0|2,1:0|1:2,0:0:0:0:
0,253,138126,2,0,P|45:252|75:278,1,85,8|2,0:0|0:0,0:0:0:0:
215,186,138465,2,0,L|208:135,2,42.5,2|2|2,1:2|0:0|0:0,0:0:0:0:
327,223,138804,5,2,1:2:0:0:
237,61,138973,2,0,B|149:41|163:103|67:81,1,170,8|2,0:0|1:2,0:0:0:0:
0,165,139482,1,8,0:0:0:0:
105,0,139651,1,0,1:0:0:0:
130,188,139821,2,0,P|134:230|139:273,1,85,8|0,0:0|1:0,0:0:0:0:
345,376,140160,6,0,P|430:382|500:315,1,170,6|8,1:2|0:0,0:0:0:0:
411,216,140668,2,0,P|406:258|402:300,1,85,2|0,0:0|1:0,0:0:0:0:
500,181,141007,1,0,1:0:0:0:
308,249,141176,2,0,P|266:244|224:240,1,85,10|0,0:0|0:0,0:0:0:0:
79,53,141515,6,0,B|167:33|153:95|249:73,1,170,2|8,1:2|0:0,0:0:0:0:
398,0,142024,2,0,P|403:42|407:84,1,85,2|0,0:0|1:0,0:0:0:0:
307,249,142363,1,0,1:0:0:0:
387,188,142532,2,0,P|338:153|261:163,1,127.5,10|0,0:0|0:0,0:0:0:0:
273,156,142871,5,6,1:2:0:0:
87,236,143041,1,0,1:0:0:0:
183,100,143210,2,0,P|177:142|173:184,1,85,8|0,0:0|0:0,0:0:0:0:
73,347,143549,1,8,3:0:0:0:
112,332,143633,1,8,3:0:0:0:
154,334,143718,1,8,3:0:0:0:
192,352,143803,1,8,3:0:0:0:
221,383,143888,2,0,L|284:368,3,42.5,8|4|4|4,3:0|3:0|3:0|3:0,0:0:0:0:
331,323,144227,5,8,0:0:0:0:
173,184,144397,1,8,0:0:0:0:
365,85,144736,6,0,P|380:58|398:43,1,42.5,8|8,0:0|0:0,0:0:0:0:
472,129,144905,6,0,P|493:130|512:138,1,42.5,8|0,0:0|1:0,0:0:0:0:
501,254,145075,5,0,1:0:0:0:
501,254,145160,1,0,1:0:0:0:
501,254,145244,2,0,P|451:242|401:234,1,101.999996887207,12|0,0:0|0:0,0:0:0:0:
217,280,145583,6,0,P|161:290|70:197,1,187.000005706787,6|8,1:2|0:0,0:0:0:0:
136,92,146092,1,2,1:2:0:0:
136,92,146176,1,8,0:0:0:0:
136,92,146261,2,0,P|127:35|119:-15,1,93.5000028533936,0|0,1:0|1:0,0:0:0:0:
280,96,146600,2,0,P|272:142|265:188,1,93.5000028533936,10|0,0:0|0:0,0:0:0:0:
359,353,146939,6,0,B|410:347|410:347|432:355|432:355|496:347,1,140.25000428009,2|0,1:2|0:0,0:0:0:0:
496,346,147278,2,0,P|516:295|497:247,1,93.5000028533936,8|0,0:0|0:0,0:0:0:0:
379,155,147617,2,0,P|386:201|393:247,1,93.5000028533936,0|0,1:0|1:0,0:0:0:0:
462,113,147956,1,10,0:0:0:0:
292,222,148126,1,2,0:0:0:0:
270,23,148295,6,0,P|214:13|123:106,1,187.000005706787,2|10,1:2|0:0,0:0:0:0:
188,189,148804,1,2,1:2:0:0:
188,189,148888,1,8,0:0:0:0:
188,189,148973,2,0,P|142:200|97:212,1,93.5000028533936,0|0,1:0|1:0,0:0:0:0:
285,359,149312,2,0,B|291:308|291:308|283:286|283:286|291:222,1,140.25000428009,10|0,0:0|0:0,0:0:0:0:
291,221,149651,6,0,B|390:201|368:273|469:250,1,187.000005706787,2|8,1:2|0:0,0:0:0:0:
512,96,150160,1,0,1:0:0:0:
512,96,150244,1,8,0:0:0:0:
512,96,150329,2,0,P|466:102|431:138,1,93.5000028533936,0|0,1:0|1:0,0:0:0:0:
364,319,150668,1,10,0:0:0:0:
506,176,150837,1,2,0:0:0:0:
319,115,151007,6,0,P|276:121|223:129,1,93.5000028533936,6|2,1:2|0:0,0:0:0:0:
67,200,151346,1,10,0:0:0:0:
148,31,151515,1,2,1:2:0:0:
148,31,151600,1,8,0:0:0:0:
148,31,151685,2,0,P|142:74|134:127,1,93.5000028533936,0|2,1:0|1:2,0:0:0:0:
162,293,152024,1,10,0:0:0:0:
0,147,152193,1,2,0:0:0:0:
0,354,152363,6,0,P|46:346|92:340,1,93.5000028533936,2|2,1:2|0:0,0:0:0:0:
264,248,152702,1,10,0:0:0:0:
134,123,152871,1,2,1:2:0:0:
134,123,152956,1,8,0:0:0:0:
134,123,153041,2,0,P|140:166|148:219,1,93.5000028533936,0|2,1:0|1:2,0:0:0:0:
213,384,153380,1,10,0:0:0:0:
32,254,153549,1,2,0:0:0:0:
235,161,153719,6,0,P|286:163|357:271,1,187.000005706787,6|10,1:2|0:0,0:0:0:0:
499,341,154227,1,2,1:2:0:0:
499,341,154312,1,8,0:0:0:0:
499,341,154397,2,0,P|505:294|512:248,1,93.5000028533936,0|2,1:0|1:2,0:0:0:0:
512,77,154736,2,0,B|461:85|461:85|442:99|442:99|378:108,1,140.25000428009,8|0,0:0|0:0,0:0:0:0:
377,109,155075,5,12,0:0:0:0:
192,232,155244,1,8,0:0:0:0:
275,77,155414,1,8,0:0:0:0:
281,123,155498,1,8,0:0:0:0:
287,169,155583,1,10,0:0:0:0:
293,216,155668,1,8,0:0:0:0:
299,262,155753,2,0,L|358:253,3,46.7500014266968,8|4|4|4,3:0|3:0|3:0|3:0,0:0:0:0:
241,359,156092,6,0,P|167:347|88:339,1,152.999995330811,14|0,0:0|0:0,0:0:0:0:
90,340,156431,6,0,P|41:274|84:182,1,187.000005706787,14|8,0:0|0:0,0:0:0:0:
188,107,156939,1,2,1:2:0:0:
188,107,157024,1,8,0:0:0:0:
188,107,157109,2,0,P|234:114|280:121,1,93.5000028533936,0|0,1:0|1:0,0:0:0:0:
434,76,157448,2,0,B|428:127|428:127|436:149|436:149|428:213,1,140.25000428009,10|0,0:0|0:0,0:0:0:0:
427,213,157787,6,0,B|328:193|350:265|249:242,1,187.000005706787,2|8,1:2|0:0,0:0:0:0:
92,277,158295,1,0,1:0:0:0:
92,277,158380,1,8,0:0:0:0:
92,277,158465,2,0,P|86:234|78:181,1,93.5000028533936,0|0,1:0|1:0,0:0:0:0:
187,0,158804,1,10,0:0:0:0:
0,91,158973,1,2,0:0:0:0:
198,125,159143,6,0,B|269:113|269:113|304:130|304:130|386:115,1,187.000005706787,2|10,1:2|0:0,0:0:0:0:
495,0,159651,1,2,1:2:0:0:
495,0,159736,1,8,0:0:0:0:
495,0,159821,2,0,P|504:50|512:94,1,93.5000028533936,0|0,1:0|1:0,0:0:0:0:
512,267,160160,2,0,P|441:256|372:245,1,140.25000428009,10|0,0:0|0:0,0:0:0:0:
373,245,160499,6,0,P|307:308|216:308,1,187.000005706787,2|8,1:2|0:0,0:0:0:0:
168,189,161007,1,0,1:0:0:0:
168,189,161092,1,8,0:0:0:0:
168,189,161177,2,0,P|122:194|76:199,1,93.5000028533936,0|0,1:0|1:0,0:0:0:0:
0,125,161515,1,10,0:0:0:0:
134,281,161685,1,2,0:0:0:0:
215,98,161854,6,0,P|261:93|307:88,1,93.5000028533936,6|2,1:2|1:2,0:0:0:0:
419,0,162193,1,10,0:0:0:0:
512,180,162363,2,0,B|413:160|435:232|334:209,1,187.000005706787,14|2,0:0|1:2,0:0:0:0:
222,259,162871,2,0,P|227:305|232:351,1,93.5000028533936,10|2,0:0|0:0,0:0:0:0:
128,174,163210,5,6,1:2:0:0:
128,174,163380,1,2,1:2:0:0:
307,87,163549,1,10,0:0:0:0:
85,84,163719,2,0,P|40:118|59:248,1,187.000005706787,6|2,1:2|1:2,0:0:0:0:
94,358,164227,2,0,B|145:352|145:352|167:360|167:360|231:352,1,140.25000428009,8|0,0:0|1:0,0:0:0:0:
231,351,164566,6,0,P|255:306|235:251,1,93.5000028533936,12|0,0:0|1:0,0:0:0:0:
128,174,164905,1,8,0:0:0:0:
320,63,165075,1,0,1:0:0:0:
347,169,165244,2,0,P|303:161|250:153,1,93.5000028533936,8|2,0:0|1:2,0:0:0:0:
141,88,165583,1,10,0:0:0:0:
246,266,165753,1,2,1:2:0:0:
23,191,165922,5,8,0:0:0:0:
148,320,166092,2,0,L|156:256,1,46.7500014266968,8|8,0:0|0:0,0:0:0:0:
248,107,166262,1,8,0:0:0:0:
248,107,166346,1,8,0:0:0:0:
248,107,166431,2,0,L|256:171,1,46.7500014266968,8|8,0:0|0:0,0:0:0:0:
347,316,166600,6,0,L|280:324,1,46.7500014266968,10|8,0:0|0:0,0:0:0:0:
400,155,166770,2,0,L|446:160,1,46.7500014266968,10|8,0:0|0:0,0:0:0:0:
512,306,166939,2,0,L|508:353,3,46.7500014266968,10|4|0|4,3:0|3:0|3:0|3:0,0:0:0:0:
449,251,167278,6,0,P|394:242|298:328,1,187.000005706787,6|10,1:2|0:0,0:0:0:0:
182,384,167787,2,0,P|176:337|171:291,1,93.5000028533936,6|0,1:2|0:0,0:0:0:0:
252,158,168126,1,2,1:2:0:0:
72,216,168295,6,0,P|25:193|11:59,1,187.000005706787,14|2,0:0|0:0,0:0:0:0:
166,0,168804,1,0,1:0:0:0:
252,158,168973,2,0,P|203:151|146:143,1,93.5000028533936,10|0,0:0|0:0,0:0:0:0:
331,15,169312,2,0,P|338:64|346:121,1,93.5000028533936,2|0,1:2|1:0,0:0:0:0:
438,243,169651,2,0,P|369:242|314:284,1,140.25000428009,8|0,0:0|0:0,0:0:0:0:
317,286,169990,6,0,B|218:266|240:338|139:315,1,187.000005706787,6|10,1:2|0:0,0:0:0:0:
0,333,170499,2,0,P|4:285|8:240,1,93.5000028533936,6|0,1:2|0:0,0:0:0:0:
152,94,170837,1,2,1:2:0:0:
0,148,171007,6,0,B|71:156|71:156|100:182|100:182|183:190,1,187.000005706787,14|2,0:0|0:0,0:0:0:0:
351,244,171515,1,2,1:2:0:0:
344,270,171685,1,10,0:0:0:0:
276,125,171854,1,2,0:0:0:0:
269,99,172024,1,2,1:2:0:0:
227,251,172193,1,2,1:2:0:0:
380,109,172363,1,10,0:0:0:0:
161,39,172532,5,2,0:0:0:0:
161,39,172617,1,2,0:0:0:0:
161,39,172702,2,0,P|89:102|110:197,1,187.000005706787,14|10,0:0|0:0,0:0:0:0:
227,251,173210,2,0,P|221:298|214:344,1,93.5000028533936,2|8,1:2|0:0,0:0:0:0:
28,297,173549,2,0,P|74:289|120:284,1,93.5000028533936,2|8,1:2|0:0,0:0:0:0:
307,373,173888,1,2,1:2:0:0:
309,206,174058,6,0,P|278:171|186:164,1,140.25000428009,8|0,0:0|0:0,0:0:0:0:
189,162,174397,2,0,P|181:115|176:69,1,93.5000028533936,10|0,0:0|1:0,0:0:0:0:
373,0,174736,2,0,P|367:46|360:92,1,93.5000028533936,10|0,0:0|1:0,0:0:0:0:
371,284,175075,2,0,B|435:275|435:275|454:261|454:261|505:253,1,140.25000428009,10|0,0:0|1:0,0:0:0:0:
505,252,175414,6,0,P|522:207|497:146,1,93.5000028533936,14|8,0:0|0:0,0:0:0:0:
359,92,175753,2,0,P|312:97|266:105,1,93.5000028533936,8|8,0:0|0:0,0:0:0:0:
164,0,176092,1,8,0:0:0:0:
18,169,176261,1,8,0:0:0:0:
237,211,176431,1,8,0:0:0:0:
52,57,176600,1,10,0:0:0:0:
0,289,176770,1,14,0:0:0:0:
4,292,178126,6,0,B|55:300|55:300|74:314|74:314|138:323,1,140.25000428009,4|0,1:2|0:0,0:0:0:0:
138,323,178465,2,0,P|162:270|150:232,1,93.5000028533936,10|2,0:0|0:0,0:0:0:0:
68,69,178804,1,2,1:2:0:0:
3,150,178973,2,0,P|94:162|172:95,1,187.000005706787,2|2,1:2|0:0,0:0:0:0:
264,11,179482,6,0,P|309:16|360:22,1,93.5000028533936,2|2,1:2|0:0,0:0:0:0:
510,148,179821,1,10,0:0:0:0:
460,0,179990,2,0,B|449:71|449:71|422:99|422:99|412:174,1,187.000005706787,2|0,0:0|1:0,0:0:0:0:
440,277,180499,2,0,P|393:280|343:247,1,93.5000028533936,8|2,0:0|0:0,0:0:0:0:
321,105,180837,6,0,B|222:85|244:157|143:134,1,187.000005706787,2|10,1:2|0:0,0:0:0:0:
37,43,181346,2,0,P|33:88|27:140,1,93.5000028533936,2|0,0:0|1:0,0:0:0:0:
0,259,181685,2,0,P|47:262|97:229,1,93.5000028533936,2|8,1:2|0:0,0:0:0:0:
142,133,182024,1,2,0:0:0:0:
206,298,182193,6,0,P|255:286|317:278,1,93.5000028533936,0|2,1:0|0:0,0:0:0:0:
297,279,182448,1,2,0:0:0:0:
297,279,182532,1,10,0:0:0:0:
475,334,182702,1,2,0:0:0:0:
412,164,182871,2,0,P|408:207|403:258,1,93.5000028533936,2|2,1:2|1:2,0:0:0:0:
358,384,183210,1,10,0:0:0:0:
512,245,183380,1,2,0:0:0:0:
294,195,183549,6,0,B|243:203|243:203|224:217|224:217|160:226,1,140.25000428009,6|0,1:2|0:0,0:0:0:0:
160,226,183888,2,0,P|136:173|148:135,1,93.5000028533936,10|0,0:0|0:0,0:0:0:0:
263,0,184227,1,2,1:2:0:0:
118,57,184397,2,0,B|217:37|195:109|296:86,1,187.000005706787,2|2,1:2|0:0,0:0:0:0:
430,0,184905,6,0,P|434:43|439:94,1,93.5000028533936,2|2,1:2|0:0,0:0:0:0:
378,260,185244,1,10,0:0:0:0:
475,225,185414,2,0,P|402:169|312:182,1,187.000005706787,2|0,0:0|1:0,0:0:0:0:
264,272,185922,2,0,P|217:266|171:261,1,93.5000028533936,8|2,0:0|0:0,0:0:0:0:
51,384,186261,6,0,B|62:309|62:309|43:274|43:274|54:202,1,187.000005706787,2|10,1:2|0:0,0:0:0:0:
92,95,186770,2,0,P|46:101|-4:109,1,93.5000028533936,2|0,0:0|1:0,0:0:0:0:
146,0,187109,2,0,P|183:29|197:76,1,93.5000028533936,2|8,1:2|0:0,0:0:0:0:
144,193,187448,1,2,0:0:0:0:
361,233,187617,5,0,1:0:0:0:
361,233,187787,1,0,1:0:0:0:
282,76,187956,2,0,P|286:119|291:170,1,93.5000028533936,8|0,0:0|0:0,0:0:0:0:
346,357,188295,6,0,P|303:338|242:343,1,93.5000028533936,2|2,1:2|1:2,0:0:0:0:
257,338,188549,1,10,0:0:0:0:
257,338,188634,2,0,L|252:290,1,46.7500014266968,2|10,1:2|0:0,0:0:0:0:
144,193,188804,5,10,0:0:0:0:
144,193,188888,1,10,0:0:0:0:
144,193,188973,2,0,B|93:201|93:201|74:215|74:215|10:224,1,140.25000428009,6|0,1:2|0:0,0:0:0:0:
9,224,189312,2,0,P|-11:172|7:129,1,93.5000028533936,10|0,0:0|0:0,0:0:0:0:
116,0,189651,2,0,P|121:42|129:95,1,93.5000028533936,2|0,1:2|1:0,0:0:0:0:
222,253,189990,2,0,P|268:219|375:221,1,140.25000428009,10|0,0:0|0:0,0:0:0:0:
348,211,190329,5,2,1:2:0:0:
512,94,190499,1,2,0:0:0:0:
326,19,190668,1,10,0:0:0:0:
458,196,190837,2,0,B|447:266|447:266|466:301|466:301|455:376,1,187.000005706787,2|0,0:0|1:0,0:0:0:0:
276,338,191346,2,0,P|321:329|368:321,1,93.5000028533936,8|2,0:0|0:0,0:0:0:0:
388,104,191685,6,0,B|289:84|311:156|210:133,1,187.000005706787,2|10,1:2|0:0,0:0:0:0:
102,34,192193,2,0,P|97:74|91:129,1,93.5000028533936,2|0,0:0|1:0,0:0:0:0:
41,252,192532,2,0,P|87:242|133:232,1,93.5000028533936,2|8,1:2|0:0,0:0:0:0:
279,279,192871,1,2,0:0:0:0:
209,132,193041,5,0,1:0:0:0:
129,331,193210,1,0,1:0:0:0:
339,341,193380,2,0,P|364:292|357:250,1,93.5000028533936,8|0,0:0|0:0,0:0:0:0:
209,132,193719,1,0,1:0:0:0:
241,98,193803,1,0,1:0:0:0:
284,80,193888,1,10,0:0:0:0:
330,79,193973,1,8,0:0:0:0:
374,96,194058,2,0,L|386:51,3,46.7500014266968,10|0|2|0,0:0|1:0|1:2|1:0,0:0:0:0:
454,169,194397,5,14,0:0:0:0:
279,279,194566,1,2,0:0:0:0:
465,370,194736,1,8,0:0:0:0:
310,196,194905,2,0,B|211:176|233:248|132:225,1,187.000005706787,4|0,1:2|1:0,0:0:0:0:
0,158,195414,2,0,P|-8:111|20:64,1,93.5000028533936,12|4,0:0|3:0,0:0:0:0:
73,15,195668,5,4,3:0:0:0:
73,15,195753,2,0,L|134:27,1,46.7500014266968,8|8,3:0|0:0,0:0:0:0:
232,95,195922,2,0,L|186:104,1,46.7500014266968,8|8,3:0|3:0,0:0:0:0:
82,126,196092,1,8,3:0:0:0:
207,291,196261,1,4,3:0:0:0:
207,291,196346,1,4,3:0:0:0:
207,291,196431,2,0,L|213:242,1,46.7500014266968,4|4,3:0|3:0,0:0:0:0:
282,179,196600,5,6,3:0:0:0:
316,384,196770,1,14,0:0:0:0:
112,298,196939,1,2,0:0:0:0:
369,247,197109,6,0,B|423:254|484:263|484:263|508:228|475:174,1,187.000005706787,6|8,1:2|0:0,0:0:0:0:
512,79,197617,2,0,P|458:74|414:108,1,93.5000028533936,4|0,1:2|0:0,0:0:0:0:
282,179,197956,1,0,1:0:0:0:
318,0,198126,2,0,P|325:46|332:96,1,93.5000028533936,12|0,0:0|0:0,0:0:0:0:
274,270,198465,5,0,1:0:0:0:
274,270,198578,2,0,P|239:265|214:241,1,62.3333352355958,8|8,0:0|0:0,0:0:0:0:
151,304,198804,5,8,0:0:0:0:
151,304,198917,2,0,P|129:275|129:241,1,62.3333352355958,8|8,0:0|0:0,0:0:0:0:
43,241,199143,5,8,3:0:0:0:
43,241,199256,2,0,P|48:205|72:181,1,62.3333352355958,4|4,3:0|3:0,0:0:0:0:
10,122,199482,5,4,3:0:0:0:
10,122,199595,2,0,P|38:100|72:100,1,62.3333352355958,4|4,3:0|3:0,0:0:0:0:
115,11,199821,6,0,B|199:-1|176:59|277:40,1,152.999995330811,6|2,1:2|0:0,0:0:0:0:
425,116,200329,1,0,1:0:0:0:
355,0,200499,2,0,P|347:70|337:163,1,152.999995330811,8|0,0:0|1:0,0:0:0:0:
406,306,201007,1,10,0:0:0:0:
457,233,201176,5,2,1:2:0:0:
457,233,201346,2,0,P|397:221|319:267,1,152.999995330811,8|0,0:0|1:0,0:0:0:0:
341,362,201854,2,0,P|306:356|260:350,1,76.4999976654053,8|0,0:0|1:0,0:0:0:0:
137,258,202193,2,0,L|97:265,3,38.2499988327027,10|2|2|2,0:0|0:0|0:0|0:0,0:0:0:0:
221,275,202532,6,0,B|211:212|211:212|191:191|191:191|181:127,1,152.999995330811,6|2,1:2|0:0,0:0:0:0:
303,0,203041,1,0,1:0:0:0:
351,86,203210,2,0,P|299:96|204:27,1,152.999995330811,8|2,0:0|0:0,0:0:0:0:
82,0,203719,1,2,0:0:0:0:
101,152,203888,6,0,P|96:188|89:237,1,76.4999976654053,12|0,0:0|1:0,0:0:0:0:
261,289,204227,2,0,P|255:251|250:213,1,76.4999976654053,0|0,1:0|1:0,0:0:0:0:
215,48,204566,1,8,0:0:0:0:
342,240,204736,1,8,0:0:0:0:
101,152,204905,1,8,0:0:0:0:
303,0,205075,1,8,0:0:0:0:
512,46,212024,5,14,0:0:0:0:
424,131,212193,1,8,0:0:0:0:
424,131,212278,1,8,0:0:0:0:
424,131,212363,2,0,P|378:124|324:120,1,85,2|10,1:2|0:0,0:0:0:0:
319,127,212617,1,8,0:0:0:0:
298,133,212702,1,0,1:0:0:0:
191,68,212871,2,0,L|196:19,2,42.5,10|8|0,0:0|0:0|1:0,0:0:0:0:
102,150,213210,5,10,0:0:0:0:
102,150,213295,1,8,0:0:0:0:
102,150,213380,2,0,P|109:193|115:240,1,85,0|8,1:0|0:0,0:0:0:0:
112,255,213634,1,8,0:0:0:0:
110,276,213719,1,2,1:2:0:0:
203,342,213888,2,0,L|210:386,2,42.5,8|8|2,0:0|0:0|1:2,0:0:0:0:
321,299,214227,1,8,0:0:0:0:
321,299,214312,1,8,0:0:0:0:
321,299,214397,1,2,1:2:0:0:
465,384,214566,5,8,0:0:0:0:
465,384,214651,1,8,0:0:0:0:
465,384,214736,2,0,L|470:328,1,42.5,14|8,0:0|0:0,0:0:0:0:
414,195,214905,1,8,0:0:0:0:
414,195,214990,1,8,0:0:0:0:
414,195,215075,2,0,L|419:251,1,42.5,8|8,0:0|0:0,0:0:0:0:
321,299,215244,6,0,P|301:298|280:290,1,42.5,10|8,0:0|0:0,0:0:0:0:
215,346,215414,2,0,P|201:332|193:311,1,42.5,10|8,0:0|0:0,0:0:0:0:
108,316,215583,2,0,P|109:296|117:276,1,42.5,10|8,0:0|0:0,0:0:0:0:
55,217,215753,2,0,P|69:204|90:196,1,42.5,10|8,0:0|0:0,0:0:0:0:
214,195,215922,1,10,0:0:0:0:
214,195,216007,1,10,0:0:0:0:
214,195,216092,1,14,0:0:0:0:
203,81,218126,6,0,P|216:52|217:29,1,42.5,8|8,0:0|3:0,0:0:0:0:
85,58,218295,6,0,P|71:41|54:30,1,42.5,4|4,3:0|3:0,0:0:0:0:
0,148,218465,6,0,P|10:210|21:279,1,127.5,8|0,0:0|1:0,0:0:0:0:
20,273,218804,6,0,B|119:253|97:325|198:302,1,187.000005706787,6|0,1:2|1:0,0:0:0:0:
362,211,219312,1,2,1:2:0:0:
303,368,219482,2,0,P|294:311|286:261,1,93.5000028533936,0|0,1:0|1:0,0:0:0:0:
180,125,219821,2,0,P|172:171|165:217,1,93.5000028533936,10|0,0:0|0:0,0:0:0:0:
382,309,220160,6,0,P|429:288|429:147,1,187.000005706787,2|8,1:2|0:0,0:0:0:0:
350,70,220668,1,0,1:0:0:0:
350,70,220753,1,8,0:0:0:0:
350,70,220837,2,0,P|303:75|248:83,1,93.5000028533936,0|0,1:0|1:0,0:0:0:0:
61,69,221177,1,10,0:0:0:0:
239,167,221347,1,2,0:0:0:0:
147,14,221515,6,0,B|158:90|158:90|140:124|140:124|150:196,1,187.000005706787,2|10,1:2|0:0,0:0:0:0:
12,256,222025,1,2,1:2:0:0:
12,256,222109,1,8,0:0:0:0:
12,256,222194,2,0,P|19:206|25:159,1,93.5000028533936,0|0,1:0|1:0,0:0:0:0:
92,363,222532,2,0,P|42:370|-5:376,1,93.5000028533936,10|0,0:0|0:0,0:0:0:0:
149,195,222871,6,0,P|242:182|331:250,1,187.000005706787,2|8,1:2|0:0,0:0:0:0:
386,363,223380,1,0,1:0:0:0:
386,363,223464,1,8,0:0:0:0:
386,362,223549,2,0,P|339:369|293:375,1,93.5000028533936,0|0,1:0|1:0,0:0:0:0:
217,272,223888,1,10,0:0:0:0:
398,173,224058,1,2,1:2:0:0:
304,137,224227,6,0,P|310:180|316:229,1,93.5000028533936,6|2,1:2|0:0,0:0:0:0:
383,87,224567,1,10,0:0:0:0:
217,192,224736,1,2,1:2:0:0:
217,192,224821,1,8,0:0:0:0:
217,192,224906,2,0,P|174:186|121:178,1,93.5000028533936,0|2,1:0|1:2,0:0:0:0:
6,204,225245,1,10,0:0:0:0:
173,93,225414,1,2,0:0:0:0:
0,0,225583,6,0,P|6:43|12:92,1,93.5000028533936,2|2,1:2|0:0,0:0:0:0:
71,275,225923,1,10,0:0:0:0:
217,192,226092,1,2,1:2:0:0:
217,192,226177,1,8,0:0:0:0:
217,192,226262,2,0,P|260:186|313:178,1,93.5000028533936,0|2,1:0|1:2,0:0:0:0:
409,112,226600,1,10,0:0:0:0:
277,273,226770,1,2,0:0:0:0:
492,327,226939,6,0,B|502:255|502:255|484:221|484:221|495:145,1,187.000005706787,6|10,1:2|0:0,0:0:0:0:
409,25,227448,1,2,1:2:0:0:
409,25,227532,1,8,0:0:0:0:
409,25,227617,2,0,P|359:33|330:64,1,93.5000028533936,0|2,1:0|1:2,0:0:0:0:
354,199,227957,2,0,B|302:192|302:192|280:200|280:200|216:191,1,140.25000428009,8|0,0:0|0:0,0:0:0:0:
216,191,228295,5,14,0:0:0:0:
131,69,228465,1,8,0:0:0:0:
90,91,228549,1,8,0:0:0:0:
64,129,228634,1,8,0:0:0:0:
58,175,228719,1,8,0:0:0:0:
75,218,228804,2,0,L|64:279,1,46.7500014266968,6|0,1:2|0:0,0:0:0:0:
189,384,228973,5,8,0:0:0:0:
189,384,229057,1,8,0:0:0:0:
189,384,229142,2,0,L|180:312,1,46.7500014266968,8|8,0:0|0:0,0:0:0:0:
216,191,229312,2,0,L|262:186,1,46.7500014266968,8|8,0:0|0:0,0:0:0:0:
66,264,229482,2,0,L|19:268,1,46.7500014266968,8|8,0:0|0:0,0:0:0:0:
266,351,229651,6,0,B|365:331|343:403|444:380,1,187.000005706787,6|8,1:2|0:0,0:0:0:0:
512,284,230160,1,2,1:2:0:0:
512,284,230244,1,8,0:0:0:0:
512,284,230329,2,0,P|506:237|499:191,1,93.5000028533936,0|0,1:0|1:0,0:0:0:0:
328,86,230668,2,0,P|335:132|340:178,1,93.5000028533936,10|0,0:0|0:0,0:0:0:0:
266,351,231007,6,0,P|211:365|104:283,1,187.000005706787,2|8,1:2|0:0,0:0:0:0:
92,179,231515,1,0,1:0:0:0:
92,179,231600,1,8,0:0:0:0:
92,179,231685,2,0,P|49:185|-4:193,1,93.5000028533936,0|0,1:0|1:0,0:0:0:0:
184,107,232025,1,10,0:0:0:0:
109,297,232194,1,2,0:0:0:0:
309,262,232363,6,0,B|299:190|299:190|317:156|317:156|306:80,1,187.000005706787,2|10,1:2|0:0,0:0:0:0:
478,0,232872,1,2,1:2:0:0:
478,0,232957,1,8,0:0:0:0:
478,0,233042,2,0,P|469:50|461:94,1,93.5000028533936,0|0,1:0|1:0,0:0:0:0:
420,223,233380,2,0,P|475:214|527:207,1,93.5000028533936,10|2,0:0|0:0,0:0:0:0:
343,342,233719,6,0,B|244:362|266:290|165:313,1,187.000005706787,2|8,1:2|0:0,0:0:0:0:
51,384,234228,1,0,1:0:0:0:
51,384,234313,1,8,0:0:0:0:
51,384,234398,2,0,P|46:338|41:292,1,93.5000028533936,0|0,1:0|1:0,0:0:0:0:
166,121,234736,1,10,0:0:0:0:
0,207,234906,1,2,0:0:0:0:
164,313,235075,6,0,P|210:308|256:303,1,93.5000028533936,6|2,1:2|1:2,0:0:0:0:
441,176,235414,1,10,0:0:0:0:
370,334,235583,2,0,B|363:261|363:261|338:232|338:232|331:155,1,187.000005706787,14|2,0:0|1:2,0:0:0:0:
396,42,236092,2,0,P|356:22|296:29,1,93.5000028533936,10|2,0:0|0:0,0:0:0:0:
166,174,236431,5,6,1:2:0:0:
166,174,236601,1,2,1:2:0:0:
91,0,236770,1,10,0:0:0:0:
22,230,236939,2,0,B|121:210|99:282|200:259,1,187.000005706787,6|2,1:2|1:2,0:0:0:0:
336,162,237448,2,0,B|400:170|400:170|422:162|422:162|473:168,1,140.25000428009,8|0,0:0|1:0,0:0:0:0:
473,168,237787,6,0,P|480:213|457:252,1,93.5000028533936,12|2,0:0|1:2,0:0:0:0:
327,384,238126,1,10,0:0:0:0:
495,323,238296,1,2,1:2:0:0:
316,247,238465,2,0,P|269:254|223:262,1,93.5000028533936,10|2,0:0|1:2,0:0:0:0:
79,223,238804,1,10,0:0:0:0:
201,384,238974,1,2,1:2:0:0:
0,326,239143,5,8,0:0:0:0:
164,196,239313,2,0,L|172:132,1,46.7500014266968,4|4,3:0|3:0,0:0:0:0:
31,98,239483,1,8,3:0:0:0:
31,98,239567,1,8,3:0:0:0:
31,98,239651,2,0,L|39:162,1,46.7500014266968,8|8,0:0|0:0,0:0:0:0:
152,21,239821,6,0,L|85:13,1,46.7500014266968,10|8,0:0|0:0,0:0:0:0:
248,177,239991,2,0,L|294:182,1,46.7500014266968,10|8,0:0|0:0,0:0:0:0:
398,85,240160,1,10,0:0:0:0:
433,113,240244,1,8,0:0:0:0:
454,154,240329,1,8,0:0:0:0:
455,201,240413,1,8,0:0:0:0:
437,243,240499,6,0,B|338:223|360:295|259:272,1,187.000005706787,6|10,1:2|0:0,0:0:0:0:
187,153,241007,2,0,P|138:159|89:166,1,93.5000028533936,6|0,1:2|0:0,0:0:0:0:
0,113,241347,1,2,1:2:0:0:
210,41,241515,6,0,P|288:96|290:191,1,187.000005706787,14|2,0:0|0:0,0:0:0:0:
129,259,242024,1,0,1:0:0:0:
260,361,242193,2,0,P|253:314|247:268,1,93.5000028533936,10|0,0:0|0:0,0:0:0:0:
94,165,242532,2,0,P|140:171|186:177,1,93.5000028533936,2|0,1:2|1:0,0:0:0:0:
340,323,242871,2,0,P|414:333|468:282,1,140.25000428009,8|0,0:0|0:0,0:0:0:0:
461,294,243210,6,0,B|454:221|454:221|429:192|429:192|422:115,1,187.000005706787,6|10,1:2|0:0,0:0:0:0:
455,0,243719,2,0,P|409:6|363:12,1,93.5000028533936,6|0,1:2|0:0,0:0:0:0:
241,155,244058,1,2,1:2:0:0:
171,78,244227,6,0,P|232:59|339:118,1,187.000005706787,14|2,0:0|0:0,0:0:0:0:
277,255,244736,1,2,1:2:0:0:
251,266,244906,1,10,0:0:0:0:
398,196,245075,1,2,0:0:0:0:
424,207,245245,1,2,1:2:0:0:
241,155,245414,1,2,1:2:0:0:
375,296,245583,1,10,0:0:0:0:
179,352,245753,5,2,0:0:0:0:
179,352,245837,1,0,0:0:0:0:
179,352,245922,2,0,B|128:360|128:360|109:374|109:374|45:383,1,140.25000428009,14|0,0:0|0:0,0:0:0:0:
44,384,246261,2,0,P|20:340|32:296,1,93.5000028533936,10|2,0:0|1:2,0:0:0:0:
140,149,246600,2,0,P|146:197|153:251,1,93.5000028533936,8|2,0:0|1:2,0:0:0:0:
256,338,246939,1,8,0:0:0:0:
58,208,247109,1,2,1:2:0:0:
251,163,247278,6,0,P|299:169|353:176,1,93.5000028533936,8|0,0:0|1:0,0:0:0:0:
442,0,247617,2,0,P|395:5|349:11,1,93.5000028533936,10|0,0:0|1:0,0:0:0:0:
453,144,247956,1,10,0:0:0:0:
254,0,248126,1,0,1:0:0:0:
343,174,248295,2,0,P|349:220|353:266,1,93.5000028533936,10|0,0:0|1:0,0:0:0:0:
230,384,248634,6,0,P|183:378|137:372,1,93.5000028533936,14|8,0:0|0:0,0:0:0:0:
0,204,248973,2,0,P|46:198|92:192,1,93.5000028533936,8|8,0:0|0:0,0:0:0:0:
219,117,249312,1,8,0:0:0:0:
61,279,249482,1,8,0:0:0:0:
286,324,249651,1,8,0:0:0:0:
117,100,249821,1,10,0:0:0:0:
330,207,249990,1,14,0:0:0:0:
308,286,252024,6,0,P|295:315|297:342,1,46.7500014266968,8|8,0:0|3:0,0:0:0:0:
426,309,252193,6,0,P|440:326|461:338,1,46.7500014266968,4|4,3:0|3:0,0:0:0:0:
511,219,252363,6,0,P|501:157|491:97,1,93.5000028533936,8|0,0:0|1:0,0:0:0:0:
490,103,252617,1,0,1:0:0:0:
485,79,252702,6,0,B|386:59|408:131|307:108,1,187.000005706787,6|8,1:2|0:0,0:0:0:0:
227,8,253210,1,2,1:2:0:0:
227,8,253295,1,8,0:0:0:0:
227,8,253380,2,0,P|182:17|118:27,1,93.5000028533936,0|0,1:0|1:0,0:0:0:0:
0,135,253719,2,0,P|46:142|91:151,1,93.5000028533936,10|2,0:0|0:0,0:0:0:0:
114,145,253973,1,2,0:0:0:0:
136,139,254058,6,0,P|168:199|110:292,1,187.000005706787,2|8,1:2|0:0,0:0:0:0:
220,384,254566,1,0,1:0:0:0:
220,384,254651,1,8,0:0:0:0:
220,384,254736,2,0,P|265:375|329:365,1,93.5000028533936,0|0,1:0|1:0,0:0:0:0:
391,273,255075,2,0,L|380:221,1,46.7500014266968,10|2,0:0|0:0,0:0:0:0:
500,339,255244,2,0,L|489:391,1,46.7500014266968,2|2,0:0|0:0,0:0:0:0:
476,189,255414,6,0,P|432:146|304:156,1,187.000005706787,2|10,1:2|0:0,0:0:0:0:
217,231,255922,1,2,1:2:0:0:
217,231,256007,1,8,0:0:0:0:
217,231,256092,2,0,P|209:180|201:123,1,93.5000028533936,0|0,1:0|1:0,0:0:0:0:
90,27,256431,2,0,P|83:73|76:119,1,93.5000028533936,10|0,0:0|0:0,0:0:0:0:
68,297,256770,6,0,B|167:277|145:349|246:326,1,187.000005706787,2|8,1:2|0:0,0:0:0:0:
338,202,257278,2,0,L|333:259,1,46.7500014266968,2|8,1:2|0:0,0:0:0:0:
360,384,257448,1,0,1:0:0:0:
217,231,257617,1,0,1:0:0:0:
416,303,257787,2,0,P|469:295|518:289,1,93.5000028533936,8|0,0:0|0:0,0:0:0:0:
455,98,258126,6,0,B|384:86|384:86|349:103|349:103|267:88,1,187.000005706787,6|8,1:2|0:0,0:0:0:0:
158,17,258634,1,0,1:0:0:0:
158,17,258719,1,8,0:0:0:0:
158,17,258804,2,0,P|152:65|145:111,1,93.5000028533936,0|2,1:0|1:2,0:0:0:0:
66,247,259143,2,0,P|134:242|191:281,1,140.25000428009,10|0,0:0|0:0,0:0:0:0:
191,281,259482,6,0,B|290:261|268:333|369:310,1,187.000005706787,2|10,1:2|0:0,0:0:0:0:
448,235,259990,1,2,1:2:0:0:
448,235,260075,1,8,0:0:0:0:
448,235,260160,2,0,P|442:187|435:141,1,93.5000028533936,0|2,1:0|1:2,0:0:0:0:
413,22,260499,2,0,P|458:30|505:37,1,93.5000028533936,10|0,0:0|0:0,0:0:0:0:
327,158,260837,5,2,1:2:0:0:
308,58,261007,1,2,0:0:0:0:
231,124,261176,1,10,0:0:0:0:
251,226,261346,1,2,1:2:0:0:
251,226,261431,1,8,0:0:0:0:
251,226,261515,2,0,B|187:234|187:234|165:226|165:226|114:232,1,140.25000428009,0|0,1:0|0:0,0:0:0:0:
113,232,261854,2,0,P|100:280|121:318,1,93.5000028533936,10|2,0:0|0:0,0:0:0:0:
258,384,262193,5,10,0:0:0:0:
359,363,262363,1,10,0:0:0:0:
459,343,262532,1,2,1:2:0:0:
393,263,262702,1,10,0:2:0:0:
393,263,262787,1,10,0:0:0:0:
393,263,262871,2,0,P|399:215|406:169,1,93.5000028533936,10|2,0:0|0:0,0:0:0:0:
411,41,263210,2,0,L|460:49,1,46.7500014266968,8|4,3:0|3:0,0:0:0:0:
319,103,263380,2,0,L|272:95,1,46.7500014266968,4|4,3:0|3:0,0:0:0:0:
161,0,263549,6,0,L|169:47,1,46.7500014266968,6|8,1:2|3:0,0:0:0:0:
73,161,263719,1,8,3:0:0:0:
73,161,263804,1,8,3:0:0:0:
73,161,263888,2,0,L|81:114,1,46.7500014266968,8|4,3:0|3:0,0:0:0:0:
232,192,264058,2,0,L|279:184,3,46.7500014266968,6|8|8|8,3:0|3:0|3:0|3:0,0:0:0:0:
133,245,264397,2,0,L|141:292,1,46.7500014266968,0|4,1:0|3:0,0:0:0:0:
281,346,264566,2,0,L|273:299,1,46.7500014266968,6|4,3:0|3:0,0:0:0:0:
395,214,264736,5,4,3:0:0:0:
395,214,264821,1,4,3:0:0:0:
395,214,264905,2,0,P|394:133|304:75,1,187.000005706787,6|8,1:2|0:0,0:0:0:0:
223,3,265414,1,0,1:0:0:0:
223,3,265499,1,8,0:0:0:0:
223,3,265583,2,0,P|175:9|129:16,1,93.5000028533936,0|0,1:0|1:0,0:0:0:0:
0,0,265922,1,10,0:0:0:0:
152,132,266092,1,2,0:0:0:0:
0,219,266261,6,0,B|99:199|77:271|178:248,1,187.000005706787,2|8,1:2|0:0,0:0:0:0:
283,165,266770,1,2,1:2:0:0:
283,165,266854,1,8,0:0:0:0:
283,165,266939,2,0,P|289:212|297:265,1,93.5000028533936,0|0,1:0|1:0,0:0:0:0:
331,371,267278,2,0,P|284:365|231:357,1,93.5000028533936,10|0,0:0|0:0,0:0:0:0:
382,207,267617,6,0,P|468:166|488:82,1,187.000005706787,2|8,1:2|0:0,0:0:0:0:
368,0,268126,1,0,1:0:0:0:
368,0,268210,1,8,0:0:0:0:
368,0,268295,2,0,P|374:47|382:100,1,93.5000028533936,0|0,1:0|1:0,0:0:0:0:
302,261,268634,2,0,P|224:260|164:306,1,140.25000428009,8|2,0:0|0:0,0:0:0:0:
173,293,268973,6,0,P|179:182|183:104,1,187.000005706787,6|8,1:2|0:0,0:0:0:0:
26,5,269482,2,0,P|32:52|40:105,1,93.5000028533936,2|2,0:0|1:2,0:0:0:0:
0,197,269821,1,0,1:0:0:0:
140,29,269990,2,0,P|218:28|278:74,1,140.25000428009,10|0,0:0|0:0,0:0:0:0:
268,61,270329,6,0,B|339:49|339:49|374:66|374:66|456:51,1,187.000005706787,4|10,1:2|0:0,0:0:0:0:
512,142,270837,2,0,P|523:216|479:277,1,140.25000428009,2|0,1:2|0:0,0:0:0:0:
489,269,271176,1,2,1:2:0:0:
304,266,271346,1,10,0:0:0:0:
434,192,271515,1,2,1:2:0:0:
336,359,271685,6,0,P|289:351|244:345,1,93.5000028533936,6|2,1:2|0:0,0:0:0:0:
119,211,272024,1,10,0:0:0:0:
54,292,272193,2,0,P|128:307|223:232,1,187.000005706787,2|0,0:0|1:0,0:0:0:0:
300,143,272702,2,0,P|253:135|208:129,1,93.5000028533936,8|2,0:0|0:0,0:0:0:0:
372,44,273041,6,0,P|423:94|426:159,1,140.25000428009,0|0,1:0|0:0,0:0:0:0:
425,159,273380,2,0,P|431:206|439:259,1,93.5000028533936,10|2,0:0|0:0,0:0:0:0:
254,335,273719,1,2,1:2:0:0:
300,143,273888,1,2,1:2:0:0:
421,337,274058,1,10,0:0:0:0:
228,231,274227,5,2,1:2:0:0:
228,231,274312,1,2,0:0:0:0:
228,231,274397,2,0,P|175:238|124:245,1,93.5000028533936,6|0,1:2|0:0,0:0:0:0:
0,81,274736,2,0,B|99:61|77:133|178:110,1,187.000005706787,8|0,0:0|1:0,0:0:0:0:
364,157,275244,1,0,1:0:0:0:
274,0,275414,2,0,L|285:106,1,93.5000028533936,8|0,0:0|1:2,0:0:0:0:
283,93,275668,1,2,0:0:0:0:
283,93,275753,5,12,0:0:0:0:
352,280,275922,1,0,1:0:0:0:
147,212,276092,2,0,P|196:205|254:197,1,93.5000028533936,8|8,0:0|0:0,0:0:0:0:
436,229,276431,1,8,0:0:0:0:
225,322,276600,1,8,0:0:0:0:
364,157,276770,1,8,0:0:0:0:
426,365,276939,5,10,0:0:0:0:
426,365,277024,1,2,0:0:0:0:
426,365,277109,2,0,P|431:299|437:215,1,136,6|2,1:2|0:0,0:0:0:0:
488,137,277617,2,0,P|431:124|355:167,1,136,2|2,0:0|0:0,0:0:0:0:
317,239,278126,1,2,0:0:0:0:
178,122,278804,5,2,0:0:0:0:
246,55,279143,1,2,0:0:0:0:
269,148,279482,1,2,0:0:0:0:
140,270,279821,6,0,P|132:234|126:195,1,68,2|2,0:0|0:0,0:0:0:0:
38,145,280160,2,0,P|32:178|25:211,1,68,2|2,0:0|0:0,0:0:0:0:
25,211,280668,1,2,0:0:0:0:
87,352,280837,6,0,P|157:360|229:310,1,152.999995330811,2|0,0:0|0:0,0:0:0:0:
224,317,282000,6,0,L|272:327,2,28.3333333333333,2|2|2,0:0|0:0|0:0,0:0:0:0:
280,329,282240,1,2,0:0:0:0:
364,237,284256,5,2,0:0:0:0:
364,237,284382,2,0,L|358:198,2,21.25,2|2|2,0:0|0:0|0:0,0:0:0:0:
256,192,284571,12,0,290811,0:0:0:0:
