osu file format v14

[General]
AudioFilename: audio.mp3
AudioLeadIn: 0
PreviewTime: 66515
Countdown: 0
SampleSet: Soft
StackLeniency: 0.7
Mode: 0
LetterboxInBreaks: 0
WidescreenStoryboard: 1

[Editor]
DistanceSpacing: 1.4
BeatDivisor: 4
GridSize: 32
TimelineZoom: 2.4

[Metadata]
Title:The One and Only
TitleUnicode:The One and Only
Artist:Tsuki no Tempest
ArtistUnicode:月のテンペスト
Creator:SayuMana
Version:Hard
Source:IDOLY PRIDE
Tags:Moon Tempest 星見プロダクション所属 Hoshimi Production 長瀬琴乃 Nagase Kotono 橘美來 Tachibana Mirai 伊吹渚 Ibuki Nagisa 夏目ここな Natsume Kokona 白石沙季 Shiraishi Saki 宮沢小春 Miyazawa Koharu 成宮すず Narumiya Suzu 相川奏多 Aikawa Kanata 早坂芽衣 Hayasaka Mei 日向もか Moka Hinata japanese anime video game pop jpop j-pop idol girl female vocals vocalist idols ckharv
BeatmapID:3652063
BeatmapSetID:1774018

[Difficulty]
HPDrainRate:4
CircleSize:3.5
OverallDifficulty:6.8
ApproachRate:8
SliderMultiplier:1.4
SliderTickRate:1

[Events]
//Background and Video events
0,0,"bg.jpg",0,0
Video,0,"video.m4v"
//Break Periods
2,206600,211274
//Storyboard Layer 0 (Background)
//Storyboard Layer 1 (Fail)
//Storyboard Layer 2 (Pass)
//Storyboard Layer 3 (Foreground)
//Storyboard Layer 4 (Overlay)
//Storyboard Sound Samples

[TimingPoints]
161,338.983050847458,4,2,1,100,1,0
330,-100,4,2,1,40,0,0
499,338.983050847458,4,2,1,40,1,0
499,-125,4,2,1,40,0,0
11346,-111.111111111111,4,2,1,60,0,0
14058,-100,4,2,1,60,0,0
15583,-100,4,2,1,40,0,0
17787,-100,4,2,1,5,0,0
18126,-90.9090909090909,4,2,1,80,0,0
29651,-90.9090909090909,4,2,1,85,0,0
30329,-90.9090909090909,4,2,1,80,0,0
31685,-111.111111111111,4,2,1,40,0,0
42532,-111.111111111111,4,2,1,50,0,0
47956,-100,4,2,1,60,0,0
53380,-125,4,2,1,40,0,0
58465,-200,4,2,1,40,0,0
58804,-100,4,2,1,60,0,0
60160,-100,4,2,1,70,0,0
60837,-100,4,2,1,75,0,0
61176,-100,4,2,1,70,0,0
61515,-111.111111111111,4,2,1,60,0,0
64227,-100,4,2,1,70,0,0
66939,-90.9090909090909,4,2,1,70,0,1
97448,-90.9090909090909,4,2,1,85,0,1
99482,-90.9090909090909,4,2,1,80,0,0
109821,-90.9090909090909,4,2,1,35,0,0
110329,-125,4,2,1,40,0,0
121176,-111.111111111111,4,2,1,50,0,0
126600,-100,4,2,1,60,0,0
132024,-125,4,2,1,40,0,0
137448,-111.111111111111,4,2,1,50,0,0
140160,-100,4,2,1,60,0,0
142871,-100,4,2,1,70,0,0
144736,-100,4,2,1,75,0,0
145583,-90.9090909090909,4,2,1,80,0,1
175414,-90.9090909090909,4,2,1,85,0,1
178126,-90.9090909090909,4,2,1,70,0,0
199821,-111.111111111111,4,2,1,60,0,0
203888,-100,4,2,1,70,0,0
205922,-100,4,2,1,40,0,0
206600,-125,4,2,1,40,0,0
212024,-100,4,2,1,70,0,0
215414,-100,4,2,1,75,0,0
218804,-90.9090909090909,4,2,1,80,0,1
248634,-90.9090909090909,4,2,1,85,0,0
277109,-125,4,2,1,40,0,0
282000,400,4,2,1,40,1,0
282000,-125,4,2,1,40,0,0
282240,504.201680672269,4,2,1,40,1,0
282240,-125,4,2,1,40,0,0
290811,-125,4,2,1,5,0,0

[Colours]
Combo1 : 255,193,142
Combo2 : 255,251,168
Combo3 : 215,155,255
Combo4 : 158,145,255

[HitObjects]
0,232,499,6,0,B|48:241|48:241|58:251|58:251|116:264,1,112,2|0,0:0|0:0,0:0:0:0:
163,330,1007,1,2,0:0:0:0:
163,330,1092,1,2,0:0:0:0:
163,330,1176,2,0,P|194:285|173:213,1,112,2|2,0:0|0:0,0:0:0:0:
101,98,1854,2,0,L|112:36,2,56,2|2|2,0:0|0:0|0:0,0:0:0:0:
31,134,2363,1,2,0:0:0:0:
186,230,3210,6,0,L|248:222,1,56,2|2,0:0|0:0,0:0:0:0:
294,164,3549,2,0,L|356:172,1,56,2|2,0:0|0:0,0:0:0:0:
473,276,4058,1,2,0:0:0:0:
473,276,4227,1,2,0:0:0:0:
511,123,4566,1,2,0:0:0:0:
294,164,5244,2,0,L|305:102,2,56,2|2|2,0:0|0:0|0:0,0:0:0:0:
229,307,5922,6,0,P|279:277|340:292,1,112,2|2,0:0|0:0,0:0:0:0:
376,349,6431,2,0,P|426:378|487:363,1,112,2|2,0:0|0:0,0:0:0:0:
511,298,6939,2,0,B|505:249|505:249|496:238|496:238|488:179,1,112,2|0,0:0|0:0,0:0:0:0:
489,190,7617,2,0,L|423:200,1,56,2|0,0:0|0:0,0:0:0:0:
377,254,7956,2,0,L|311:244,1,56,2|0,0:0|0:0,0:0:0:0:
249,276,8295,2,0,P|240:235|256:197,1,84,2|0,0:0|0:0,0:0:0:0:
285,170,8634,6,0,L|271:51,1,112,2|2,0:0|0:0,0:0:0:0:
206,13,9143,2,0,B|150:9|160:48|95:41,1,112,2|2,0:0|0:0,0:0:0:0:
31,4,9651,2,0,P|22:62|53:106,1,112,2|2,0:0|0:0,0:0:0:0:
116,156,10160,1,2,0:0:0:0:
116,156,10329,2,0,L|174:144,2,56,2|2|2,0:0|0:0|0:0,0:0:0:0:
65,216,10837,2,0,L|76:276,1,56,2|2,0:0|0:0,0:0:0:0:
39,374,11176,5,2,0:0:0:0:
39,374,11346,2,0,P|91:383|155:341,1,125.999996154785,6|2,1:2|1:2,0:0:0:0:
185,270,11854,2,0,L|252:281,1,62.9999980773926,2|0,0:0|1:0,0:0:0:0:
302,340,12193,2,0,L|369:329,1,62.9999980773926,2|0,0:0|1:0,0:0:0:0:
484,360,12532,5,2,0:0:0:0:
484,360,12702,2,0,P|494:314|473:273,1,94.499997116089,0|0,1:0|0:0,0:0:0:0:
439,249,13041,2,0,L|449:185,1,62.9999980773926,2|0,1:2|0:0,0:0:0:0:
510,132,13380,2,0,L|500:68,1,62.9999980773926,2|0,1:2|0:0,0:0:0:0:
451,3,13719,2,0,L|340:20,1,94.499997116089,2|0,1:2|0:0,0:0:0:0:
317,38,14058,6,0,P|309:71|325:102,1,70,14|8,0:0|0:0,0:0:0:0:
394,161,14397,2,0,P|401:194|385:225,1,70,8|8,0:0|0:0,0:0:0:0:
309,273,14736,1,8,0:0:0:0:
309,273,14905,1,8,0:0:0:0:
246,213,15075,1,8,0:0:0:0:
246,213,15244,1,8,0:0:0:0:
157,293,15414,5,14,0:0:0:0:
256,192,16431,12,0,17787,0:0:0:0:
512,316,18126,6,0,B|450:306|462:349|390:333,1,115.50000352478,6|0,1:2|0:0,0:0:0:0:
358,318,18465,2,0,P|346:274|360:241,1,77.0000023498536,10|0,0:0|0:0,0:0:0:0:
431,191,18804,2,0,L|414:109,1,77.0000023498536,2|0,1:2|1:0,0:0:0:0:
448,29,19143,2,0,P|411:18|375:30,1,77.0000023498536,10|0,0:0|0:0,0:0:0:0:
309,131,19482,6,0,P|240:148|175:98,1,154.000004699707,2|8,1:2|0:0,0:0:0:0:
151,12,19990,1,2,0:0:0:0:
62,4,20160,1,2,1:2:0:0:
62,4,20329,1,2,1:2:0:0:
13,82,20499,2,0,L|29:162,1,77.0000023498536,8|0,0:0|0:0,0:0:0:0:
10,277,20837,6,0,B|62:268|62:268|79:274|79:274|131:263,1,115.50000352478,2|0,1:2|0:0,0:0:0:0:
150,227,21176,2,0,L|234:237,1,77.0000023498536,10|0,0:0|0:0,0:0:0:0:
303,287,21515,2,0,P|320:246|311:208,1,77.0000023498536,2|0,1:2|1:0,0:0:0:0:
249,148,21854,2,0,P|232:107|241:69,1,77.0000023498536,10|0,0:0|0:0,0:0:0:0:
331,0,22193,6,0,L|450:12,1,115.50000352478,2|0,1:2|0:0,0:0:0:0:
489,27,22532,2,0,P|493:64|477:99,1,77.0000023498536,10|0,0:0|0:0,0:0:0:0:
410,163,22871,2,0,L|425:249,1,77.0000023498536,2|0,1:2|1:0,0:0:0:0:
480,311,23210,2,0,P|443:333|402:326,1,77.0000023498536,10|0,0:0|0:0,0:0:0:0:
302,280,23549,5,2,1:2:0:0:
250,356,23719,1,2,0:0:0:0:
250,356,23888,1,10,0:0:0:0:
161,332,24058,1,2,1:2:0:0:
156,241,24228,1,2,0:0:0:0:
156,241,24397,1,2,1:2:0:0:
242,207,24566,6,0,B|263:126|201:142|219:53,1,154.000004699707,14|0,0:0|0:0,0:0:0:0:
289,0,25075,1,0,1:0:0:0:
354,64,25244,2,0,L|449:51,1,77.0000023498536,8|0,0:0|0:0,0:0:0:0:
511,118,25583,1,2,1:2:0:0:
511,118,25668,1,2,0:0:0:0:
511,118,25753,2,0,L|498:213,1,77.0000023498536,2|8,1:2|0:0,0:0:0:0:
443,267,26092,1,0,1:0:0:0:
343,201,26261,6,0,P|274:184|209:234,1,154.000004699707,6|8,1:2|0:0,0:0:0:0:
245,316,26770,1,0,1:0:0:0:
170,369,26939,2,0,L|82:356,1,77.0000023498536,8|2,0:0|1:2,0:0:0:0:
3,376,27278,2,0,P|-2:333|17:302,1,77.0000023498536,10|2,0:0|1:2,0:0:0:0:
103,221,27617,6,0,L|88:133,1,77.0000023498536,10|0,0:0|1:0,0:0:0:0:
50,113,27871,2,0,L|65:25,1,77.0000023498536,2|0,0:0|1:0,0:0:0:0:
98,0,28126,1,2,1:2:0:0:
169,69,28295,2,0,P|206:75|254:50,1,77.0000023498536,10|0,0:0|1:0,0:0:0:0:
275,23,28549,2,0,P|312:17|360:42,1,77.0000023498536,2|0,0:0|1:0,0:0:0:0:
388,61,28804,1,2,1:2:0:0:
485,135,28973,6,0,L|472:210,1,77.0000023498536,14|8,0:0|0:0,0:0:0:0:
497,299,29312,2,0,P|458:306|424:290,1,77.0000023498536,8|8,0:0|0:0,0:0:0:0:
382,214,29651,1,8,0:0:0:0:
382,214,29821,1,8,0:0:0:0:
319,281,29990,1,8,0:0:0:0:
267,204,30160,1,8,0:0:0:0:
189,293,30329,1,8,0:0:0:0:
189,293,31685,6,0,B|136:302|136:302|123:314|123:314|69:324,2,125.999996154785,2|0|0,1:2|1:0|1:0,0:0:0:0:
273,310,32532,1,2,0:0:0:0:
273,310,32702,2,0,P|271:269|256:240,1,62.9999980773926,2|2,1:2|0:0,0:0:0:0:
179,181,33041,6,0,B|158:105|158:105|179:63,1,125.999996154785,2|2,1:2|1:2,0:0:0:0:
232,0,33549,2,0,P|292:-9|363:27,1,125.999996154785,2|2,0:0|0:0,0:0:0:0:
321,163,34227,5,2,0:0:0:0:
321,163,34312,1,2,0:0:0:0:
321,163,34397,2,0,B|303:225|356:222|333:297,1,125.999996154785,0|0,1:0|1:0,0:0:0:0:
284,348,34905,2,0,P|318:366|360:362,1,62.9999980773926,2|0,0:0|1:0,0:0:0:0:
420,335,35244,1,2,0:0:0:0:
420,335,35414,1,2,1:2:0:0:
490,251,35583,5,2,0:0:0:0:
490,251,35753,2,0,L|474:124,1,125.999996154785,2|2,1:2|1:2,0:0:0:0:
495,46,36261,2,0,B|433:28|436:81|361:58,1,125.999996154785,2|2,0:0|0:0,0:0:0:0:
228,8,36939,5,2,0:0:0:0:
228,8,37024,1,2,0:0:0:0:
228,8,37109,2,0,P|162:3|120:51,1,125.999996154785,0|0,1:0|1:0,0:0:0:0:
81,114,37617,2,0,L|92:180,1,62.9999980773926,2|0,0:0|1:0,0:0:0:0:
60,254,37956,1,2,0:0:0:0:
60,254,38126,1,2,1:2:0:0:
138,337,38295,5,2,0:0:0:0:
138,337,38465,2,0,B|191:326|191:326|208:333|208:333|261:324,1,125.999996154785,2|2,1:2|1:2,0:0:0:0:
339,348,38973,2,0,P|344:308|329:280,1,62.9999980773926,2|0,0:0|1:0,0:0:0:0:
267,241,39312,2,0,P|317:207|379:220,1,125.999996154785,2|2,0:0|0:0,0:0:0:0:
482,191,39821,6,0,L|473:121,1,62.9999980773926,2|0,1:2|0:0,0:0:0:0:
494,51,40160,1,2,1:2:0:0:
494,51,40329,2,0,B|432:33|435:86|360:63,1,125.999996154785,2|0,0:0|0:0,0:0:0:0:
293,87,40837,2,0,L|301:149,1,62.9999980773926,0|2,1:0|0:0,0:0:0:0:
312,160,41092,1,2,0:0:0:0:
322,171,41176,6,0,B|311:224|311:224|318:241|318:241|307:294,1,125.999996154785,0|2,1:0|1:2,0:0:0:0:
315,375,41685,2,0,P|277:371|247:347,1,62.9999980773926,2|0,0:0|1:0,0:0:0:0:
227,286,42024,1,2,0:0:0:0:
227,286,42193,2,0,P|187:261|141:268,1,94.499997116089,0|0,1:0|0:0,0:0:0:0:
121,302,42532,6,0,B|55:292|65:331|-1:322,2,125.999996154785,6|0|0,1:2|1:0|1:0,0:0:0:0:
184,363,43380,1,2,0:0:0:0:
184,363,43549,2,0,L|254:350,1,62.9999980773926,10|2,0:0|0:0,0:0:0:0:
363,384,43888,6,0,P|395:330|375:272,1,125.999996154785,2|2,1:2|1:2,0:0:0:0:
312,221,44397,2,0,L|322:149,1,62.9999980773926,2|0,0:0|1:0,0:0:0:0:
354,85,44736,1,2,0:0:0:0:
354,85,44905,2,0,P|319:75|282:88,1,62.9999980773926,8|2,0:0|0:0,0:0:0:0:
282,91,45160,1,2,0:0:0:0:
269,100,45244,6,0,B|203:110|213:71|147:80,1,125.999996154785,2|2,1:2|1:2,0:0:0:0:
75,38,45753,2,0,P|62:70|68:103,1,62.9999980773926,2|0,0:0|0:0,0:0:0:0:
62,222,46092,5,2,0:0:0:0:
62,222,46261,2,0,P|115:190|186:197,1,125.999996154785,12|0,0:0|1:0,0:0:0:0:
261,215,46770,1,0,0:0:0:0:
261,215,46939,2,0,L|248:282,1,62.9999980773926,2|2,1:2|0:0,0:0:0:0:
205,346,47278,2,0,P|235:359|266:358,1,62.9999980773926,2|2,1:2|0:0,0:0:0:0:
327,305,47617,2,0,L|394:318,1,62.9999980773926,10|2,0:0|0:0,0:0:0:0:
401,326,47871,1,2,0:0:0:0:
416,334,47956,6,0,P|461:284|435:196,1,140,4|8,1:2|0:0,0:0:0:0:
375,166,48465,2,0,L|388:91,1,70,2|0,0:0|1:0,0:0:0:0:
447,29,48804,1,0,1:0:0:0:
447,29,48973,2,0,P|397:6|334:25,1,105,10|0,0:0|0:0,0:0:0:0:
319,49,49312,6,0,B|258:42|258:42|239:52|239:52|175:43,1,140,2|10,1:2|0:0,0:0:0:0:
97,8,49821,2,0,P|91:46|105:79,1,70,2|0,0:0|1:0,0:0:0:0:
178,134,50160,1,2,1:2:0:0:
178,134,50329,2,0,P|184:172|170:205,1,70,8|0,0:0|0:0,0:0:0:0:
121,311,50668,6,0,B|203:297|186:353|276:334,1,140,6|10,1:2|0:0,0:0:0:0:
313,268,51176,1,2,0:0:0:0:
313,268,51346,2,0,L|385:284,1,70,0|0,1:0|1:0,0:0:0:0:
455,336,51685,2,0,P|473:302|469:265,1,70,8|2,0:0|0:0,0:0:0:0:
391,190,52024,5,0,1:0:0:0:
391,190,52193,1,0,1:0:0:0:
470,145,52363,2,0,L|477:71,1,70,12|0,0:0|0:0,0:0:0:0:
423,7,52702,1,4,3:0:0:0:
423,7,52871,1,8,3:0:0:0:
338,33,53041,1,8,3:0:0:0:
338,33,53210,1,8,3:0:0:0:
277,122,53380,6,0,L|214:112,2,56,2|2|2,0:0|0:0|0:0,0:0:0:0:
330,180,53888,1,2,0:0:0:0:
246,313,54227,1,2,0:0:0:0:
246,313,54397,2,0,B|191:327|149:275|149:275|124:343|44:349,1,224,2|0,0:0|0:0,0:0:0:0:
67,345,55414,2,0,L|57:278,1,56,2|0,0:0|0:0,0:0:0:0:
7,230,55753,2,0,L|17:163,1,56,2|0,0:0|0:0,0:0:0:0:
99,106,56092,6,0,L|158:115,2,56,2|2|2,0:0|0:0|0:0,0:0:0:0:
54,41,56600,1,2,0:0:0:0:
209,4,56939,1,2,0:0:0:0:
209,4,57109,2,0,B|301:-8|277:57|390:36,1,168,2|0,0:0|0:0,0:0:0:0:
368,39,57702,1,2,0:0:0:0:
368,39,57787,1,2,0:0:0:0:
512,133,58465,6,0,L|503:195,1,52.5,2|0,1:2|0:0,0:0:0:0:
495,229,58804,6,0,P|444:231|393:191,1,105,14|0,0:0|0:0,0:0:0:0:
376,163,59143,2,0,L|300:175,1,70,8|0,0:0|1:0,0:0:0:0:
232,226,59482,2,0,L|156:214,1,70,8|0,0:0|1:0,0:0:0:0:
145,212,59736,1,0,1:0:0:0:
128,206,59821,2,0,L|135:167,2,35,10|2|2,0:0|1:2|1:2,0:0:0:0:
47,294,60160,6,0,P|40:325|60:369,1,70,8|8,0:0|0:0,0:0:0:0:
66,370,60414,1,8,0:0:0:0:
81,378,60499,2,0,L|127:363,3,35,8|8|8|8,0:0|0:0|0:0|0:0,0:0:0:0:
150,339,60837,2,0,L|196:354,3,35,8|8|8|8,0:0|0:0|0:0|0:0,0:0:0:0:
220,375,61176,2,0,L|298:365,1,70,8|8,3:0|3:0,0:0:0:0:
304,374,61431,1,8,3:0:0:0:
317,382,61515,6,0,P|358:349|340:269,1,125.999996154785,6|0,1:2|0:0,0:0:0:0:
302,222,62024,1,2,1:2:0:0:
302,222,62193,2,0,L|322:85,1,125.999996154785,8|2,0:0|1:2,0:0:0:0:
191,4,62871,5,2,1:2:0:0:
191,4,63041,2,0,B|126:-3|136:42|72:32,1,125.999996154785,8|2,0:0|1:2,0:0:0:0:
7,82,63549,2,0,P|3:116|20:144,1,62.9999980773926,8|0,0:0|1:0,0:0:0:0:
90,175,63888,2,0,L|76:277,1,94.499997116089,10|0,0:0|0:0,0:0:0:0:
88,312,64227,6,0,P|154:328|219:285,1,140,6|8,1:2|0:0,0:0:0:0:
270,222,64736,1,0,0:0:0:0:
270,222,64905,2,0,L|342:233,1,70,0|0,1:0|1:0,0:0:0:0:
426,259,65244,2,0,L|437:187,1,70,8|0,0:0|1:0,0:0:0:0:
433,173,65499,1,0,1:0:0:0:
429,157,65583,5,8,0:0:0:0:
512,70,65753,1,8,0:0:0:0:
413,337,66939,6,0,B|332:321|350:381|246:355,1,154.000004699707,6|8,1:2|0:0,0:0:0:0:
210,296,67448,1,2,1:2:0:0:
210,296,67532,1,8,0:0:0:0:
210,296,67617,2,0,L|126:310,1,77.0000023498536,0|0,1:0|1:0,0:0:0:0:
55,358,67956,2,0,P|39:322|44:280,1,77.0000023498536,10|0,0:0|0:0,0:0:0:0:
117,190,68295,6,0,L|101:71,1,115.50000352478,2|0,1:2|0:0,0:0:0:0:
105,29,68634,2,0,P|145:13|182:20,1,77.0000023498536,8|0,0:0|1:0,0:0:0:0:
192,30,68888,1,8,0:0:0:0:
204,44,68973,2,0,P|244:60|281:53,1,77.0000023498536,0|0,1:0|1:0,0:0:0:0:
357,10,69312,1,10,0:0:0:0:
428,68,69482,1,2,0:0:0:0:
363,170,69651,6,0,B|258:144|258:144|204:176,1,154.000004699707,2|10,1:2|0:0,0:0:0:0:
142,216,70160,1,2,1:2:0:0:
142,216,70244,1,8,0:0:0:0:
142,216,70329,2,0,L|155:295,1,77.0000023498536,0|0,1:0|1:0,0:0:0:0:
130,381,70668,2,0,P|173:385|214:363,1,77.0000023498536,10|0,0:0|0:0,0:0:0:0:
281,280,71007,6,0,P|339:276|400:325,1,115.50000352478,2|0,1:2|0:0,0:0:0:0:
412,342,71346,2,0,P|453:347|484:327,1,77.0000023498536,8|0,0:0|1:0,0:0:0:0:
493,313,71600,1,8,0:0:0:0:
498,294,71685,2,0,L|486:208,1,77.0000023498536,0|0,1:0|1:0,0:0:0:0:
435,141,72024,1,10,0:0:0:0:
498,74,72193,1,2,0:0:0:0:
394,13,72363,6,0,L|308:25,1,77.0000023498536,6|2,1:2|0:0,0:0:0:0:
227,0,72702,1,10,0:0:0:0:
169,73,72871,1,2,1:2:0:0:
169,73,72956,1,8,0:0:0:0:
169,73,73041,2,0,L|181:156,1,77.0000023498536,0|2,1:0|1:2,0:0:0:0:
153,238,73380,1,10,0:0:0:0:
232,283,73549,1,2,0:0:0:0:
152,373,73719,6,0,P|114:376|75:350,1,77.0000023498536,2|2,1:2|0:0,0:0:0:0:
10,297,74058,1,10,0:0:0:0:
68,227,74227,1,2,1:2:0:0:
68,227,74312,1,8,0:0:0:0:
68,227,74397,2,0,L|56:150,1,77.0000023498536,0|2,1:0|1:2,0:0:0:0:
14,67,74736,1,10,0:0:0:0:
79,1,74905,1,2,0:0:0:0:
156,94,75075,6,0,P|234:106|298:40,1,154.000004699707,6|10,1:2|0:0,0:0:0:0:
366,8,75583,1,2,1:2:0:0:
366,8,75668,1,8,0:0:0:0:
366,8,75753,2,0,L|451:19,1,77.0000023498536,0|2,1:0|1:2,0:0:0:0:
507,84,76092,2,0,P|521:137|479:197,1,115.50000352478,8|0,0:0|0:0,0:0:0:0:
454,212,76431,5,14,0:0:0:0:
371,184,76600,1,0,1:0:0:0:
371,184,76770,1,0,1:0:0:0:
317,258,76939,2,0,B|212:232|212:232|158:264,1,154.000004699707,14|8,0:0|0:0,0:0:0:0:
158,268,77363,1,8,0:0:0:0:
142,279,77448,2,0,L|153:319,3,38.5000011749268,10|2|2|2,0:0|0:0|0:0|0:0,0:0:0:0:
172,357,77787,6,0,B|253:341|235:401|339:375,1,154.000004699707,6|8,1:2|0:0,0:0:0:0:
410,339,78296,1,2,1:2:0:0:
410,339,78380,1,8,0:0:0:0:
410,339,78465,2,0,P|414:291|399:261,1,77.0000023498536,0|0,1:0|1:0,0:0:0:0:
326,213,78804,2,0,P|320:175|333:139,1,77.0000023498536,10|0,0:0|0:0,0:0:0:0:
433,71,79143,6,0,P|393:28|316:28,1,115.50000352478,2|0,1:2|0:0,0:0:0:0:
299,44,79482,2,0,L|222:35,1,77.0000023498536,8|0,0:0|1:0,0:0:0:0:
205,26,79736,1,8,0:0:0:0:
187,17,79821,2,0,L|110:26,1,77.0000023498536,0|0,1:0|1:0,0:0:0:0:
47,94,80160,1,10,0:0:0:0:
118,152,80330,1,2,0:0:0:0:
14,211,80499,6,0,P|-11:286|40:352,1,154.000004699707,2|10,1:2|0:0,0:0:0:0:
120,384,81008,1,2,1:2:0:0:
120,384,81092,1,8,0:0:0:0:
120,384,81177,2,0,L|215:365,1,77.0000023498536,0|0,1:0|1:0,0:0:0:0:
286,383,81515,2,0,P|285:343|258:305,1,77.0000023498536,10|2,0:0|0:0,0:0:0:0:
165,247,81854,6,0,B|156:195|156:195|162:178|162:178|151:126,1,115.50000352478,2|0,1:2|0:0,0:0:0:0:
112,107,82193,2,0,L|120:27,1,77.0000023498536,8|0,0:0|1:0,0:0:0:0:
135,18,82448,1,8,0:0:0:0:
152,10,82532,2,0,P|198:14|220:34,1,77.0000023498536,0|0,1:0|1:0,0:0:0:0:
305,69,82872,1,10,0:0:0:0:
374,7,83041,1,2,0:0:0:0:
440,107,83210,6,0,L|426:190,1,77.0000023498536,6|2,1:2|1:2,0:0:0:0:
362,248,83549,1,10,0:0:0:0:
279,205,83719,2,0,P|215:205|177:240,1,115.50000352478,14|0,0:0|0:0,0:0:0:0:
153,276,84058,1,2,1:2:0:0:
205,351,84227,2,0,L|290:337,1,77.0000023498536,10|2,0:0|0:0,0:0:0:0:
397,384,84566,5,6,1:2:0:0:
397,384,84736,1,2,1:2:0:0:
465,322,84905,1,10,0:0:0:0:
417,242,85075,2,0,B|391:137|391:137|423:83,1,154.000004699707,6|2,1:2|1:2,0:0:0:0:
486,39,85583,2,0,P|455:14|406:10,1,77.0000023498536,8|2,0:0|1:2,0:0:0:0:
320,72,85922,6,0,P|275:103|212:95,1,115.50000352478,12|0,0:0|0:0,0:0:0:0:
181,67,86261,2,0,L|101:82,1,77.0000023498536,10|2,0:0|1:2,0:0:0:0:
16,56,86600,2,0,P|12:97|28:129,1,77.0000023498536,10|2,0:0|1:2,0:0:0:0:
104,180,86939,1,10,0:0:0:0:
56,259,87109,1,2,1:2:0:0:
153,333,87278,6,0,P|190:331|221:309,1,77.0000023498536,12|4,0:0|3:0,0:0:0:0:
233,294,87532,1,4,3:0:0:0:
240,276,87617,2,0,L|286:287,3,38.5000011749268,8|8|8|8,3:0|3:0|3:0|3:0,0:0:0:0:
313,314,87956,2,0,L|359:303,3,38.5000011749268,4|4|4|4,3:0|3:0|3:0|3:0,0:0:0:0:
391,284,88295,2,0,P|413:226|372:164,1,115.50000352478,14|0,0:0|0:0,0:0:0:0:
353,154,88634,6,0,B|272:138|290:198|186:172,1,154.000004699707,6|10,1:2|0:0,0:0:0:0:
118,140,89143,2,0,P|103:96|118:54,1,77.0000023498536,6|0,1:2|0:0,0:0:0:0:
174,1,89482,1,2,1:2:0:0:
286,46,89651,6,0,B|391:20|391:20|445:52,1,154.000004699707,14|2,0:0|0:0,0:0:0:0:
491,113,90160,1,0,1:0:0:0:
421,173,90329,2,0,L|436:254,1,77.0000023498536,10|0,0:0|0:0,0:0:0:0:
489,323,90668,2,0,P|454:342|412:339,1,77.0000023498536,2|0,1:2|1:0,0:0:0:0:
346,281,91007,2,0,P|287:275|237:314,1,115.50000352478,8|0,0:0|0:0,0:0:0:0:
215,343,91346,6,0,P|159:360|78:302,1,154.000004699707,6|10,1:2|0:0,0:0:0:0:
38,230,91854,2,0,L|47:154,1,77.0000023498536,6|0,1:2|0:0,0:0:0:0:
96,74,92193,1,2,1:2:0:0:
193,148,92363,6,0,B|274:164|256:104|360:130,1,154.000004699707,14|0,0:0|0:0,0:0:0:0:
406,59,92871,1,2,0:0:0:0:
473,122,93041,2,0,P|479:159|468:195,1,77.0000023498536,10|2,0:0|0:0,0:0:0:0:
385,237,93380,2,0,L|399:312,1,77.0000023498536,2|2,1:2|1:2,0:0:0:0:
334,378,93719,1,10,0:0:0:0:
255,329,93888,1,2,0:0:0:0:
147,384,94058,6,0,P|92:324|112:253,1,154.000004699707,14|10,0:0|0:0,0:0:0:0:
172,194,94566,2,0,L|161:118,1,77.0000023498536,2|8,1:2|0:0,0:0:0:0:
111,39,94905,2,0,P|145:24|186:29,1,77.0000023498536,2|8,1:2|0:0,0:0:0:0:
250,92,95244,1,2,1:2:0:0:
330,4,95414,6,0,B|381:13|381:13|395:24|395:24|448:32,1,115.50000352478,8|0,0:0|0:0,0:0:0:0:
476,59,95753,2,0,P|479:100|454:139,1,77.0000023498536,10|0,0:0|1:0,0:0:0:0:
386,183,96092,2,0,P|383:224|408:263,1,77.0000023498536,10|0,0:0|1:0,0:0:0:0:
474,309,96431,2,0,P|433:344|359:336,1,115.50000352478,10|0,0:0|1:0,0:0:0:0:
339,312,96770,6,0,L|262:323,1,77.0000023498536,14|8,0:0|0:0,0:0:0:0:
170,334,97109,2,0,P|153:299|156:262,1,77.0000023498536,10|8,0:0|0:0,0:0:0:0:
223,197,97448,1,8,0:0:0:0:
223,197,97617,1,8,0:0:0:0:
152,136,97787,1,8,0:0:0:0:
222,76,97956,1,10,0:0:0:0:
130,0,98126,1,14,0:0:0:0:
403,123,99482,6,0,B|355:117|355:117|339:124|339:124|282:118,1,115.50000352478,6|0,1:2|0:0,0:0:0:0:
256,86,99821,2,0,L|171:97,1,77.0000023498536,10|0,0:0|0:0,0:0:0:0:
91,67,100160,2,0,P|82:105|96:141,1,77.0000023498536,2|0,1:2|1:0,0:0:0:0:
173,188,100499,2,0,P|182:226|168:262,1,77.0000023498536,10|0,0:0|0:0,0:0:0:0:
137,378,100837,6,0,B|218:394|200:334|304:360,1,154.000004699707,2|8,1:2|0:0,0:0:0:0:
368,313,101346,1,2,0:0:0:0:
435,384,101516,1,2,1:2:0:0:
435,384,101685,1,2,1:2:0:0:
499,317,101855,2,0,L|484:241,1,77.0000023498536,8|0,0:0|0:0,0:0:0:0:
512,124,102193,6,0,P|461:117|403:150,1,115.50000352478,2|0,1:2|0:0,0:0:0:0:
387,188,102532,2,0,L|304:180,1,77.0000023498536,10|0,0:0|0:0,0:0:0:0:
224,150,102871,2,0,P|215:187|228:223,1,77.0000023498536,2|0,1:2|1:0,0:0:0:0:
306,272,103210,2,0,P|318:307|309:344,1,77.0000023498536,10|0,0:0|0:0,0:0:0:0:
197,384,103549,6,0,B|149:377|149:377|135:366|135:366|78:359,1,115.50000352478,2|0,1:2|0:0,0:0:0:0:
46,336,103888,2,0,P|36:299|49:263,1,77.0000023498536,10|0,0:0|0:0,0:0:0:0:
127,214,104227,2,0,L|116:131,1,77.0000023498536,2|0,1:2|1:0,0:0:0:0:
70,57,104566,2,0,P|105:44|146:52,1,77.0000023498536,10|0,0:0|0:0,0:0:0:0:
250,103,104905,5,2,1:2:0:0:
303,30,105075,1,2,0:0:0:0:
303,30,105244,1,10,0:0:0:0:
389,61,105414,1,2,1:2:0:0:
389,153,105584,1,2,0:0:0:0:
389,153,105753,1,2,1:2:0:0:
301,180,105922,6,0,B|285:261|345:243|319:347,1,154.000004699707,14|0,0:0|0:0,0:0:0:0:
245,379,106431,1,0,1:0:0:0:
176,317,106600,2,0,L|97:331,1,77.0000023498536,8|0,0:0|0:0,0:0:0:0:
31,286,106939,1,2,1:2:0:0:
31,286,107024,1,2,0:0:0:0:
31,286,107109,2,0,L|45:207,1,77.0000023498536,2|8,1:2|0:0,0:0:0:0:
1,127,107448,1,0,1:0:0:0:
86,37,107617,6,0,P|128:32|159:51,1,77.0000023498536,6|0,1:2|0:0,0:0:0:0:
183,86,107871,2,0,P|225:91|256:72,1,77.0000023498536,2|0,0:0|0:0,0:0:0:0:
281,36,108126,1,2,0:0:0:0:
353,92,108295,2,0,L|341:172,1,77.0000023498536,10|0,0:0|1:0,0:0:0:0:
306,198,108549,2,0,L|318:278,1,77.0000023498536,2|0,0:0|0:0,0:0:0:0:
350,306,108804,1,2,1:2:0:0:
263,384,108973,5,10,0:0:0:0:
180,342,109143,1,10,0:0:0:0:
180,342,110329,6,0,L|57:328,2,112,6|0|0,1:2|0:0|0:0,0:0:0:0:
244,296,111176,1,2,0:0:0:0:
244,296,111346,2,0,P|248:261|237:227,1,56,2|2,0:0|1:2,0:0:0:0:
154,180,111685,6,0,B|160:131|160:131|169:120|169:120|177:61,1,112,2|2,1:2|0:0,0:0:0:0:
130,7,112193,2,0,P|182:-9|232:14,1,112,2|2,0:0|0:0,0:0:0:0:
328,145,112871,5,2,0:0:0:0:
328,145,113041,2,0,L|450:127,1,112,0|0,1:0|0:0,0:0:0:0:
506,88,113549,2,0,P|514:114|513:142,1,56,2|0,0:0|0:0,0:0:0:0:
469,209,113888,1,2,0:0:0:0:
469,209,114058,2,0,L|477:281,1,56,2|2,0:0|1:2,0:0:0:0:
424,360,114397,6,0,P|371:375|321:352,1,112,2|2,1:2|0:0,0:0:0:0:
272,290,114905,2,0,B|278:241|278:241|287:230|287:230|295:171,1,112,2|2,0:0|0:0,0:0:0:0:
238,40,115583,5,2,0:0:0:0:
238,40,115753,2,0,B|179:23|188:71|122:53,1,112,0|0,1:0|0:0,0:0:0:0:
55,31,116261,2,0,P|50:60|62:96,1,56,2|0,0:0|0:0,0:0:0:0:
122,137,116600,1,2,0:0:0:0:
122,137,116770,2,0,P|127:166|115:202,1,56,2|2,0:0|1:2,0:0:0:0:
41,265,117109,6,0,P|87:302|148:293,1,112,2|2,1:2|0:0,0:0:0:0:
194,244,117617,2,0,L|262:254,1,56,2|0,0:0|0:0,0:0:0:0:
297,314,117956,2,0,B|346:308|346:308|357:299|357:299|416:291,1,112,2|0,0:0|0:0,0:0:0:0:
489,226,118465,6,0,L|480:158,1,56,0|0,1:2|0:0,0:0:0:0:
497,96,118804,1,2,0:0:0:0:
497,96,118974,2,0,B|438:79|447:127|381:109,1,112,2|0,0:0|0:0,0:0:0:0:
327,158,119482,2,0,L|257:147,1,56,2|2,0:0|1:2,0:0:0:0:
164,138,119821,6,0,L|175:68,1,56,2|0,1:2|0:0,0:0:0:0:
231,29,120160,1,2,0:0:0:0:
231,29,120329,2,0,P|185:5|121:21,1,112,2|2,0:0|0:0,0:0:0:0:
74,73,120837,1,2,0:0:0:0:
22,195,121176,6,0,B|33:248|33:248|26:265|26:265|35:318,2,125.999996154785,6|0|0,1:2|1:0|1:0,0:0:0:0:
89,146,122024,1,2,0:0:0:0:
89,146,122193,2,0,L|159:159,1,62.9999980773926,10|2,0:0|0:0,0:0:0:0:
215,257,122532,6,0,P|263:215|266:153,1,125.999996154785,2|2,1:2|1:2,0:0:0:0:
209,97,123041,2,0,L|217:29,1,62.9999980773926,2|0,0:0|1:0,0:0:0:0:
295,4,123380,1,2,0:0:0:0:
295,4,123549,2,0,P|334:-5|381:24,1,94.499997116089,8|0,0:0|0:0,0:0:0:0:
408,50,123888,6,0,B|418:116|379:106|388:172,1,125.999996154785,2|2,1:2|1:2,0:0:0:0:
432,241,124397,2,0,P|398:256|372:252,1,62.9999980773926,2|0,0:0|0:0,0:0:0:0:
278,185,124736,5,2,0:0:0:0:
278,185,124905,2,0,B|196:169|196:169|152:190,1,125.999996154785,12|2,0:0|1:2,0:0:0:0:
91,234,125414,1,2,0:0:0:0:
91,234,125583,2,0,L|102:298,1,62.9999980773926,2|2,1:2|0:0,0:0:0:0:
82,376,125922,2,0,P|123:377|156:353,1,62.9999980773926,2|2,1:2|0:0,0:0:0:0:
189,300,126261,2,0,P|230:299|263:323,1,62.9999980773926,10|2,0:0|0:0,0:0:0:0:
261,318,126515,1,2,0:0:0:0:
270,332,126600,6,0,B|342:348|325:296|408:311,1,140,4|8,1:2|0:0,0:0:0:0:
483,356,127109,2,0,P|494:327|485:280,1,70,2|0,0:0|1:0,0:0:0:0:
429,227,127448,1,0,1:0:0:0:
429,227,127617,2,0,L|443:120,1,105,10|0,0:0|0:0,0:0:0:0:
456,79,127956,6,0,P|400:44|322:62,1,140,2|10,1:2|0:0,0:0:0:0:
269,125,128465,2,0,L|196:115,1,70,2|0,0:0|1:0,0:0:0:0:
124,73,128804,1,2,1:2:0:0:
124,73,128973,2,0,P|112:105|119:139,1,70,8|0,0:0|0:0,0:0:0:0:
216,212,129312,6,0,B|209:273|209:273|219:292|219:292|210:356,1,140,6|10,1:2|0:0,0:0:0:0:
301,382,129820,1,2,0:0:0:0:
301,382,129990,2,0,L|379:365,1,70,0|0,1:0|1:0,0:0:0:0:
459,383,130329,2,0,P|456:329|417:290,1,105,8|0,0:0|0:0,0:0:0:0:
382,272,130668,6,0,L|392:202,1,70,4|4,3:0|3:0,0:0:0:0:
438,124,131007,2,0,P|404:110|365:113,1,70,4|4,3:0|3:0,0:0:0:0:
292,99,131346,1,8,3:0:0:0:
292,99,131515,1,8,3:0:0:0:
232,158,131685,1,8,3:0:0:0:
232,158,131854,1,8,3:0:0:0:
289,265,132024,6,0,L|279:331,2,56,2|2|2,0:0|0:0|0:0,0:0:0:0:
351,217,132532,1,2,0:0:0:0:
287,79,132871,1,2,0:0:0:0:
287,79,133041,2,0,B|125:58|125:58|167:114,1,224,2|0,0:0|0:0,0:0:0:0:
161,106,134058,2,0,L|151:165,1,56,2|0,0:0|0:0,0:0:0:0:
85,204,134397,2,0,L|95:263,1,56,2|0,0:0|0:0,0:0:0:0:
55,361,134736,6,0,L|-14:370,2,56,2|2|2,0:0|0:0|0:0,0:0:0:0:
130,383,135244,1,2,0:0:0:0:
221,256,135583,1,2,0:0:0:0:
221,256,135753,2,0,P|310:235|404:295,1,196,2|0,0:0|0:0,0:0:0:0:
419,316,136431,1,2,0:0:0:0:
495,179,136770,2,0,L|487:110,1,56,8|0,0:0|1:0,0:0:0:0:
511,48,137109,2,0,P|472:43|428:71,1,84,0|0,1:0|0:0,0:0:0:0:
402,94,137448,5,6,1:2:0:0:
402,94,137617,2,0,B|356:88|356:88|331:100|331:100|267:91,1,125.999996154785,0|2,1:0|1:2,0:0:0:0:
216,39,138126,2,0,L|152:48,1,62.9999980773926,8|2,0:0|0:0,0:0:0:0:
73,30,138465,2,0,L|67:-5,2,31.4999990386963,2|2|2,1:2|0:0|0:0,0:0:0:0:
6,125,138804,5,2,1:2:0:0:
6,125,138973,2,0,B|-11:205|-11:205|13:250,1,125.999996154785,8|2,0:0|1:2,0:0:0:0:
0,326,139482,2,0,P|34:326|70:291,1,62.9999980773926,8|0,0:0|1:0,0:0:0:0:
95,238,139821,2,0,L|165:246,1,62.9999980773926,8|0,0:0|1:0,0:0:0:0:
244,330,140160,6,0,P|284:285|255:198,1,140,6|8,1:2|0:0,0:0:0:0:
195,158,140668,2,0,L|201:81,1,70,2|0,0:0|1:0,0:0:0:0:
173,6,141007,1,0,1:0:0:0:
173,6,141176,2,0,P|222:1|251:21,1,70,10|0,0:0|0:0,0:0:0:0:
309,108,141515,6,0,B|391:122|374:66|464:85,1,140,2|8,1:2|0:0,0:0:0:0:
511,143,142024,2,0,P|522:176|511:212,1,70,2|0,0:0|1:0,0:0:0:0:
431,246,142363,1,0,1:0:0:0:
431,246,142532,2,0,P|420:279|431:315,1,70,10|0,0:0|0:0,0:0:0:0:
334,384,142871,6,0,L|253:369,1,70,6|0,1:2|1:0,0:0:0:0:
204,302,143210,2,0,L|123:317,1,70,8|0,0:0|0:0,0:0:0:0:
56,267,143549,2,0,P|52:232|71:202,1,70,8|8,3:0|3:0,0:0:0:0:
85,193,143804,1,8,3:0:0:0:
101,188,143888,2,0,L|87:133,3,35,8|4|4|4,3:0|3:0|3:0|3:0,0:0:0:0:
66,116,144227,5,8,0:0:0:0:
147,28,144397,1,8,0:0:0:0:
316,119,144736,1,8,0:0:0:0:
316,119,144821,1,8,0:0:0:0:
316,119,144905,2,0,L|396:110,1,70,8|0,0:0|1:0,0:0:0:0:
402,115,145160,1,0,1:0:0:0:
418,121,145244,2,0,P|446:182|419:232,1,105,12|0,0:0|0:0,0:0:0:0:
409,253,145583,6,0,B|304:227|304:227|250:259,1,154.000004699707,6|8,1:2|0:0,0:0:0:0:
191,304,146092,1,2,1:2:0:0:
191,304,146176,1,8,0:0:0:0:
191,304,146261,2,0,P|167:264|180:221,1,77.0000023498536,0|0,1:0|1:0,0:0:0:0:
235,168,146600,2,0,L|224:90,1,77.0000023498536,10|0,0:0|0:0,0:0:0:0:
146,0,146939,6,0,P|90:-4|37:37,1,115.50000352478,2|0,1:2|0:0,0:0:0:0:
19,68,147278,2,0,L|29:144,1,77.0000023498536,8|0,0:0|0:0,0:0:0:0:
6,233,147617,2,0,P|45:238|82:216,1,77.0000023498536,0|0,1:0|1:0,0:0:0:0:
140,152,147956,1,10,0:0:0:0:
226,184,148126,1,2,0:0:0:0:
239,304,148295,6,0,B|320:288|302:348|406:322,1,154.000004699707,2|10,1:2|0:0,0:0:0:0:
484,361,148804,1,2,1:2:0:0:
484,361,148888,1,8,0:0:0:0:
484,361,148973,2,0,P|489:322|474:282,1,77.0000023498536,0|0,1:0|1:0,0:0:0:0:
405,228,149312,2,0,L|414:139,1,77.0000023498536,10|0,0:0|0:0,0:0:0:0:
444,33,149651,6,0,P|386:29|325:78,1,115.50000352478,2|0,1:2|0:0,0:0:0:0:
313,95,149990,2,0,P|272:100|241:80,1,77.0000023498536,8|0,0:0|1:0,0:0:0:0:
232,66,150244,1,8,0:0:0:0:
221,50,150329,2,0,L|143:64,1,77.0000023498536,0|0,1:0|1:0,0:0:0:0:
59,27,150668,1,10,0:0:0:0:
10,105,150837,1,2,0:0:0:0:
118,159,151007,6,0,L|132:237,1,77.0000023498536,6|2,1:2|0:0,0:0:0:0:
93,319,151346,1,10,0:0:0:0:
182,369,151515,1,2,1:2:0:0:
182,369,151600,1,8,0:0:0:0:
182,369,151685,2,0,P|225:369|261:344,1,77.0000023498536,0|2,1:0|1:2,0:0:0:0:
309,277,152024,1,10,0:0:0:0:
249,206,152193,1,2,0:0:0:0:
312,104,152363,6,0,P|345:85|383:87,1,77.0000023498536,2|2,1:2|0:0,0:0:0:0:
470,118,152702,1,10,0:0:0:0:
471,217,152871,1,2,1:2:0:0:
471,217,152956,1,8,0:0:0:0:
471,217,153041,2,0,L|483:300,1,77.0000023498536,0|2,1:0|1:2,0:0:0:0:
429,369,153380,1,10,0:0:0:0:
339,346,153549,1,2,0:0:0:0:
294,235,153719,6,0,B|278:153|338:171|312:67,1,154.000004699707,6|10,1:2|0:0,0:0:0:0:
360,9,154227,1,2,1:2:0:0:
360,9,154312,1,8,0:0:0:0:
360,9,154397,2,0,P|318:-6|279:6,1,77.0000023498536,0|2,1:0|1:2,0:0:0:0:
224,69,154736,2,0,P|171:78|114:40,1,115.50000352478,8|0,0:0|0:0,0:0:0:0:
88,13,155075,5,12,0:0:0:0:
16,71,155244,1,8,0:0:0:0:
62,150,155414,2,0,P|83:184|79:224,1,77.0000023498536,8|10,0:0|0:0,0:0:0:0:
75,238,155668,1,8,0:0:0:0:
69,256,155753,2,0,L|121:273,3,38.5000011749268,8|4|0|4,3:0|3:0|3:0|3:0,0:0:0:0:
131,306,156092,2,0,B|207:288|207:288|248:305,1,115.50000352478,14|0,0:0|0:0,0:0:0:0:
280,327,156431,6,0,P|339:282|316:183,1,154.000004699707,14|8,0:0|0:0,0:0:0:0:
275,153,156940,1,2,1:2:0:0:
275,153,157024,1,8,0:0:0:0:
275,153,157109,2,0,L|193:166,1,77.0000023498536,0|0,1:0|1:0,0:0:0:0:
116,207,157448,2,0,P|104:170|110:132,1,77.0000023498536,10|0,0:0|0:0,0:0:0:0:
168,27,157787,6,0,B|220:36|220:36|237:30|237:30|289:41,1,115.50000352478,2|0,1:2|0:0,0:0:0:0:
317,66,158126,2,0,B|398:52,1,77.0000023498536,8|0,0:0|1:0,0:0:0:0:
410,61,158380,1,8,0:0:0:0:
427,70,158465,2,0,P|443:110|430:148,1,77.0000023498536,0|0,1:0|1:0,0:0:0:0:
373,211,158804,1,10,0:0:0:0:
443,270,158974,1,2,0:0:0:0:
361,358,159143,6,0,B|279:374|297:314|193:340,1,154.000004699707,2|10,1:2|0:0,0:0:0:0:
130,369,159652,1,2,1:2:0:0:
130,369,159736,1,8,0:0:0:0:
130,369,159821,2,0,P|122:319|143:283,1,77.0000023498536,0|0,1:0|1:0,0:0:0:0:
202,236,160159,2,0,L|188:160,1,77.0000023498536,10|2,0:0|0:0,0:0:0:0:
134,53,160498,6,0,P|83:44|26:79,1,115.50000352478,2|0,1:2|0:0,0:0:0:0:
0,111,160837,2,0,L|14:187,1,77.0000023498536,8|0,0:0|1:0,0:0:0:0:
26,201,161092,1,8,0:0:0:0:
39,214,161176,2,0,L|25:290,1,77.0000023498536,0|0,1:0|1:0,0:0:0:0:
94,351,161516,1,10,0:0:0:0:
174,305,161685,1,2,0:0:0:0:
266,382,161854,6,0,L|342:368,1,77.0000023498536,6|2,1:2|1:2,0:0:0:0:
402,298,162193,1,10,0:0:0:0:
332,236,162363,2,0,P|323:171|368:119,1,115.50000352478,14|0,0:0|0:0,0:0:0:0:
388,106,162702,1,2,1:2:0:0:
346,23,162871,2,0,L|270:35,1,77.0000023498536,10|2,0:0|0:0,0:0:0:0:
167,94,163210,5,6,1:2:0:0:
167,94,163380,1,2,1:2:0:0:
81,60,163549,1,10,0:0:0:0:
21,131,163719,2,0,B|-5:236|-5:236|27:290,1,154.000004699707,6|2,1:2|1:2,0:0:0:0:
4,367,164227,2,0,P|45:367|78:343,1,77.0000023498536,8|2,0:0|1:2,0:0:0:0:
154,255,164566,6,0,P|214:243|266:271,1,115.50000352478,12|0,0:0|0:0,0:0:0:0:
306,275,164905,2,0,P|321:240|317:202,1,77.0000023498536,8|0,0:0|1:0,0:0:0:0:
250,138,165244,2,0,P|234:103|238:65,1,77.0000023498536,8|2,0:0|1:2,0:0:0:0:
305,1,165583,1,10,0:0:0:0:
396,17,165753,1,2,1:2:0:0:
470,115,165922,6,0,L|459:193,1,77.0000023498536,8|8,0:0|0:0,0:0:0:0:
444,203,166176,1,8,0:0:0:0:
427,213,166261,2,0,L|437:289,1,77.0000023498536,8|8,0:0|0:0,0:0:0:0:
441,308,166515,1,8,0:0:0:0:
444,327,166600,2,0,L|406:335,3,38.5000011749268,10|8|10|8,0:0|0:0|0:0|0:0,0:0:0:0:
370,365,166939,2,8,P|328:369|298:347,1,77.0000023498536,10|4,3:0|3:0,3:0:0:0:
292,332,167193,1,4,3:0:0:0:
287,313,167278,6,0,B|206:297|224:357|120:331,1,154.000004699707,6|10,1:2|0:0,0:0:0:0:
49,362,167787,2,0,P|39:325|57:289,1,77.0000023498536,6|0,1:2|0:0,0:0:0:0:
124,229,168126,1,2,1:2:0:0:
35,147,168295,6,0,P|86:111|177:124,1,154.000004699707,14|2,0:0|0:0,0:0:0:0:
237,188,168804,1,0,1:0:0:0:
306,127,168973,2,0,L|295:46,1,77.0000023498536,10|0,0:0|0:0,0:0:0:0:
375,3,169312,2,0,P|413:2|446:20,1,77.0000023498536,2|0,1:2|1:0,0:0:0:0:
498,97,169651,2,0,B|488:140|488:140|494:157|494:157|485:209,1,115.50000352478,8|0,0:0|0:0,0:0:0:0:
474,254,169990,6,0,B|367:235|367:235|315:271,1,154.000004699707,6|10,1:2|0:0,0:0:0:0:
257,318,170498,2,0,P|235:278|242:236,1,77.0000023498536,6|0,1:2|0:0,0:0:0:0:
295,176,170837,1,2,1:2:0:0:
214,87,171007,6,0,B|133:71|151:131|47:105,1,154.000004699707,14|2,0:0|0:0,0:0:0:0:
7,181,171515,2,0,L|22:261,1,77.0000023498536,2|10,1:2|0:0,0:0:0:0:
3,347,171854,2,0,P|42:349|75:328,1,77.0000023498536,2|2,0:0|1:2,0:0:0:0:
137,263,172193,1,2,1:2:0:0:
137,263,172363,1,10,0:0:0:0:
226,285,172532,1,2,0:0:0:0:
310,372,172702,6,0,P|393:380|443:313,1,154.000004699707,14|10,0:0|0:0,0:0:0:0:
387,255,173210,2,0,L|398:177,1,77.0000023498536,2|8,1:2|0:0,0:0:0:0:
476,129,173549,2,0,L|465:51,1,77.0000023498536,2|8,1:2|0:0,0:0:0:0:
388,0,173888,1,2,1:2:0:0:
314,93,174058,6,0,B|269:86|269:86|252:92|252:92|200:83,1,115.50000352478,8|0,0:0|0:0,0:0:0:0:
170,48,174397,2,0,L|89:62,1,77.0000023498536,10|0,0:0|1:0,0:0:0:0:
4,39,174736,2,0,P|1:79|22:115,1,77.0000023498536,10|0,0:0|1:0,0:0:0:0:
91,166,175075,2,0,P|98:244|75:277,1,115.50000352478,10|0,0:0|1:0,0:0:0:0:
70,318,175414,6,0,P|105:334|157:324,1,77.0000023498536,14|8,0:0|0:0,0:0:0:0:
196,255,175753,2,0,P|231:239|283:249,1,77.0000023498536,8|8,0:0|0:0,0:0:0:0:
333,315,176092,1,8,0:0:0:0:
333,315,176261,1,8,0:0:0:0:
403,254,176431,1,8,0:0:0:0:
452,331,176600,1,10,0:0:0:0:
512,227,176770,1,14,0:0:0:0:
512,227,178126,6,0,B|463:232|463:232|450:243|450:243|393:251,1,115.50000352478,4|0,1:2|0:0,0:0:0:0:
356,238,178465,2,0,P|345:193|365:156,1,77.0000023498536,10|2,0:0|0:0,0:0:0:0:
401,85,178804,1,2,1:2:0:0:
330,25,178973,2,0,B|249:9|267:69|163:43,1,154.000004699707,2|2,1:2|0:0,0:0:0:0:
84,120,179482,6,0,L|97:205,1,77.0000023498536,2|2,1:2|0:0,0:0:0:0:
66,283,179821,1,10,0:0:0:0:
135,343,179990,2,0,P|216:355|271:300,1,154.000004699707,2|0,0:0|1:0,0:0:0:0:
280,218,180499,2,0,L|267:142,1,77.0000023498536,8|2,0:0|0:0,0:0:0:0:
321,35,180837,6,0,B|427:16|427:16|479:52,1,154.000004699707,2|10,1:2|0:0,0:0:0:0:
511,123,181346,2,0,P|516:164|495:199,1,77.0000023498536,2|0,0:0|1:0,0:0:0:0:
438,264,181685,2,0,L|361:253,1,77.0000023498536,2|8,1:2|0:0,0:0:0:0:
287,197,182024,1,2,0:0:0:0:
210,282,182193,6,0,P|179:309|135:306,1,77.0000023498536,0|2,1:0|0:0,0:0:0:0:
126,303,182448,1,2,0:0:0:0:
108,296,182532,2,0,L|97:217,1,77.0000023498536,10|2,0:0|0:0,0:0:0:0:
30,155,182871,2,0,L|41:76,1,77.0000023498536,2|2,1:2|1:2,0:0:0:0:
118,28,183210,1,10,0:0:0:0:
191,84,183380,1,2,0:0:0:0:
283,5,183549,6,0,B|361:-8|361:-8|403:21,1,115.50000352478,6|0,1:2|0:0,0:0:0:0:
420,48,183888,2,0,L|409:124,1,77.0000023498536,10|0,0:0|0:0,0:0:0:0:
343,189,184227,1,2,1:2:0:0:
418,242,184397,2,0,P|357:285|286:264,1,154.000004699707,2|2,1:2|0:0,0:0:0:0:
211,170,184905,6,0,L|223:87,1,77.0000023498536,2|2,1:2|0:0,0:0:0:0:
172,15,185244,1,10,0:0:0:0:
80,27,185414,2,0,P|29:69|45:153,1,154.000004699707,2|0,0:0|1:0,0:0:0:0:
30,241,185922,2,0,P|72:237|105:211,1,77.0000023498536,8|2,0:0|0:0,0:0:0:0:
211,170,186261,6,0,B|292:186|274:126|378:152,1,154.000004699707,2|10,1:2|0:0,0:0:0:0:
426,83,186770,2,0,P|450:121|449:159,1,77.0000023498536,2|0,0:0|1:0,0:0:0:0:
398,228,187109,2,0,L|411:305,1,77.0000023498536,2|8,1:2|0:0,0:0:0:0:
364,383,187448,1,2,0:0:0:0:
260,322,187617,6,0,B|211:327|211:327|198:338|198:338|141:346,1,115.50000352478,0|0,1:0|0:0,0:0:0:0:
104,333,187956,2,0,P|93:288|113:251,1,77.0000023498536,8|0,0:0|0:0,0:0:0:0:
179,207,188295,2,0,L|165:126,1,77.0000023498536,2|2,1:2|1:2,0:0:0:0:
150,119,188549,1,10,0:0:0:0:
134,107,188634,2,0,L|148:26,1,77.0000023498536,2|10,1:2|0:0,0:0:0:0:
164,22,188888,1,10,0:0:0:0:
180,11,188973,6,0,P|238:11|281:50,1,115.50000352478,6|0,1:2|0:0,0:0:0:0:
302,87,189312,2,0,L|383:76,1,77.0000023498536,10|0,0:0|0:0,0:0:0:0:
455,25,189651,2,0,P|473:66|467:104,1,77.0000023498536,2|0,1:2|1:0,0:0:0:0:
407,165,189990,2,0,P|389:206|395:244,1,77.0000023498536,10|0,0:0|0:0,0:0:0:0:
465,338,190329,5,2,1:2:0:0:
465,338,190499,1,2,0:0:0:0:
384,383,190668,1,10,0:0:0:0:
314,322,190837,2,0,B|228:299|246:359|165:343,1,154.000004699707,2|0,0:0|1:0,0:0:0:0:
78,372,191346,2,0,P|73:326|88:295,1,77.0000023498536,8|2,0:0|0:0,0:0:0:0:
163,207,191685,6,0,L|147:65,1,115.50000352478,2|0,1:2|0:0,0:0:0:0:
119,57,192024,1,10,0:0:0:0:
191,0,192193,2,0,L|270:14,1,77.0000023498536,2|0,0:0|1:0,0:0:0:0:
321,88,192532,2,0,L|400:74,1,77.0000023498536,2|8,1:2|0:0,0:0:0:0:
472,20,192871,1,2,0:0:0:0:
512,133,193041,6,0,P|528:182|490:240,1,115.50000352478,0|0,1:0|0:0,0:0:0:0:
456,255,193380,2,0,L|380:241,1,77.0000023498536,8|0,0:0|0:0,0:0:0:0:
314,176,193719,2,0,P|292:204|285:251,1,77.0000023498536,0|10,1:0|0:0,0:0:0:0:
290,262,193973,1,8,0:0:0:0:
297,279,194058,2,0,L|257:292,3,38.5000011749268,10|0|2|0,0:0|1:0|1:2|1:0,0:0:0:0:
233,328,194397,6,0,L|134:315,1,77.0000023498536,14|2,0:0|0:0,0:0:0:0:
75,361,194736,1,8,0:0:0:0:
23,284,194905,2,0,B|7:203|67:221|41:117,1,154.000004699707,4|0,1:2|1:0,0:0:0:0:
0,53,195414,2,0,P|45:38|81:49,1,77.0000023498536,12|4,0:0|3:0,0:0:0:0:
158,128,195753,6,0,L|217:114,3,38.5000011749268,8|8|8|8,3:0|0:0|3:0|3:0,0:0:0:0:
221,80,196092,2,0,L|280:94,3,38.5000011749268,8|4|4|4,3:0|3:0|3:0|3:0,0:0:0:0:
283,128,196431,2,0,B|383:109,1,77.0000023498536,4|6,3:0|3:0,0:0:0:0:
412,38,196770,1,14,0:0:0:0:
500,63,196939,1,2,0:0:0:0:
458,176,197109,6,0,L|469:252,1,77.0000023498536,6|0,1:2|0:0,0:0:0:0:
500,339,197448,1,8,0:0:0:0:
414,372,197617,2,0,P|338:379|276:337,1,154.000004699707,4|0,1:2|1:0,0:0:0:0:
271,244,198126,2,0,L|179:230,1,77.0000023498536,12|0,0:0|0:0,0:0:0:0:
82,267,198465,6,0,L|33:284,2,51.3333348999024,0|8|8,1:0|0:0|0:0,0:0:0:0:
57,209,198804,2,0,L|10:187,2,51.3333348999024,8|8|8,0:0|0:0|0:0,0:0:0:0:
77,149,199143,2,0,L|59:100,2,51.3333348999024,8|8|8,3:0|3:0|3:0,0:0:0:0:
128,116,199482,2,0,L|149:69,2,51.3333348999024,4|4|4,3:0|3:0|3:0,0:0:0:0:
174,145,199821,6,0,P|234:156|300:98,1,125.999996154785,6|2,1:2|0:0,0:0:0:0:
323,51,200329,1,0,1:0:0:0:
323,51,200499,2,0,B|376:56|376:56|390:68|390:68|446:75,1,125.999996154785,8|0,0:0|1:0,0:0:0:0:
511,121,201007,1,10,0:0:0:0:
418,196,201176,5,2,1:2:0:0:
418,196,201346,2,0,L|432:328,1,125.999996154785,8|0,0:0|1:0,0:0:0:0:
374,380,201854,2,0,P|339:381|302:356,1,62.9999980773926,8|0,0:0|1:0,0:0:0:0:
262,305,202193,2,0,L|227:311,3,31.4999990386963,10|2|2|2,0:0|0:0|0:0|0:0,0:0:0:0:
199,283,202532,6,0,B|134:264|150:318|69:300,1,125.999996154785,6|2,1:2|0:0,0:0:0:0:
15,354,203041,1,0,1:0:0:0:
15,354,203210,2,0,P|-5:295|31:235,1,125.999996154785,8|2,0:0|0:0,0:0:0:0:
123,172,203719,5,2,0:0:0:0:
123,172,203888,2,0,L|108:70,1,70,12|0,0:0|1:0,0:0:0:0:
65,24,204227,2,0,P|100:10|137:15,1,70,0|0,1:0|1:0,0:0:0:0:
207,72,204566,1,8,0:0:0:0:
207,72,204736,1,8,0:0:0:0:
283,23,204905,1,8,0:0:0:0:
360,115,205075,1,8,0:0:0:0:
512,306,212024,6,0,P|456:316|385:270,1,140,14|2,0:0|1:2,0:0:0:0:
348,190,212532,2,0,L|278:200,1,70,10|0,0:0|1:0,0:0:0:0:
215,265,212871,2,0,L|145:255,1,70,10|0,0:0|1:0,0:0:0:0:
40,299,213210,5,10,0:0:0:0:
40,299,213295,1,8,0:0:0:0:
40,299,213380,2,0,P|31:243|57:192,1,105,0|8,1:0|0:0,0:0:0:0:
89,177,213719,2,0,L|78:107,1,70,2|8,1:2|0:0,0:0:0:0:
29,30,214058,2,0,P|66:17|99:20,1,70,2|8,1:2|0:0,0:0:0:0:
164,79,214397,2,0,P|201:92|234:89,1,70,2|8,1:2|0:0,0:0:0:0:
246,80,214651,1,8,0:0:0:0:
260,69,214736,6,0,L|313:80,3,35,14|8|8|8,0:0|0:0|0:0|0:0,0:0:0:0:
330,104,215075,2,0,L|383:93,3,35,8|8|10|8,0:0|0:0|0:0|0:0,0:0:0:0:
398,67,215414,2,0,L|451:78,3,35,10|8|10|8,0:0|0:0|0:0|0:0,0:0:0:0:
466,103,215753,2,0,P|475:148|456:184,1,70,10|10,0:0|0:0,0:0:0:0:
456,183,216007,1,10,0:0:0:0:
445,196,216092,1,14,0:0:0:0:
477,271,218126,6,0,L|520:280,4,35,8|8|4|4|8,0:0|3:0|3:0|3:0|0:0,0:0:0:0:
329,383,218804,6,0,B|303:278|303:278|335:224,1,154.000004699707,6|0,1:2|1:0,0:0:0:0:
384,165,219313,1,2,1:2:0:0:
325,93,219482,2,0,P|287:90|256:112,1,77.0000023498536,0|0,1:0|1:0,0:0:0:0:
206,190,219821,2,0,L|119:177,1,77.0000023498536,10|0,0:0|0:0,0:0:0:0:
17,135,220160,6,0,P|-15:78|14:21,1,115.50000352478,2|0,1:2|0:0,0:0:0:0:
39,9,220499,2,0,L|116:19,1,77.0000023498536,8|0,0:0|1:0,0:0:0:0:
128,33,220753,1,8,0:0:0:0:
141,46,220837,2,0,L|218:36,1,77.0000023498536,0|0,1:0|1:0,0:0:0:0:
306,7,221177,1,10,0:0:0:0:
369,74,221347,1,2,0:0:0:0:
262,130,221516,6,0,B|246:211|306:193|280:297,1,154.000004699707,2|10,1:2|0:0,0:0:0:0:
253,371,222025,1,2,1:2:0:0:
253,371,222109,1,8,0:0:0:0:
253,371,222194,2,0,P|292:376|332:361,1,77.0000023498536,0|0,1:0|1:0,0:0:0:0:
373,284,222533,2,0,L|454:295,1,77.0000023498536,10|0,0:0|0:0,0:0:0:0:
512,192,222871,6,0,B|503:140|503:140|509:123|509:123|498:71,1,115.50000352478,2|0,1:2|0:0,0:0:0:0:
475,39,223211,2,0,P|434:37|395:59,1,77.0000023498536,8|0,0:0|1:0,0:0:0:0:
392,68,223465,1,8,0:0:0:0:
381,84,223550,2,0,L|286:74,1,77.0000023498536,0|0,1:0|1:0,0:0:0:0:
224,123,223889,1,10,0:0:0:0:
165,52,224058,1,2,0:0:0:0:
83,142,224227,6,0,L|93:237,1,77.0000023498536,6|2,1:2|0:0,0:0:0:0:
52,303,224567,1,10,0:0:0:0:
123,377,224736,1,2,1:2:0:0:
123,377,224821,1,8,0:0:0:0:
123,377,224906,2,0,P|166:380|197:357,1,77.0000023498536,0|2,1:0|1:2,0:0:0:0:
256,294,225245,1,10,0:0:0:0:
210,213,225414,1,2,0:0:0:0:
314,153,225583,6,0,L|409:164,1,77.0000023498536,2|2,1:2|0:0,0:0:0:0:
473,119,225923,1,10,0:0:0:0:
512,211,226092,1,2,1:2:0:0:
512,211,226177,1,8,0:0:0:0:
512,211,226262,2,0,P|518:256|499:286,1,77.0000023498536,0|2,1:0|1:2,0:0:0:0:
426,334,226601,1,10,0:0:0:0:
353,277,226770,1,2,0:0:0:0:
291,380,226940,6,0,B|206:401|224:341|142:357,1,154.000004699707,6|10,1:2|0:0,0:0:0:0:
61,382,227448,1,2,1:2:0:0:
61,382,227533,1,8,0:0:0:0:
61,382,227618,2,0,P|54:344|68:309,1,77.0000023498536,0|2,1:0|1:2,0:0:0:0:
123,236,227956,2,0,B|114:184|114:184|120:167|120:167|109:115,1,115.50000352478,8|0,0:0|0:0,0:0:0:0:
93,80,228295,6,0,P|134:53|171:55,1,77.0000023498536,14|8,0:0|0:0,0:0:0:0:
179,57,228549,1,8,0:0:0:0:
197,63,228634,1,8,0:0:0:0:
275,112,228804,2,0,L|330:102,3,38.5000011749268,6|8|8|8,1:2|0:0|0:0|0:0,0:0:0:0:
359,107,229143,2,0,P|381:150|363:194,1,77.0000023498536,8|10,0:0|0:0,0:0:0:0:
362,190,229397,1,8,0:0:0:0:
347,202,229482,1,10,0:0:0:0:
304,315,229652,6,0,P|393:325|438:264,1,154.000004699707,6|8,1:2|0:0,0:0:0:0:
492,213,230161,1,2,1:2:0:0:
492,213,230245,1,8,0:0:0:0:
492,213,230329,2,0,L|482:136,1,77.0000023498536,0|0,1:0|1:0,0:0:0:0:
505,46,230669,2,0,P|465:43|432:60,1,77.0000023498536,10|0,0:0|0:0,0:0:0:0:
341,135,231007,6,0,P|285:145|233:122,1,115.50000352478,2|0,1:2|0:0,0:0:0:0:
208,83,231347,2,0,P|169:79|129:103,1,77.0000023498536,8|0,0:0|1:0,0:0:0:0:
121,108,231601,1,8,0:0:0:0:
105,119,231686,2,0,L|122:199,1,77.0000023498536,0|0,1:0|1:0,0:0:0:0:
194,250,232025,1,10,0:0:0:0:
151,332,232193,1,2,0:0:0:0:
264,373,232363,6,0,B|349:394|331:334|413:350,1,154.000004699707,2|10,1:2|0:0,0:0:0:0:
507,383,232871,1,2,1:2:0:0:
507,383,232956,1,8,0:0:0:0:
507,383,233042,2,0,P|512:334|495:297,1,77.0000023498536,0|0,1:0|1:0,0:0:0:0:
429,253,233380,2,0,L|438:176,1,77.0000023498536,10|2,0:0|0:0,0:0:0:0:
470,60,233719,6,0,P|419:51|362:86,1,115.50000352478,2|0,1:2|0:0,0:0:0:0:
344,122,234058,2,0,L|268:136,1,77.0000023498536,8|0,0:0|1:0,0:0:0:0:
253,147,234313,1,8,0:0:0:0:
236,157,234397,2,0,L|160:143,1,77.0000023498536,0|0,1:0|1:0,0:0:0:0:
78,98,234737,1,10,0:0:0:0:
17,167,234906,1,2,0:0:0:0:
110,244,235075,6,0,L|96:320,1,77.0000023498536,6|2,1:2|1:2,0:0:0:0:
163,383,235414,1,10,0:0:0:0:
244,340,235583,2,0,B|296:331|296:331|313:337|313:337|366:327,1,115.50000352478,14|0,0:0|0:0,0:0:0:0:
398,350,235923,1,2,1:2:0:0:
476,301,236092,2,0,P|485:266|468:227,1,77.0000023498536,10|2,0:0|0:0,0:0:0:0:
383,155,236431,5,6,1:2:0:0:
383,155,236601,1,2,1:2:0:0:
460,104,236770,1,10,0:0:0:0:
426,17,236940,2,0,B|321:-9|321:-9|281:14,1,154.000004699707,6|2,1:2|1:2,0:0:0:0:
213,76,237448,2,0,L|230:171,1,77.0000023498536,8|2,0:0|1:2,0:0:0:0:
318,232,237787,6,0,P|281:275|226:279,1,115.50000352478,12|0,0:0|0:0,0:0:0:0:
187,252,238126,2,0,L|92:269,1,77.0000023498536,10|2,0:0|1:2,0:0:0:0:
33,316,238465,2,0,P|17:281|21:243,1,77.0000023498536,10|2,0:0|1:2,0:0:0:0:
89,181,238804,1,10,0:0:0:0:
31,108,238974,1,2,1:2:0:0:
121,28,239143,6,0,B|173:19|173:19|190:25|190:25|243:15,1,115.50000352478,12|4,0:0|3:0,0:0:0:0:
279,27,239482,2,0,P|296:67|278:112,1,77.0000023498536,8|8,3:0|0:0,0:0:0:0:
277,113,239736,1,8,0:0:0:0:
263,127,239821,2,0,L|272:171,3,38.5000011749268,10|8|10|8,0:0|0:0|0:0|0:0,0:0:0:0:
285,208,240160,2,0,L|373:191,1,77.0000023498536,10|8,0:0|0:0,0:0:0:0:
378,186,240414,1,8,0:0:0:0:
394,176,240499,6,0,P|448:239|417:310,1,154.000004699707,6|10,1:2|0:0,0:0:0:0:
371,373,241007,2,0,L|295:358,1,77.0000023498536,6|0,1:2|0:0,0:0:0:0:
227,293,241347,1,2,1:2:0:0:
114,335,241515,6,0,B|93:250|153:268|137:186,1,154.000004699707,14|2,0:0|0:0,0:0:0:0:
77,115,242025,1,0,1:0:0:0:
123,35,242194,2,0,P|164:32|206:58,1,77.0000023498536,10|0,0:0|0:0,0:0:0:0:
244,125,242532,2,0,P|285:128|327:102,1,77.0000023498536,2|0,1:2|1:0,0:0:0:0:
361,31,242871,2,0,B|404:39|404:39|421:33|421:33|473:42,1,115.50000352478,8|0,0:0|0:0,0:0:0:0:
505,76,243210,6,0,P|522:147|470:200,1,154.000004699707,6|10,1:2|0:0,0:0:0:0:
386,241,243719,2,0,L|401:331,1,77.0000023498536,6|0,1:2|0:0,0:0:0:0:
334,383,244058,1,2,1:2:0:0:
240,308,244228,6,0,B|159:292|177:352|73:326,1,154.000004699707,14|2,0:0|0:0,0:0:0:0:
1,353,244736,2,0,P|-3:314|13:278,1,77.0000023498536,2|10,1:2|0:0,0:0:0:0:
85,224,245075,2,0,L|71:140,1,77.0000023498536,2|2,0:0|1:2,0:0:0:0:
23,69,245414,1,2,1:2:0:0:
23,69,245583,1,10,0:0:0:0:
92,7,245753,1,2,0:0:0:0:
204,55,245922,6,0,B|310:36|310:36|362:72,1,154.000004699707,14|10,0:0|0:0,0:0:0:0:
420,120,246431,2,0,L|403:199,1,77.0000023498536,2|8,1:2|0:0,0:0:0:0:
414,287,246770,2,0,P|371:285|337:260,1,77.0000023498536,2|8,1:2|0:0,0:0:0:0:
292,189,247109,1,2,1:2:0:0:
214,280,247279,6,0,B|162:289|162:289|145:283|145:283|100:290,1,115.50000352478,8|0,0:0|0:0,0:0:0:0:
56,302,247617,2,0,P|41:266|51:220,1,77.0000023498536,10|0,0:0|1:0,0:0:0:0:
120,174,247956,2,0,P|135:138|125:92,1,77.0000023498536,10|0,0:0|1:0,0:0:0:0:
61,37,248296,2,0,P|112:9|169:17,1,115.50000352478,10|0,0:0|1:0,0:0:0:0:
198,49,248635,6,0,L|281:35,1,77.0000023498536,14|8,0:0|0:0,0:0:0:0:
362,12,248973,2,0,P|367:49|352:84,1,77.0000023498536,8|8,0:0|0:0,0:0:0:0:
281,143,249313,1,8,0:0:0:0:
281,143,249482,1,8,0:0:0:0:
351,203,249652,1,8,0:0:0:0:
299,279,249821,1,10,0:0:0:0:
402,344,249991,1,14,0:0:0:0:
431,207,252024,6,0,L|427:246,4,38.5000011749268,8|8|4|4|8,0:0|3:0|3:0|3:0|0:0,0:0:0:0:
459,96,252532,5,0,1:0:0:0:
459,96,252617,1,0,1:0:0:0:
459,96,252702,2,0,B|406:89|406:89|389:96|389:96|337:88,1,115.50000352478,6|0,1:2|0:0,0:0:0:0:
315,49,253041,2,0,L|227:61,1,77.0000023498536,8|2,0:0|1:2,0:0:0:0:
223,71,253295,1,8,0:0:0:0:
208,83,253380,2,0,P|199:122|223:162,1,77.0000023498536,0|0,1:0|1:0,0:0:0:0:
283,215,253719,2,0,P|292:254|268:294,1,77.0000023498536,10|2,0:0|0:0,0:0:0:0:
263,299,253973,1,2,0:0:0:0:
250,313,254058,6,0,B|169:297|187:357|83:331,1,154.000004699707,2|8,1:2|0:0,0:0:0:0:
40,280,254566,1,0,1:0:0:0:
40,280,254651,1,8,0:0:0:0:
40,280,254736,2,0,L|50:201,1,77.0000023498536,0|0,1:0|1:0,0:0:0:0:
94,122,255075,1,10,0:0:0:0:
32,53,255244,1,2,0:0:0:0:
139,0,255414,6,0,P|203:1|244:48,1,115.50000352478,2|0,1:2|0:0,0:0:0:0:
258,76,255753,2,0,L|350:64,1,77.0000023498536,10|2,0:0|1:2,0:0:0:0:
348,53,256007,1,8,0:0:0:0:
362,40,256092,2,0,L|454:52,1,77.0000023498536,0|0,1:0|1:0,0:0:0:0:
512,106,256431,2,0,P|522:158|479:207,1,115.50000352478,10|0,0:0|0:0,0:0:0:0:
439,208,256770,6,0,B|423:289|483:271|457:375,1,154.000004699707,2|8,1:2|0:0,0:0:0:0:
379,384,257278,1,2,1:2:0:0:
379,384,257363,1,8,0:0:0:0:
379,384,257448,2,0,L|292:367,1,77.0000023498536,0|0,1:0|1:0,0:0:0:0:
211,382,257787,2,0,P|184:326|212:271,1,115.50000352478,8|0,0:0|0:0,0:0:0:0:
243,257,258126,6,0,L|224:92,1,154.000004699707,6|8,1:2|0:0,0:0:0:0:
251,20,258634,1,0,1:0:0:0:
251,20,258719,1,8,0:0:0:0:
251,20,258804,2,0,P|206:14|174:32,1,77.0000023498536,0|2,1:0|1:2,0:0:0:0:
118,97,259143,1,10,0:0:0:0:
34,57,259312,1,2,0:0:0:0:
0,173,259482,6,0,P|-4:235|38:282,1,115.50000352478,2|0,1:2|0:0,0:0:0:0:
67,298,259821,2,0,L|150:278,1,77.0000023498536,10|2,0:0|1:2,0:0:0:0:
155,266,260075,1,8,0:0:0:0:
166,250,260160,2,0,L|249:270,1,77.0000023498536,0|2,1:0|1:2,0:0:0:0:
304,335,260499,2,0,B|357:328|357:328|374:335|374:335|426:327,1,115.50000352478,10|0,0:0|0:0,0:0:0:0:
460,314,260837,5,2,1:2:0:0:
486,225,261007,1,2,0:0:0:0:
398,195,261176,2,0,L|413:119,1,77.0000023498536,10|2,0:0|1:2,0:0:0:0:
404,101,261431,1,8,0:0:0:0:
394,84,261515,2,0,P|356:66|303:84,1,77.0000023498536,0|2,1:0|1:2,0:0:0:0:
253,133,261854,2,0,P|195:130|147:84,1,115.50000352478,10|0,0:0|0:0,0:0:0:0:
135,51,262193,5,10,0:0:0:0:
47,39,262363,1,10,0:0:0:0:
47,39,262532,1,2,1:2:0:0:
3,121,262702,2,0,P|-15:208|33:273,1,154.000004699707,10|2,0:0|0:0,0:0:0:0:
88,319,263210,1,10,3:0:0:0:
161,263,263380,1,6,3:0:0:0:
225,364,263549,6,0,L|322:350,1,77.0000023498536,6|8,1:2|3:0,0:0:0:0:
320,357,263804,1,8,3:0:0:0:
338,362,263888,2,0,L|350:318,3,38.5000011749268,8|4|6|8,3:0|3:0|3:0|3:0,0:0:0:0:
379,290,264227,2,0,L|368:252,3,38.5000011749268,8|8|0|4,3:0|3:0|1:0|3:0,0:0:0:0:
383,209,264566,2,0,P|347:189|310:194,1,77.0000023498536,6|4,3:0|3:0,0:0:0:0:
215,262,264905,6,0,B|134:246|152:306|48:280,1,154.000004699707,6|8,1:2|0:0,0:0:0:0:
8,226,265414,1,0,1:0:0:0:
8,226,265499,1,8,0:0:0:0:
8,226,265583,2,0,P|2:180|30:138,1,77.0000023498536,0|0,1:0|1:0,0:0:0:0:
79,87,265922,1,10,0:0:0:0:
159,132,266092,1,2,0:0:0:0:
236,40,266261,6,0,P|304:24|388:96,1,154.000004699707,2|8,1:2|0:0,0:0:0:0:
449,136,266770,1,2,1:2:0:0:
449,136,266854,1,8,0:0:0:0:
449,136,266939,2,0,L|436:226,1,77.0000023498536,0|0,1:0|1:0,0:0:0:0:
462,302,267278,2,0,P|419:306|379:287,1,77.0000023498536,10|0,0:0|0:0,0:0:0:0:
304,205,267617,6,0,B|199:179|199:179|145:211,1,154.000004699707,2|8,1:2|0:0,0:0:0:0:
74,217,268126,1,0,1:0:0:0:
74,217,268210,1,8,0:0:0:0:
74,217,268295,2,0,P|85:259|116:284,1,77.0000023498536,0|0,1:0|1:0,0:0:0:0:
168,351,268634,2,0,B|221:344|221:344|238:351|238:351|282:344,1,115.50000352478,8|2,0:0|0:0,0:0:0:0:
323,339,268973,6,0,P|342:258|299:202,1,154.000004699707,6|8,1:2|0:0,0:0:0:0:
235,141,269482,2,0,L|146:154,1,77.0000023498536,2|2,0:0|1:2,0:0:0:0:
84,206,269821,1,0,1:0:0:0:
22,138,269990,2,0,B|29:85|29:85|22:68|22:68|29:24,1,115.50000352478,10|0,0:0|0:0,0:0:0:0:
70,5,270329,6,0,P|146:5|216:70,1,154.000004699707,4|10,1:2|0:0,0:0:0:0:
235,141,270837,2,0,L|312:129,1,77.0000023498536,2|0,1:2|0:0,0:0:0:0:
383,71,271176,1,2,1:2:0:0:
457,135,271346,1,10,0:0:0:0:
457,135,271515,1,2,1:2:0:0:
380,225,271685,6,0,L|394:304,1,77.0000023498536,6|2,1:2|0:0,0:0:0:0:
346,380,272024,1,10,0:0:0:0:
264,337,272193,2,0,B|183:321|201:381|97:355,1,154.000004699707,2|0,0:0|1:0,0:0:0:0:
30,321,272702,2,0,P|27:280|46:247,1,77.0000023498536,8|2,0:0|0:0,0:0:0:0:
111,150,273041,6,0,B|164:157|164:157|179:169|179:169|223:174,1,115.50000352478,0|0,1:0|0:0,0:0:0:0:
266,184,273380,2,0,P|283:150|279:112,1,77.0000023498536,10|2,0:0|0:0,0:0:0:0:
226,36,273719,2,0,P|259:18|297:21,1,77.0000023498536,2|2,1:2|1:2,0:0:0:0:
365,84,274058,1,10,0:0:0:0:
446,41,274227,1,2,1:2:0:0:
512,143,274397,6,0,P|525:215|473:268,1,154.000004699707,6|8,1:2|0:0,0:0:0:0:
383,245,274905,1,2,0:0:0:0:
330,321,275075,2,0,L|253:308,1,77.0000023498536,0|0,1:0|1:0,0:0:0:0:
163,327,275414,2,0,P|156:289|176:254,1,77.0000023498536,8|0,0:0|1:2,0:0:0:0:
190,245,275668,1,2,0:0:0:0:
206,234,275753,6,0,L|191:138,1,77.0000023498536,12|0,0:0|1:0,0:0:0:0:
140,82,276092,2,0,P|179:64|232:78,1,77.0000023498536,8|8,0:0|0:0,0:0:0:0:
297,115,276431,1,8,0:0:0:0:
297,115,276600,1,8,0:0:0:0:
362,49,276770,1,8,0:0:0:0:
449,145,276939,5,10,0:0:0:0:
449,145,277024,1,2,0:0:0:0:
449,145,277109,2,0,B|441:193|441:193|431:203|431:203|419:262,1,112,6|2,1:2|0:0,0:0:0:0:
424,329,277617,2,0,B|368:333|378:294|313:301,1,112,2|2,0:0|0:0,0:0:0:0:
245,331,278126,1,2,0:0:0:0:
245,331,278804,2,0,L|227:216,2,112,2|2|2,0:0|0:0|0:0,0:0:0:0:
132,221,279821,6,0,L|71:230,1,56,2|2,0:0|0:0,0:0:0:0:
5,263,280160,2,0,P|-4:227|5:196,1,56,2|2,0:0|0:0,0:0:0:0:
87,80,280668,1,2,0:0:0:0:
87,80,280837,1,2,0:0:0:0:
87,80,282000,6,0,L|83:47,2,18.6666666666667,2|2|2,0:0|0:0|0:0,0:0:0:0:
99,99,282240,1,2,0:0:0:0:
99,99,284256,5,2,0:0:0:0:
99,99,284382,2,0,L|121:94,2,14,2|2|2,0:0|0:0|0:0,0:0:0:0:
256,192,284571,12,0,290811,0:0:0:0:
