osu file format v14

[General]
AudioFilename: audio.mp3
AudioLeadIn: 0
PreviewTime: 66515
Countdown: 0
SampleSet: Soft
StackLeniency: 0.7
Mode: 0
LetterboxInBreaks: 0
WidescreenStoryboard: 1

[Editor]
Bookmarks: 145583
DistanceSpacing: 1.1
BeatDivisor: 4
GridSize: 32
TimelineZoom: 2

[Metadata]
Title:The One and Only
TitleUnicode:The One and Only
Artist:Tsuki no Tempest
ArtistUnicode:月のテンペスト
Creator:SayuMana
Version:Collab Normal
Source:IDOLY PRIDE
Tags:Moon Tempest 星見プロダクション所属 Hoshimi Production 長瀬琴乃 Nagase Kotono 橘美來 Tachibana Mirai 伊吹渚 Ibuki Nagisa 夏目ここな Natsume Kokona 白石沙季 Shiraishi Saki 宮沢小春 Miyazawa Koharu 成宮すず Narumiya Suzu 相川奏多 Aikawa Kanata 早坂芽衣 Hayasaka Mei 日向もか Moka Hinata japanese anime video game pop jpop j-pop idol girl female vocals vocalist idols ckharv
BeatmapID:3652062
BeatmapSetID:1774018

[Difficulty]
HPDrainRate:3
CircleSize:3.2
OverallDifficulty:4
ApproachRate:5.5
SliderMultiplier:0.999999999999999
SliderTickRate:1

[Events]
//Background and Video events
0,0,"bg.jpg",0,0
Video,0,"video.m4v"
//Break Periods
2,206600,210899
2,277309,283383
//Storyboard Layer 0 (Background)
//Storyboard Layer 1 (Fail)
//Storyboard Layer 2 (Pass)
//Storyboard Layer 3 (Foreground)
//Storyboard Layer 4 (Overlay)
//Storyboard Sound Samples

[TimingPoints]
161,338.983050847458,4,2,1,100,1,0
330,-100,4,2,1,40,0,0
499,338.983050847458,4,2,1,40,1,0
499,-117.647058823529,4,2,1,40,0,0
11346,-108.695652173913,4,2,1,60,0,0
15583,-108.695652173913,4,2,1,40,0,0
18126,-100,4,2,1,80,0,0
29651,-100,4,2,1,85,0,0
30329,-100,4,2,1,80,0,0
31685,-117.647058823529,4,2,1,40,0,0
42532,-108.695652173913,4,2,1,50,0,0
47956,-108.695652173913,4,2,1,60,0,0
53380,-117.647058823529,4,2,1,40,0,0
58804,-108.695652173913,4,2,1,60,0,0
60160,-108.695652173913,4,2,1,70,0,0
60837,-108.695652173913,4,2,1,75,0,0
61176,-108.695652173913,4,2,1,70,0,0
61515,-108.695652173913,4,2,1,60,0,0
64227,-108.695652173913,4,2,1,70,0,0
66939,-100,4,2,1,80,0,1
97448,-100,4,2,1,85,0,1
99482,-100,4,2,1,80,0,0
109821,-100,4,2,1,35,0,0
110329,-117.647058823529,4,2,1,40,0,0
121176,-108.695652173913,4,2,1,50,0,0
126600,-108.695652173913,4,2,1,60,0,0
132024,-117.647058823529,4,2,1,40,0,0
137448,-108.695652173913,4,2,1,50,0,0
140160,-108.695652173913,4,2,1,60,0,0
142871,-108.695652173913,4,2,1,70,0,0
144736,-108.695652173913,4,2,1,75,0,0
145583,-100,4,2,1,80,0,1
175414,-100,4,2,1,85,0,1
178126,-100,4,2,1,70,0,0
199821,-108.695652173913,4,2,1,60,0,0
203888,-100,4,2,1,70,0,0
205922,-100,4,2,1,40,0,0
212024,-100,4,2,1,70,0,0
215414,-100,4,2,1,75,0,0
218804,-100,4,2,1,80,0,1
248634,-100,4,2,1,85,0,0
277109,-117.647058823529,4,2,1,40,0,0
282000,400,4,2,1,40,1,0
282240,504.201680672269,4,2,1,40,1,0
290811,-100,4,2,1,5,0,0

[Colours]
Combo1 : 255,193,142
Combo2 : 255,251,168
Combo3 : 215,155,255
Combo4 : 158,145,255

[HitObjects]
56,254,499,6,0,P|134:233|206:300,1,170.000003242493,2|2,0:0|0:0,0:0:0:0:
252,371,1515,1,2,0:0:0:0:
318,305,1854,2,0,L|365:297,2,42.5000008106232,2|2|2,0:0|0:0|0:0,0:0:0:0:
287,269,2363,1,2,0:0:0:0:
145,57,3210,6,0,L|239:78,1,85.0000016212463,2|2,0:0|0:0,0:0:0:0:
260,109,3719,1,2,0:0:0:0:
324,41,4058,2,0,L|375:30,1,42.5000008106232,2|2,0:0|0:0,0:0:0:0:
445,80,4566,1,2,0:0:0:0:
447,311,5922,6,0,P|404:328|358:308,1,85.0000016212463,2|2,0:0|0:0,0:0:0:0:
334,284,6431,2,0,L|353:190,1,85.0000016212463,2|2,0:0|0:0,0:0:0:0:
361,154,6939,1,2,0:0:0:0:
232,18,7617,2,0,P|191:16|153:43,2,85.0000016212463,2|2|2,0:0|0:0|0:0,0:0:0:0:
268,104,8634,6,0,L|251:187,1,85.0000016212463,2|2,0:0|0:0,0:0:0:0:
218,221,9143,2,0,B|193:220|176:203|176:203|159:188|123:190,1,85.0000016212463,2|2,0:0|0:0,0:0:0:0:
99,167,9651,1,2,0:0:0:0:
309,374,10837,2,0,L|360:365,2,42.5000008106231,2|2|2,0:0|0:0|0:0,0:0:0:0:
261,354,11346,6,0,P|244:309|263:252,1,91.9999969116211,6|2,1:2|1:2,0:0:0:0:
286,229,11854,2,0,L|389:248,2,91.9999969116211,2|2|2,0:0|0:0|0:0,0:0:0:0:
251,191,12702,1,0,1:0:0:0:
241,90,13041,1,2,1:2:0:0:
317,24,13380,1,2,1:2:0:0:
416,43,13719,1,2,1:2:0:0:
458,134,14058,6,0,B|449:170|449:170|455:181|455:181|446:222,1,91.9999969116211,14|8,0:0|0:0,0:0:0:0:
421,267,14566,1,8,0:0:0:0:
421,267,14736,2,0,L|368:255,1,45.9999984558105,8|8,0:0|0:0,0:0:0:0:
334,227,15075,2,0,L|289:237,1,45.9999984558105,8|8,0:0|0:0,0:0:0:0:
244,213,15414,1,14,0:0:0:0:
58,265,18126,5,6,1:2:0:0:
153,319,18465,1,10,0:0:0:0:
225,236,18804,2,0,L|215:181,1,50,2|0,1:2|1:0,0:0:0:0:
195,135,19143,1,10,0:0:0:0:
279,63,19482,2,0,L|378:76,1,99.9999999999999,2|8,1:2|0:0,0:0:0:0:
417,115,19990,1,2,0:0:0:0:
417,115,20160,2,0,B|416:148|391:165|391:165|365:184|369:197,1,99.9999999999999,2|8,1:2|0:0,0:0:0:0:
442,278,20837,5,2,1:2:0:0:
391,374,21176,1,10,0:0:0:0:
282,357,21515,2,0,L|269:298,1,50,2|0,1:2|1:0,0:0:0:0:
261,253,21854,1,10,0:0:0:0:
175,183,22193,1,2,1:2:0:0:
75,229,22532,1,10,0:0:0:0:
12,138,22871,2,0,P|22:97|25:82,1,50,2|0,1:2|1:0,0:0:0:0:
34,35,23210,1,10,0:0:0:0:
140,6,23549,6,0,B|186:15|186:15|191:22|191:22|245:32,1,99.9999999999999,2|10,1:2|0:0,0:0:0:0:
263,77,24058,2,0,B|250:122|250:122|255:129|255:129|240:182,1,99.9999999999999,2|2,1:2|1:2,0:0:0:0:
253,224,24566,2,0,P|308:261|393:227,1,150,14|0,0:0|1:0,0:0:0:0:
415,193,25244,1,8,0:0:0:0:
487,107,25583,2,0,L|474:59,1,50,0|0,1:0|1:0,0:0:0:0:
450,8,25922,1,8,0:0:0:0:
349,52,26261,6,0,L|236:79,1,99.9999999999999,6|8,1:2|0:0,0:0:0:0:
141,69,26939,2,0,L|157:138,1,50,8|2,0:0|1:2,0:0:0:0:
179,165,27278,1,10,0:0:0:0:
121,258,27617,2,0,B|87:249|87:249|76:254|76:254|40:245,2,74.9999999999999,10|2|2,0:0|0:0|1:2,0:0:0:0:
167,288,28295,2,0,B|200:279|200:279|211:284|211:284|247:275,2,74.9999999999999,10|2|2,0:0|0:0|1:2,0:0:0:0:
138,335,28973,5,14,0:0:0:0:
236,383,29312,2,0,L|291:371,1,50,8|8,0:0|0:0,0:0:0:0:
334,349,29651,2,0,L|364:305,1,50,8|8,0:0|0:0,0:0:0:0:
380,255,29990,2,0,L|359:195,1,50,8|8,0:0|0:0,0:0:0:0:
331,162,30329,1,8,0:0:0:0:
126,87,31685,6,0,P|91:111|39:100,2,85.0000016212463,2|0|0,1:2|1:0|1:0,0:0:0:0:
191,20,32702,2,0,L|241:30,1,42.5000008106231,2|2,1:2|0:0,0:0:0:0:
266,60,33041,2,0,B|264:87|244:101|244:101|223:116|227:140,1,85.0000016212463,2|2,1:2|1:2,0:0:0:0:
244,175,33549,1,2,0:0:0:0:
313,237,33888,1,2,0:0:0:0:
376,168,34227,1,2,0:0:0:0:
376,168,34397,6,0,P|409:143|466:151,2,85.0000016212463,0|0|0,1:0|1:0|1:0,0:0:0:0:
313,237,35414,2,0,L|327:291,1,42.5000008106231,2|2,1:2|0:0,0:0:0:0:
327,324,35753,2,0,P|294:349|240:340,1,85.0000016212463,2|2,1:2|1:2,0:0:0:0:
208,329,36261,1,2,0:0:0:0:
226,237,36600,1,2,0:0:0:0:
143,204,36939,1,2,0:0:0:0:
143,204,37109,6,0,L|44:225,2,85.0000016212463,0|0|0,1:0|1:0|1:0,0:0:0:0:
196,127,38126,2,0,L|184:79,1,42.5000008106231,2|2,1:2|0:0,0:0:0:0:
189,39,38465,2,0,P|224:14|276:25,1,85.0000016212463,2|2,1:2|1:2,0:0:0:0:
300,48,38973,1,2,0:0:0:0:
387,5,39312,1,2,0:0:0:0:
460,72,39651,1,2,0:0:0:0:
460,72,39821,6,0,L|441:167,1,85.0000016212463,2|2,1:2|1:2,0:0:0:0:
425,198,40329,2,0,L|448:295,1,85.0000016212463,2|0,0:0|0:0,0:0:0:0:
468,321,40837,1,0,1:0:0:0:
394,378,41176,2,0,B|373:380|355:361|355:361|338:342|309:344,1,85.0000016212463,0|2,1:0|1:2,0:0:0:0:
274,361,41685,1,2,0:0:0:0:
205,305,42024,1,2,0:0:0:0:
205,305,42193,1,0,1:0:0:0:
276,233,42532,6,0,L|295:132,1,91.9999969116211,6|0,1:2|1:0,0:0:0:0:
272,95,43041,1,2,0:0:0:0:
183,45,43380,2,0,L|172:-16,2,45.9999984558105,2|10|2,0:0|0:0|0:0,0:0:0:0:
161,92,43888,2,0,L|60:73,1,91.9999969116211,2|2,1:2|1:2,0:0:0:0:
27,102,44397,1,2,0:0:0:0:
1,199,44736,2,0,L|18:289,1,91.9999969116211,2|2,0:0|0:0,0:0:0:0:
58,320,45244,6,0,B|87:321|104:302|104:302|123:281|147:288,1,91.9999969116211,2|2,1:2|1:2,0:0:0:0:
188,271,45753,2,0,L|169:171,1,91.9999969116211,2|2,0:0|0:0,0:0:0:0:
210,148,46261,2,0,B|245:145|270:172|270:172|297:203|345:197,1,137.999995367432,12|0,0:0|0:0,0:0:0:0:
382,186,46939,1,2,1:2:0:0:
450,111,47278,1,2,1:2:0:0:
400,22,47617,2,0,L|345:35,1,45.9999984558105,10|2,0:0|0:0,0:0:0:0:
324,72,47956,6,0,L|218:54,1,91.9999969116211,4|8,1:2|0:0,0:0:0:0:
189,82,48465,1,2,0:0:0:0:
189,82,48634,2,0,L|203:145,1,45.9999984558105,0|0,1:0|1:0,0:0:0:0:
218,172,48973,1,10,0:0:0:0:
155,256,49312,2,0,L|49:238,1,91.9999969116211,2|10,1:2|0:0,0:0:0:0:
19,215,49821,2,0,P|4:178|24:116,1,91.9999969116211,2|2,0:0|1:2,0:0:0:0:
39,84,50329,1,8,0:0:0:0:
118,21,50668,5,6,1:2:0:0:
199,81,51007,2,0,L|249:93,1,45.9999984558105,10|2,0:0|0:0,0:0:0:0:
284,121,51346,2,0,L|328:110,1,45.9999984558105,0|0,1:0|1:0,0:0:0:0:
363,74,51685,1,8,0:0:0:0:
363,74,51854,1,2,0:0:0:0:
453,130,52193,1,0,1:0:0:0:
453,130,52363,2,0,L|440:186,1,45.9999984558105,12|0,0:0|0:0,0:0:0:0:
417,218,52702,2,0,L|439:279,1,45.9999984558105,4|8,3:0|3:0,0:0:0:0:
457,305,53041,1,8,3:0:0:0:
383,362,53380,6,0,P|341:379|257:335,1,127.500002431869,2|2,0:0|0:0,0:0:0:0:
205,289,54227,1,2,0:0:0:0:
205,289,54397,2,0,B|213:216|213:216|219:207|219:207|228:121,1,170.000003242493,2|0,0:0|0:0,0:0:0:0:
179,41,55414,2,0,P|142:20|90:31,1,85.0000016212463,2|2,0:0|0:0,0:0:0:0:
24,84,56092,6,0,B|20:125|43:144|43:144|74:170|73:204,1,127.500002431869,2|2,0:0|0:0,0:0:0:0:
142,267,56939,1,2,0:0:0:0:
142,267,57109,2,0,P|176:222|293:228,1,170.000003242493,2|2,0:0|0:0,0:0:0:0:
418,339,58465,1,2,1:2:0:0:
489,266,58804,6,0,L|467:175,1,91.9999969116211,14|8,0:0|0:0,0:0:0:0:
432,147,59312,1,0,1:0:0:0:
432,147,59482,2,0,L|456:41,1,91.9999969116211,8|10,0:0|0:0,0:0:0:0:
367,0,60160,2,0,P|333:25|279:23,1,91.9999969116211,8|8,0:0|0:0,0:0:0:0:
246,58,60668,2,0,B|244:89|265:104|265:104|288:121|283:146,1,91.9999969116211,8|8,0:0|0:0,0:0:0:0:
272,187,61176,1,8,3:0:0:0:
183,235,61515,6,0,L|80:214,1,91.9999969116211,6|0,1:2|0:0,0:0:0:0:
53,247,62024,1,2,1:2:0:0:
53,247,62193,1,8,0:0:0:0:
75,349,62532,2,0,L|136:362,1,45.9999984558105,2|0,1:2|0:0,0:0:0:0:
165,336,62871,1,2,1:2:0:0:
165,336,63041,2,0,B|200:327|200:327|216:330|216:330|262:319,1,91.9999969116211,8|2,0:0|1:2,0:0:0:0:
293,287,63550,1,8,0:0:0:0:
240,200,63888,1,10,0:0:0:0:
322,144,64227,6,0,L|419:166,1,91.9999969116211,6|8,1:2|0:0,0:0:0:0:
453,134,64736,1,0,0:0:0:0:
453,134,64905,2,0,L|439:75,1,45.9999984558105,0|0,1:0|1:0,0:0:0:0:
435,39,65244,1,8,0:0:0:0:
344,6,65583,1,8,0:0:0:0:
344,6,65753,1,8,0:0:0:0:
141,169,66939,6,0,P|109:138|50:143,1,99.9999999999999,6|8,1:2|0:0,0:0:0:0:
24,187,67448,1,2,1:2:0:0:
24,187,67617,2,0,L|40:256,1,50,0|0,1:0|1:0,0:0:0:0:
24,289,67956,1,10,0:0:0:0:
97,370,68295,2,0,L|203:350,1,99.9999999999999,2|8,1:2|0:0,0:0:0:0:
235,313,68804,2,0,L|337:331,1,99.9999999999999,0|0,1:0|1:0,0:0:0:0:
373,368,69312,1,10,0:0:0:0:
442,282,69651,6,0,B|443:258|422:237|422:237|401:218|406:185,1,99.9999999999999,2|10,1:2|0:0,0:0:0:0:
371,155,70160,1,2,1:2:0:0:
371,155,70329,2,0,L|310:166,1,50,0|0,1:0|1:0,0:0:0:0:
283,204,70668,1,10,0:0:0:0:
192,152,71007,2,0,P|175:112|194:44,1,99.9999999999999,2|8,1:2|0:0,0:0:0:0:
148,16,71515,2,0,L|41:43,1,99.9999999999999,0|0,1:0|1:0,0:0:0:0:
18,85,72024,2,0,L|33:140,1,50,10|2,0:0|0:0,0:0:0:0:
71,171,72363,6,0,B|75:196|54:215|54:215|33:236|34:260,1,99.9999999999999,6|10,1:2|0:0,0:0:0:0:
57,309,72871,1,2,1:2:0:0:
145,383,73210,1,2,1:2:0:0:
145,383,73380,2,0,L|202:371,1,50,10|2,0:0|0:0,0:0:0:0:
239,342,73719,2,0,L|217:231,1,99.9999999999999,2|10,1:2|0:0,0:0:0:0:
194,194,74227,1,2,1:2:0:0:
299,160,74566,1,2,1:2:0:0:
299,160,74736,2,0,L|357:175,1,50,10|2,0:0|0:0,0:0:0:0:
402,173,75075,6,0,P|425:139|413:75,1,99.9999999999999,6|10,1:2|0:0,0:0:0:0:
380,42,75583,1,2,1:2:0:0:
273,12,75922,2,0,L|209:26,1,50,2|8,1:2|0:0,0:0:0:0:
181,66,76261,1,2,0:0:0:0:
181,66,76431,2,0,B|190:111|190:111|197:118|197:118|208:166,1,99.9999999999999,14|0,0:0|1:0,0:0:0:0:
186,212,76939,1,14,0:0:0:0:
94,270,77278,1,8,0:0:0:0:
94,270,77448,2,0,L|31:258,1,50,10|2,0:0|0:0,0:0:0:0:
5,221,77787,6,0,B|4:197|25:176|25:176|46:157|42:132,1,99.9999999999999,6|8,1:2|0:0,0:0:0:0:
77,93,78295,1,2,1:2:0:0:
77,93,78465,2,0,L|132:106,1,50,0|0,1:0|1:0,0:0:0:0:
171,73,78804,1,10,0:0:0:0:
230,165,79143,2,0,L|337:146,1,99.9999999999999,2|8,1:2|0:0,0:0:0:0:
365,188,79651,2,0,B|353:231|353:231|343:244|343:244|331:299,1,99.9999999999999,0|0,1:0|1:0,0:0:0:0:
364,329,80160,2,0,L|421:342,1,50,10|2,0:0|0:0,0:0:0:0:
467,342,80499,6,0,P|490:314|482:240,1,99.9999999999999,2|10,1:2|0:0,0:0:0:0:
458,207,81007,2,0,P|453:165|463:145,1,50,2|0,1:2|1:0,0:0:0:0:
508,62,81515,1,10,0:0:0:0:
408,14,81854,2,0,B|384:13|363:34|363:34|344:55|319:51,1,99.9999999999999,2|8,1:2|0:0,0:0:0:0:
263,47,82363,2,0,L|286:152,1,99.9999999999999,0|0,1:0|1:0,0:0:0:0:
309,194,82871,1,10,0:0:0:0:
230,270,83210,6,0,L|178:258,1,50,6|2,1:2|1:2,0:0:0:0:
142,219,83549,1,10,0:0:0:0:
142,219,83719,2,0,L|25:245,1,99.9999999999999,14|2,0:0|1:2,0:0:0:0:
8,282,84227,1,10,0:0:0:0:
76,367,84566,2,0,L|129:355,1,50,6|2,1:2|1:2,0:0:0:0:
166,315,84905,1,10,0:0:0:0:
166,315,85075,2,0,L|137:202,1,99.9999999999999,6|2,1:2|1:2,0:0:0:0:
105,175,85583,2,0,L|119:125,1,50,8|2,0:0|1:2,0:0:0:0:
121,72,85922,5,12,0:0:0:0:
207,4,86261,2,0,L|267:18,1,50,10|2,0:0|1:2,0:0:0:0:
305,39,86600,1,10,0:0:0:0:
305,149,86939,2,0,L|288:197,1,50,10|2,0:0|1:2,0:0:0:0:
250,236,87278,2,0,B|246:261|267:280|267:280|288:301|287:325,1,99.9999999999999,12|8,0:0|3:0,0:0:0:0:
311,380,87787,1,8,3:0:0:0:
311,380,87956,2,0,L|376:368,1,50,4|4,3:0|3:0,0:0:0:0:
413,356,88295,1,14,0:0:0:0:
508,300,88634,6,0,P|512:238|472:198,1,99.9999999999999,6|10,1:2|0:0,0:0:0:0:
438,191,89143,2,0,L|340:220,1,99.9999999999999,6|2,1:2|1:2,0:0:0:0:
289,202,89651,2,0,P|264:160|272:111,1,99.9999999999999,14|2,0:0|0:0,0:0:0:0:
295,3,90329,1,10,0:0:0:0:
185,1,90668,2,0,L|131:13,1,50,2|0,1:2|1:0,0:0:0:0:
92,45,91007,1,8,0:0:0:0:
16,122,91346,6,0,B|12:147|33:166|33:166|54:187|53:211,1,99.9999999999999,6|10,1:2|0:0,0:0:0:0:
48,265,91854,2,0,L|158:289,1,99.9999999999999,6|2,1:2|1:2,0:0:0:0:
179,330,92363,1,14,0:0:0:0:
281,200,92871,1,2,1:2:0:0:
281,200,93041,2,0,L|262:134,1,50,10|2,0:0|0:0,0:0:0:0:
226,115,93380,2,0,L|245:56,1,50,2|2,1:2|1:2,0:0:0:0:
267,18,93719,1,10,0:0:0:0:
354,84,94058,6,0,L|453:67,1,99.9999999999999,14|10,0:0|0:0,0:0:0:0:
495,101,94566,1,2,1:2:0:0:
495,101,94736,2,0,L|479:159,1,50,8|2,0:0|1:2,0:0:0:0:
445,191,95075,2,0,L|461:249,1,50,8|2,0:0|1:2,0:0:0:0:
487,285,95414,1,8,0:0:0:0:
408,361,95753,2,0,L|348:345,1,50,10|0,0:0|1:0,0:0:0:0:
318,310,96092,2,0,L|253:326,1,50,10|0,0:0|1:0,0:0:0:0:
218,300,96431,1,10,0:0:0:0:
268,202,96770,6,0,B|269:178|248:157|248:157|227:138|231:113,1,99.9999999999999,14|8,0:0|0:0,0:0:0:0:
248,60,97278,1,8,0:0:0:0:
248,60,97448,2,0,L|303:41,1,50,8|8,0:0|0:0,0:0:0:0:
343,16,97787,2,0,L|405:33,1,50,8|10,0:0|0:0,0:0:0:0:
431,66,98126,1,14,0:0:0:0:
262,309,99482,5,6,1:2:0:0:
357,363,99821,1,10,0:0:0:0:
448,301,100160,2,0,L|454:243,1,50,2|0,1:2|1:0,0:0:0:0:
461,196,100499,1,10,0:0:0:0:
393,110,100837,2,0,L|284:133,1,99.9999999999999,2|8,1:2|0:0,0:0:0:0:
259,173,101346,1,2,0:0:0:0:
259,173,101515,2,0,L|150:150,1,99.9999999999999,2|8,1:2|0:0,0:0:0:0:
64,199,102193,5,2,1:2:0:0:
70,308,102532,1,10,0:0:0:0:
169,354,102871,2,0,L|229:340,1,50,2|0,1:2|1:0,0:0:0:0:
254,301,103210,1,10,0:0:0:0:
254,187,103549,1,2,1:2:0:0:
356,147,103888,1,10,0:0:0:0:
427,234,104227,2,0,L|416:290,1,50,2|0,1:2|1:0,0:0:0:0:
394,333,104566,1,10,0:0:0:0:
301,279,104905,6,0,B|260:286|260:286|251:294|251:294|203:304,1,99.9999999999999,2|10,1:2|0:0,0:0:0:0:
176,351,105414,2,0,B|130:341|130:341|121:333|121:333|80:325,1,99.9999999999999,2|2,1:2|1:2,0:0:0:0:
31,301,105922,2,0,P|12:269|46:160,1,150,14|0,0:0|1:0,0:0:0:0:
82,132,106600,1,8,0:0:0:0:
167,201,106939,2,0,L|225:187,1,50,0|0,1:0|1:0,0:0:0:0:
262,159,107278,1,8,0:0:0:0:
340,81,107617,6,0,P|316:47|319:7,2,74.9999999999999,6|2|2,1:2|0:0|0:0,0:0:0:0:
393,90,108295,2,0,P|424:70|438:36,2,74.9999999999999,10|2|2,0:0|0:0|1:2,0:0:0:0:
362,136,108973,1,10,0:0:0:0:
362,136,109143,1,10,0:0:0:0:
80,320,110329,6,0,P|131:282|195:296,2,127.500002431869,6|0|2,1:2|0:0|0:0,0:0:0:0:
31,239,111685,2,0,L|41:144,1,85.0000016212463,2|2,1:2|0:0,0:0:0:0:
26,109,112193,1,2,0:0:0:0:
86,37,112532,1,2,0:0:0:0:
161,92,112871,1,2,0:0:0:0:
161,92,113041,6,0,B|219:77|219:77|230:79|230:79|290:64,2,127.500002431869,0|2|2,1:0|0:0|0:0,0:0:0:0:
135,182,114397,2,0,P|170:209|223:206,1,85.0000016212463,2|2,1:2|0:0,0:0:0:0:
252,230,114905,2,0,L|241:316,1,85.0000016212463,2|2,0:0|0:0,0:0:0:0:
309,384,115583,1,2,0:0:0:0:
309,384,115753,6,0,B|342:389|367:361|367:361|394:333|426:335,1,127.500002431869,0|2,1:0|0:0,0:0:0:0:
471,255,116600,2,0,L|530:269,2,42.5000008106231,2|2|2,0:0|0:0|1:2,0:0:0:0:
440,219,117109,2,0,L|422:124,1,85.0000016212463,2|2,1:2|0:0,0:0:0:0:
447,94,117617,1,2,0:0:0:0:
388,20,117956,2,0,L|337:29,1,42.5000008106231,2|2,0:0|0:0,0:0:0:0:
265,75,118465,6,0,B|259:96|276:114|276:114|293:134|290:155,1,85.0000016212463,0|2,1:2|0:0,0:0:0:0:
327,181,118973,2,0,B|335:215|308:244|308:244|282:276|286:309,1,127.500002431869,2|2,0:0|0:0,0:0:0:0:
220,365,119821,2,0,P|178:341|131:352,1,85.0000016212463,2|2,1:2|0:0,0:0:0:0:
102,323,120329,2,0,L|122:236,1,85.0000016212463,2|2,0:0|0:0,0:0:0:0:
101,197,120837,1,2,0:0:0:0:
43,113,121176,5,6,1:2:0:0:
93,30,121515,2,0,L|152:16,1,45.9999984558105,0|0,1:0|0:0,0:0:0:0:
187,27,121854,1,0,1:0:0:0:
224,125,122193,2,0,L|278:136,1,45.9999984558105,10|2,0:0|0:0,0:0:0:0:
300,174,122532,2,0,L|402:150,1,91.9999969116211,2|2,1:2|1:2,0:0:0:0:
433,126,123041,1,2,0:0:0:0:
495,205,123380,2,0,L|487:256,1,45.9999984558105,2|8,0:0|0:0,0:0:0:0:
442,340,123888,6,0,P|406:366|346:359,1,91.9999969116211,2|2,1:2|1:2,0:0:0:0:
341,318,124397,2,0,P|305:292|245:299,1,91.9999969116211,2|2,0:0|0:0,0:0:0:0:
218,322,124905,1,12,0:0:0:0:
155,242,125244,2,0,L|172:182,1,45.9999984558105,2|2,1:2|0:0,0:0:0:0:
196,156,125583,2,0,L|181:104,1,45.9999984558105,2|2,1:2|0:0,0:0:0:0:
159,67,125922,1,2,1:2:0:0:
71,16,126261,1,10,0:0:0:0:
8,95,126600,6,0,L|37:198,1,91.9999969116211,4|8,1:2|0:0,0:0:0:0:
65,222,127109,1,2,0:0:0:0:
65,222,127278,2,0,L|50:279,1,45.9999984558105,0|0,1:0|1:0,0:0:0:0:
29,311,127617,1,10,0:0:0:0:
103,379,127956,1,2,1:2:0:0:
183,317,128295,1,10,0:0:0:0:
183,317,128465,2,0,L|233:324,1,45.9999984558105,2|0,0:0|1:0,0:0:0:0:
264,359,128804,1,2,1:2:0:0:
264,359,128973,1,8,0:0:0:0:
340,293,129312,6,0,B|343:269|321:243|321:243|300:220|307:192,1,91.9999969116211,6|10,1:2|0:0,0:0:0:0:
267,176,129821,2,0,L|171:199,1,91.9999969116211,2|0,0:0|1:0,0:0:0:0:
130,177,130329,2,0,P|119:146|122:125,1,45.9999984558105,8|2,0:0|0:0,0:0:0:0:
135,85,130668,1,4,3:0:0:0:
221,28,131007,2,0,L|270:43,1,45.9999984558105,4|4,3:0|3:0,0:0:0:0:
299,78,131346,2,0,L|362:66,1,45.9999984558105,8|8,3:0|3:0,0:0:0:0:
381,35,131685,1,8,3:0:0:0:
459,86,132024,6,0,P|480:134|448:213,1,127.500002431869,2|2,0:0|0:0,0:0:0:0:
390,266,132871,1,2,0:0:0:0:
390,266,133041,2,0,B|314:249|314:249|299:252|299:252|216:233,1,170.000003242493,2|0,0:0|0:0,0:0:0:0:
153,296,134058,2,0,L|58:317,1,85.0000016212463,2|2,0:0|0:0,0:0:0:0:
7,244,134736,6,0,B|12:211|37:193|37:193|63:175|63:122,1,127.500002431869,2|2,0:0|0:0,0:0:0:0:
111,55,135583,1,2,0:0:0:0:
111,55,135753,2,0,P|157:99|267:74,1,170.000003242493,2|2,0:0|0:0,0:0:0:0:
313,10,136770,2,0,L|368:21,1,42.5000008106231,8|0,0:0|1:0,0:0:0:0:
395,40,137109,1,0,1:0:0:0:
475,101,137448,6,0,P|446:126|442:195,1,91.9999969116211,6|0,1:2|0:0,0:0:0:0:
458,222,137956,1,2,1:2:0:0:
458,222,138126,2,0,L|364:241,1,91.9999969116211,8|2,0:0|1:2,0:0:0:0:
285,191,138804,1,2,1:2:0:0:
285,191,138973,2,0,B|280:169|300:147|300:147|320:127|318:90,1,91.9999969116211,8|2,0:0|1:2,0:0:0:0:
301,59,139482,2,0,L|254:49,1,45.9999984558105,8|0,0:0|1:0,0:0:0:0:
212,23,139821,1,8,0:0:0:0:
142,96,140160,6,0,L|50:114,1,91.9999969116211,6|8,1:2|0:0,0:0:0:0:
17,150,140668,1,2,0:0:0:0:
17,150,140837,1,0,1:0:0:0:
63,240,141176,2,0,L|74:293,1,45.9999984558105,10|0,0:0|0:0,0:0:0:0:
88,333,141515,2,0,B|111:337|138:316|138:316|162:296|190:305,1,91.9999969116211,2|8,1:2|0:0,0:0:0:0:
221,315,142024,1,2,0:0:0:0:
221,315,142193,1,0,1:0:0:0:
288,239,142532,1,10,0:0:0:0:
212,171,142871,5,6,1:2:0:0:
266,85,143210,2,0,L|312:62,1,45.9999984558105,8|0,0:0|0:0,0:0:0:0:
345,31,143549,2,0,L|455:52,1,91.9999969116211,8|8,3:0|3:0,0:0:0:0:
498,134,144227,1,8,0:0:0:0:
498,134,144397,1,8,0:0:0:0:
424,203,144736,1,8,0:0:0:0:
424,203,144905,2,0,L|372:219,1,45.9999984558105,8|0,0:0|1:0,0:0:0:0:
330,203,145244,1,12,0:0:0:0:
239,264,145583,6,0,P|215:211|233:160,1,99.9999999999999,6|8,1:2|0:0,0:0:0:0:
268,138,146092,1,2,1:2:0:0:
268,138,146261,2,0,L|252:69,1,50,0|0,1:0|1:0,0:0:0:0:
231,40,146600,1,10,0:0:0:0:
128,1,146939,2,0,P|77:4|48:43,1,99.9999999999999,2|8,1:2|0:0,0:0:0:0:
48,99,147448,1,0,0:0:0:0:
48,99,147617,2,0,L|-15:111,2,50,0|0|10,1:0|1:0|0:0,0:0:0:0:
126,177,148295,6,0,B|118:218|118:218|122:232|122:232|114:284,1,99.9999999999999,2|10,1:2|0:0,0:0:0:0:
109,333,148804,1,2,1:2:0:0:
109,333,148973,2,0,L|170:344,1,50,0|0,1:0|1:0,0:0:0:0:
208,319,149312,1,10,0:0:0:0:
302,375,149651,2,0,P|323:322|303:269,1,99.9999999999999,2|8,1:2|0:0,0:0:0:0:
266,251,150160,2,0,L|283:145,1,99.9999999999999,0|0,1:0|1:0,0:0:0:0:
257,102,150668,1,10,0:0:0:0:
352,48,151007,6,0,L|343:-1,2,50,6|2|10,1:2|0:0|0:0,0:0:0:0:
399,76,151515,1,2,1:2:0:0:
486,142,151854,2,0,L|477:191,1,50,2|10,1:2|0:0,0:0:0:0:
442,234,152193,1,2,0:0:0:0:
442,234,152363,2,0,B|450:275|450:275|446:289|446:289|454:341,1,99.9999999999999,2|10,1:2|0:0,0:0:0:0:
431,383,152871,1,2,1:2:0:0:
333,343,153210,1,2,1:2:0:0:
333,343,153380,2,0,L|282:352,1,50,10|2,0:0|0:0,0:0:0:0:
233,373,153719,6,0,P|210:339|222:275,1,99.9999999999999,6|10,1:2|0:0,0:0:0:0:
250,238,154227,1,2,1:2:0:0:
324,156,154566,2,0,L|312:90,1,50,2|8,1:2|0:0,0:0:0:0:
328,56,154905,1,2,1:2:0:0:
328,56,155075,2,0,L|394:44,2,50,12|8|8,0:0|0:0|0:0,0:0:0:0:
287,18,155583,2,0,P|238:8|190:37,1,99.9999999999999,10|4,0:0|3:0,0:0:0:0:
165,76,156092,1,14,0:0:0:0:
191,182,156431,6,0,B|142:176|151:208|90:202,1,99.9999999999999,14|8,0:0|0:0,0:0:0:0:
50,231,156939,1,2,1:2:0:0:
50,231,157109,2,0,P|42:262|49:287,1,50,0|0,1:0|1:0,0:0:0:0:
73,326,157448,1,10,0:0:0:0:
168,380,157787,2,0,B|206:374|206:374|220:365|220:365|264:358,1,99.9999999999999,2|8,1:2|0:0,0:0:0:0:
304,321,158295,2,0,B|342:326|342:326|356:335|356:335|400:342,1,99.9999999999999,0|0,1:0|1:0,0:0:0:0:
455,350,158804,2,0,L|466:285,1,50,10|2,0:0|0:0,0:0:0:0:
504,264,159143,5,2,1:2:0:0:
461,168,159482,1,10,0:0:0:0:
461,168,159651,2,0,L|362:181,1,99.9999999999999,2|0,1:2|1:0,0:0:0:0:
319,215,160159,1,10,0:0:0:0:
238,139,160499,2,0,P|202:96|208:50,1,99.9999999999999,2|8,1:2|0:0,0:0:0:0:
187,2,161007,2,0,B|143:9|143:9|129:18|129:18|91:24,1,99.9999999999999,0|0,1:0|1:0,0:0:0:0:
50,61,161515,1,10,0:0:0:0:
0,159,161854,6,0,L|12:211,1,50,6|2,1:2|1:2,0:0:0:0:
41,260,162193,1,10,0:0:0:0:
41,260,162363,2,0,P|98:262|132:233,1,99.9999999999999,14|2,0:0|1:2,0:0:0:0:
157,188,162871,1,10,0:0:0:0:
243,120,163210,2,0,L|297:130,1,50,6|2,1:2|1:2,0:0:0:0:
343,161,163549,1,10,0:0:0:0:
343,161,163719,2,0,B|336:205|336:205|327:219|327:219|321:257,1,99.9999999999999,6|2,1:2|1:2,0:0:0:0:
339,309,164227,1,8,0:0:0:0:
249,382,164566,6,0,L|187:370,1,50,12|0,0:0|1:0,0:0:0:0:
145,381,164905,1,8,0:0:0:0:
72,298,165244,1,8,0:0:0:0:
144,215,165583,2,0,L|155:142,1,50,10|2,0:0|1:2,0:0:0:0:
132,113,165922,2,0,L|82:105,2,50,8|8|8,0:0|0:0|0:0,0:0:0:0:
170,73,166431,1,8,0:0:0:0:
170,73,166600,2,0,L|219:80,1,50,10|10,0:0|0:0,0:0:0:0:
264,111,166939,1,10,3:0:0:0:
352,45,167278,6,0,P|376:87|368:135,1,99.9999999999999,6|10,1:2|0:0,0:0:0:0:
334,179,167787,2,0,B|341:223|341:223|350:237|350:237|356:275,1,99.9999999999999,6|2,1:2|1:2,0:0:0:0:
387,320,168295,2,0,P|435:327|477:303,1,99.9999999999999,14|2,0:0|0:0,0:0:0:0:
511,260,168804,1,0,1:0:0:0:
511,260,168973,1,10,0:0:0:0:
458,163,169312,2,0,L|465:103,1,50,2|0,1:2|1:0,0:0:0:0:
495,67,169651,1,8,0:0:0:0:
405,2,169990,6,0,B|356:-4|365:28|304:22,1,99.9999999999999,6|10,1:2|0:0,0:0:0:0:
265,56,170499,2,0,B|216:62|225:30|164:36,1,99.9999999999999,6|2,1:2|1:2,0:0:0:0:
121,62,171007,1,14,0:0:0:0:
48,212,171515,1,2,1:2:0:0:
48,212,171685,2,0,L|-17:201,2,50,10|2|2,0:0|0:0|1:2,0:0:0:0:
87,258,172193,1,2,1:2:0:0:
87,258,172363,1,10,0:0:0:0:
151,347,172702,6,0,B|195:340|195:340|209:331|209:331|247:326,1,99.9999999999999,14|10,0:0|0:0,0:0:0:0:
304,314,173210,1,2,1:2:0:0:
304,314,173380,2,0,L|291:256,1,50,8|2,0:0|1:2,0:0:0:0:
254,225,173719,2,0,L|267:167,1,50,8|2,0:0|1:2,0:0:0:0:
299,133,174058,1,8,0:0:0:0:
321,25,174397,2,0,L|381:41,1,50,10|0,0:0|1:0,0:0:0:0:
411,76,174736,2,0,L|476:60,1,50,10|0,0:0|1:0,0:0:0:0:
512,80,175075,1,10,0:0:0:0:
478,184,175414,6,0,B|429:178|438:210|377:204,1,99.9999999999999,14|8,0:0|0:0,0:0:0:0:
333,224,175922,1,8,0:0:0:0:
333,224,176092,2,0,P|330:256|343:281,1,50,8|8,0:0|0:0,0:0:0:0:
382,301,176431,2,0,P|385:333|372:358,1,50,8|10,0:0|0:0,0:0:0:0:
334,382,176770,1,14,0:0:0:0:
65,229,178126,5,4,1:2:0:0:
160,284,178465,2,0,L|237:273,1,50,10|2,0:0|0:0,0:0:0:0:
255,244,178804,1,2,1:2:0:0:
255,244,178973,1,2,1:2:0:0:
344,317,179312,1,2,0:0:0:0:
344,317,179482,2,0,L|336:366,2,50,2|2|10,1:2|0:0|0:0,0:0:0:0:
382,277,179990,2,0,B|376:239|376:239|367:225|367:225|360:181,1,99.9999999999999,2|0,0:0|1:0,0:0:0:0:
383,130,180499,1,8,0:0:0:0:
328,34,180837,6,0,P|280:30|235:60,1,99.9999999999999,2|10,1:2|0:0,0:0:0:0:
200,98,181346,2,0,P|152:102|107:72,1,99.9999999999999,2|2,0:0|1:2,0:0:0:0:
82,27,181854,1,8,0:0:0:0:
0,100,182193,2,0,L|17:215,1,99.9999999999999,0|10,1:0|0:0,0:0:0:0:
54,301,182871,2,0,L|5:310,2,50,2|2|10,1:2|1:2|0:0,0:0:0:0:
103,336,183380,1,2,0:0:0:0:
103,336,183549,6,0,P|141:360|211:334,1,99.9999999999999,6|10,1:2|0:0,0:0:0:0:
268,271,184227,1,2,1:2:0:0:
268,271,184397,1,2,1:2:0:0:
206,186,184736,1,2,0:0:0:0:
206,186,184905,2,0,L|223:123,2,50,2|2|10,1:2|0:0|0:0,0:0:0:0:
164,222,185414,2,0,B|120:211|120:211|104:214|104:214|67:204,1,99.9999999999999,2|0,0:0|1:0,0:0:0:0:
15,183,185922,1,8,0:0:0:0:
29,70,186261,6,0,P|74:43|123:52,1,99.9999999999999,2|10,1:2|0:0,0:0:0:0:
165,80,186770,1,2,0:0:0:0:
259,24,187109,1,2,1:2:0:0:
330,115,187448,1,2,0:0:0:0:
330,115,187617,2,0,L|315:175,1,50,0|0,1:0|1:0,0:0:0:0:
337,215,187956,1,8,0:0:0:0:
291,315,188295,2,0,L|351:330,1,50,2|2,1:2|1:2,0:0:0:0:
383,360,188634,2,0,L|443:345,1,50,2|10,1:2|0:0,0:0:0:0:
478,318,188973,6,0,B|484:269|452:278|458:217,1,99.9999999999999,6|10,1:2|0:0,0:0:0:0:
511,126,189651,2,0,L|500:69,1,50,2|0,1:2|1:0,0:0:0:0:
465,34,189990,1,10,0:0:0:0:
372,94,190329,2,0,L|315:83,1,50,2|2,1:2|0:0,0:0:0:0:
272,97,190668,1,10,0:0:0:0:
272,97,190837,2,0,P|249:145|268:188,1,99.9999999999999,2|0,0:0|1:0,0:0:0:0:
304,225,191346,1,8,0:0:0:0:
238,313,191685,6,0,B|193:305|193:305|177:310|177:310|139:303,1,99.9999999999999,2|10,1:2|0:0,0:0:0:0:
86,289,192193,2,0,B|101:187,1,99.9999999999999,2|2,0:0|1:2,0:0:0:0:
77,139,192702,1,8,0:0:0:0:
149,56,193041,2,0,L|213:67,1,50,0|0,1:0|1:0,0:0:0:0:
240,98,193380,1,8,0:0:0:0:
299,190,193719,2,0,P|357:191|394:157,1,99.9999999999999,0|10,1:0|0:0,0:0:0:0:
415,120,194227,1,2,1:2:0:0:
415,120,194397,6,0,L|477:129,1,50,14|2,0:0|0:0,0:0:0:0:
509,168,194736,1,8,0:0:0:0:
509,168,194905,2,0,B|503:206|503:206|494:220|494:220|487:264,1,99.9999999999999,4|0,1:2|1:0,0:0:0:0:
512,313,195414,1,12,0:0:0:0:
427,383,195753,2,0,L|377:374,1,50,8|8,3:0|3:0,0:0:0:0:
338,335,196092,2,0,L|347:285,2,50,8|4|4,3:0|3:0|3:0,0:0:0:0:
289,356,196600,1,6,3:0:0:0:
289,356,196770,1,14,0:0:0:0:
203,286,197109,6,0,L|153:295,1,50,6|0,1:2|0:0,0:0:0:0:
103,291,197448,1,8,0:0:0:0:
103,291,197617,2,0,P|81:238|100:193,1,99.9999999999999,4|0,1:2|1:0,0:0:0:0:
134,162,198126,1,12,0:0:0:0:
223,97,198465,6,0,L|205:-14,2,99.9999999999999,0|8|8,1:0|0:0|0:0,0:0:0:0:
293,181,199482,2,0,L|347:190,1,50,6|6,3:0|3:0,0:0:0:0:
392,196,199821,6,0,P|415:157|410:112,1,91.9999969116211,6|2,1:2|0:0,0:0:0:0:
386,74,200329,1,0,1:0:0:0:
386,74,200499,1,8,0:0:0:0:
308,8,200837,2,0,L|256:16,1,45.9999984558105,0|10,1:0|0:0,0:0:0:0:
229,54,201176,1,2,1:2:0:0:
229,54,201346,2,0,B|123:34,1,91.9999969116211,8|0,0:0|1:0,0:0:0:0:
92,58,201854,1,8,0:0:0:0:
32,139,202193,2,0,L|38:185,1,45.9999984558105,10|2,0:0|0:0,0:0:0:0:
48,234,202532,6,0,B|90:241|90:241|101:249|101:249|137:255,1,91.9999969116211,6|2,1:2|0:0,0:0:0:0:
183,231,203041,1,0,1:0:0:0:
183,231,203210,1,8,0:0:0:0:
242,148,203549,1,2,0:0:0:0:
340,196,203888,2,0,L|328:262,1,50,12|0,0:0|1:0,0:0:0:0:
288,279,204227,2,0,L|300:345,1,50,0|0,1:0|1:0,0:0:0:0:
309,381,204566,2,0,L|375:369,1,50,8|8,0:0|0:0,0:0:0:0:
416,384,204905,1,8,0:0:0:0:
416,384,205075,1,8,0:0:0:0:
0,91,212024,6,0,P|44:68|107:80,1,99.9999999999999,14|2,0:0|1:2,0:0:0:0:
138,103,212532,1,10,0:0:0:0:
234,50,212871,1,10,0:0:0:0:
310,136,213210,1,10,0:0:0:0:
310,136,213380,2,0,L|299:203,1,50,0|8,1:0|0:0,0:0:0:0:
258,218,213719,2,0,L|269:285,1,50,2|8,1:2|0:0,0:0:0:0:
302,308,214058,1,2,1:2:0:0:
382,382,214397,2,0,L|449:371,1,50,2|8,1:2|0:0,0:0:0:0:
484,358,214736,6,0,P|497:309|466:260,1,99.9999999999999,14|8,0:0|0:0,0:0:0:0:
437,235,215244,1,10,0:0:0:0:
437,235,215414,2,0,L|443:184,2,50,10|10|10,0:0|0:0|0:0,0:0:0:0:
388,256,215922,1,10,0:0:0:0:
388,256,216092,1,14,0:0:0:0:
462,127,218126,6,0,L|527:136,2,50,8|4|8,0:0|3:0|0:0,0:0:0:0:
392,212,218804,2,0,B|343:206|352:238|291:232,1,99.9999999999999,6|0,1:2|1:0,0:0:0:0:
245,210,219312,2,0,P|240:185|245:161,1,50,2|0,1:2|1:0,0:0:0:0:
280,119,219651,1,0,1:0:0:0:
280,119,219821,1,10,0:0:0:0:
210,33,220160,2,0,L|111:51,1,99.9999999999999,2|8,1:2|0:0,0:0:0:0:
60,71,220668,2,0,P|54:127|82:163,1,99.9999999999999,0|0,1:0|1:0,0:0:0:0:
122,193,221177,1,10,0:0:0:0:
225,230,221515,6,0,B|218:274|218:274|209:288|209:288|203:326,1,99.9999999999999,2|10,1:2|0:0,0:0:0:0:
194,384,222025,1,2,1:2:0:0:
194,384,222194,2,0,L|133:373,1,50,0|0,1:0|1:0,0:0:0:0:
91,362,222533,1,10,0:0:0:0:
4,294,222871,2,0,B|-2:245|30:254|24:193,1,99.9999999999999,2|8,1:2|0:0,0:0:0:0:
59,155,223380,2,0,B|65:106|33:115|39:54,1,99.9999999999999,0|0,1:0|1:0,0:0:0:0:
76,19,223888,2,0,P|103:17|129:26,1,50,10|2,0:0|0:0,0:0:0:0:
171,52,224227,6,0,L|231:36,2,50,6|2|10,1:2|0:0|0:0,0:0:0:0:
162,106,224735,1,2,1:2:0:0:
235,195,225075,1,2,1:2:0:0:
235,195,225244,2,0,L|226:244,1,50,10|2,0:0|0:0,0:0:0:0:
191,287,225583,2,0,L|142:276,2,50,2|2|10,1:2|0:0|0:0,0:0:0:0:
214,336,226091,1,2,1:2:0:0:
318,384,226430,1,2,1:2:0:0:
318,384,226600,2,0,L|369:375,1,50,10|2,0:0|0:0,0:0:0:0:
419,358,226939,6,0,P|427:309|402:267,1,99.9999999999999,6|10,1:2|0:0,0:0:0:0:
355,238,227447,1,2,1:2:0:0:
268,169,227786,2,0,L|278:104,1,50,2|8,1:2|0:0,0:0:0:0:
262,71,228125,1,2,1:2:0:0:
262,71,228295,2,0,L|212:62,2,50,14|8|8,0:0|0:0|0:0,0:0:0:0:
299,30,228804,2,0,P|340:8|405:21,1,99.9999999999999,6|8,1:2|0:0,0:0:0:0:
440,38,229312,2,0,L|429:96,1,50,8|8,0:0|0:0,0:0:0:0:
457,135,229651,5,6,1:2:0:0:
374,207,229990,1,8,0:0:0:0:
374,207,230160,2,0,L|320:194,1,50,2|0,1:2|1:0,0:0:0:0:
294,156,230499,1,0,1:0:0:0:
294,156,230668,1,10,0:0:0:0:
207,225,231007,2,0,B|215:271|215:271|225:285|225:285|231:329,1,99.9999999999999,2|8,1:2|0:0,0:0:0:0:
205,370,231515,2,0,P|163:383|111:353,1,99.9999999999999,0|0,1:0|1:0,0:0:0:0:
100,305,232024,2,0,L|47:313,1,50,10|2,0:0|0:0,0:0:0:0:
4,282,232363,5,2,1:2:0:0:
59,188,232702,1,10,0:0:0:0:
59,188,232871,2,0,B|53:144|53:144|43:130|43:130|38:92,1,99.9999999999999,2|0,1:2|1:0,0:0:0:0:
62,42,233379,1,10,0:0:0:0:
164,1,233719,2,0,B|213:-5|204:27|265:21,1,99.9999999999999,2|8,1:2|0:0,0:0:0:0:
301,58,234228,2,0,B|350:64|341:32|402:38,1,99.9999999999999,0|0,1:0|1:0,0:0:0:0:
449,53,234736,1,10,0:0:0:0:
502,148,235074,6,0,L|494:201,1,50,6|2,1:2|1:2,0:0:0:0:
485,254,235413,1,10,0:0:0:0:
485,254,235583,2,0,P|428:256|389:232,1,99.9999999999999,14|2,0:0|1:2,0:0:0:0:
358,191,236091,1,10,0:0:0:0:
267,255,236430,2,0,L|277:309,1,50,6|2,1:2|1:2,0:0:0:0:
288,362,236769,1,10,0:0:0:0:
288,362,236939,2,0,B|244:369|244:369|230:378|230:378|192:384,1,99.9999999999999,6|2,1:2|1:2,0:0:0:0:
139,365,237447,1,8,0:0:0:0:
58,289,237787,6,0,L|65:238,1,50,12|2,0:0|1:2,0:0:0:0:
79,186,238126,1,10,0:0:0:0:
11,99,238465,1,10,0:0:0:0:
75,10,238804,2,0,L|126:17,1,50,10|2,0:0|1:2,0:0:0:0:
173,41,239143,2,0,B|180:85|180:85|189:99|189:99|195:137,1,99.9999999999999,8|8,0:0|3:0,0:0:0:0:
209,195,239651,1,8,0:0:0:0:
209,195,239821,2,0,L|271:184,1,50,10|10,0:0|0:0,0:0:0:0:
300,150,240160,2,0,L|362:161,1,50,10|8,0:0|0:0,0:0:0:0:
402,174,240499,5,6,1:2:0:0:
486,252,240837,1,10,0:0:0:0:
486,252,241007,2,0,P|495:309|459:353,1,99.9999999999999,6|2,1:2|1:2,0:0:0:0:
425,368,241515,2,0,B|381:361|381:361|367:352|367:352|329:346,1,99.9999999999999,14|2,0:0|0:0,0:0:0:0:
278,361,242025,1,0,1:0:0:0:
278,361,242194,1,10,0:0:0:0:
229,262,242533,2,0,L|239:200,1,50,2|0,1:2|1:0,0:0:0:0:
275,172,242872,1,8,0:0:0:0:
221,75,243211,6,0,B|172:69|181:101|120:95,1,99.9999999999999,6|10,1:2|0:0,0:0:0:0:
77,122,243719,2,0,P|63:172|90:223,1,99.9999999999999,6|2,1:2|1:2,0:0:0:0:
125,248,244228,1,14,0:0:0:0:
271,335,244736,1,2,1:2:0:0:
271,335,244906,2,0,L|260:400,2,50,10|2|2,0:0|0:0|1:2,0:0:0:0:
310,296,245414,1,2,1:2:0:0:
310,296,245584,1,10,0:0:0:0:
378,210,245923,6,0,B|371:166|371:166|362:152|362:152|357:114,1,99.9999999999999,14|10,0:0|0:0,0:0:0:0:
346,64,246431,1,2,1:2:0:0:
346,64,246601,2,0,L|288:77,1,50,8|2,0:0|1:2,0:0:0:0:
257,114,246940,2,0,L|199:100,1,50,8|2,0:0|1:2,0:0:0:0:
165,69,247279,1,8,0:0:0:0:
84,143,247618,2,0,L|100:203,1,50,10|0,0:0|1:0,0:0:0:0:
136,230,247957,2,0,L|120:295,1,50,10|0,0:0|1:0,0:0:0:0:
139,331,248296,1,10,0:0:0:0:
236,380,248634,6,0,P|289:379|332:328,1,99.9999999999999,14|8,0:0|0:0,0:0:0:0:
337,299,249143,1,8,0:0:0:0:
337,299,249312,2,0,L|401:310,1,50,8|8,0:0|0:0,0:0:0:0:
425,345,249651,2,0,L|489:334,1,50,8|10,0:0|0:0,0:0:0:0:
511,295,249990,1,14,0:0:0:0:
512,118,252024,6,0,L|502:53,2,50,8|4|8,0:0|3:0|0:0,0:0:0:0:
457,214,252702,2,0,B|413:207|413:207|399:198|399:198|361:192,1,99.9999999999999,6|8,1:2|0:0,0:0:0:0:
310,208,253211,1,2,1:2:0:0:
310,208,253380,2,0,L|297:273,1,50,0|0,1:0|1:0,0:0:0:0:
316,309,253719,1,10,0:0:0:0:
229,376,254058,2,0,P|182:378|136:338,1,99.9999999999999,2|8,1:2|0:0,0:0:0:0:
103,307,254566,2,0,B|113:263|113:263|123:250|123:250|131:212,1,99.9999999999999,0|0,1:0|1:0,0:0:0:0:
138,157,255075,2,0,L|79:142,1,50,10|2,0:0|0:0,0:0:0:0:
43,114,255414,5,2,1:2:0:0:
120,36,255753,1,10,0:0:0:0:
120,36,255922,2,0,L|224:58,1,99.9999999999999,2|0,1:2|1:0,0:0:0:0:
270,73,256431,1,10,0:0:0:0:
375,42,256770,2,0,P|385:90|359:132,1,99.9999999999999,2|8,1:2|0:0,0:0:0:0:
314,162,257278,2,0,B|308:211|340:202|334:263,1,99.9999999999999,2|0,1:2|1:0,0:0:0:0:
305,305,257787,1,8,0:0:0:0:
391,372,258126,6,0,P|443:376|484:333,1,99.9999999999999,6|8,1:2|0:0,0:0:0:0:
508,301,258634,2,0,L|501:229,1,50,0|0,1:0|1:0,0:0:0:0:
478,208,258973,1,2,1:2:0:0:
478,208,259143,1,10,0:0:0:0:
393,137,259482,2,0,B|349:144|349:144|335:153|335:153|297:159,1,99.9999999999999,2|10,1:2|0:0,0:0:0:0:
257,198,259990,2,0,B|213:191|213:191|199:182|199:182|161:176,1,99.9999999999999,2|2,1:2|1:2,0:0:0:0:
112,147,260499,1,10,0:0:0:0:
49,56,260837,6,0,L|-13:66,2,50,2|2|10,1:2|0:0|0:0,0:0:0:0:
87,16,261346,2,0,P|140:12|190:55,1,99.9999999999999,2|2,1:2|1:2,0:0:0:0:
211,80,261854,1,10,0:0:0:0:
280,165,262193,2,0,L|270:232,1,50,10|10,0:0|0:0,0:0:0:0:
229,248,262532,2,0,L|239:315,1,50,2|10,1:2|0:0,0:0:0:0:
272,338,262871,1,8,0:0:0:0:
372,382,263210,2,0,L|421:374,1,50,8|4,3:0|3:0,0:0:0:0:
474,359,263549,6,0,B|467:314|467:314|458:300|458:300|452:262,1,99.9999999999999,6|8,1:2|3:0,0:0:0:0:
476,212,264058,1,6,3:0:0:0:
476,212,264227,1,8,3:0:0:0:
392,140,264566,2,0,L|399:90,1,50,6|4,3:0|3:0,0:0:0:0:
376,40,264905,2,0,P|326:35|275:67,1,99.9999999999999,6|8,1:2|0:0,0:0:0:0:
252,105,265414,1,0,1:0:0:0:
252,105,265583,1,0,1:0:0:0:
164,171,265922,2,0,L|114:163,1,50,10|2,0:0|0:0,0:0:0:0:
70,197,266261,6,0,B|76:246|44:237|50:298,1,99.9999999999999,2|8,1:2|0:0,0:0:0:0:
75,341,266770,2,0,P|110:347|132:337,1,50,2|0,1:2|1:0,0:0:0:0:
165,306,267109,1,0,1:0:0:0:
165,306,267278,1,10,0:0:0:0:
243,382,267617,2,0,B|281:376|281:376|295:367|295:367|339:360,1,99.9999999999999,2|8,1:2|0:0,0:0:0:0:
394,363,268126,2,0,P|414:311|392:260,1,99.9999999999999,0|0,1:0|1:0,0:0:0:0:
363,229,268634,1,8,0:0:0:0:
268,172,268973,6,0,L|155:194,1,99.9999999999999,6|8,1:2|0:0,0:0:0:0:
116,177,269482,2,0,P|96:132|108:84,1,99.9999999999999,2|0,0:0|1:0,0:0:0:0:
147,44,269990,1,10,0:0:0:0:
249,4,270329,2,0,L|298:11,1,50,4|0,1:2|0:0,0:0:0:0:
352,38,270668,1,10,0:0:0:0:
352,38,270837,2,0,B|345:82|345:82|336:96|336:96|330:134,1,99.9999999999999,2|2,1:2|1:2,0:0:0:0:
351,186,271346,1,10,0:0:0:0:
399,284,271685,6,0,L|467:274,2,50,6|2|10,1:2|0:0|0:0,0:0:0:0:
369,330,272193,2,0,P|322:342|273:303,1,99.9999999999999,2|0,0:0|1:0,0:0:0:0:
249,269,272702,1,8,0:0:0:0:
220,162,273041,2,0,B|171:156|180:188|119:182,1,99.9999999999999,0|10,1:0|0:0,0:0:0:0:
78,162,273549,1,2,0:0:0:0:
78,162,273719,2,0,L|89:78,2,74.9999999999999,2|2|2,1:2|1:2|1:2,0:0:0:0:
34,195,274397,6,0,P|4:240|12:290,1,99.9999999999999,6|8,1:2|0:0,0:0:0:0:
52,326,274905,1,2,0:0:0:0:
52,326,275075,1,0,1:0:0:0:
152,370,275414,2,0,L|218:356,1,50,8|0,0:0|1:2,0:0:0:0:
253,343,275753,2,0,B|247:299|247:299|238:285|238:285|232:247,1,99.9999999999999,12|8,0:0|0:0,0:0:0:0:
264,203,276261,1,8,0:0:0:0:
264,203,276431,2,0,L|323:215,1,50,8|8,0:0|0:0,0:0:0:0:
351,252,276770,2,0,L|410:240,1,50,8|10,0:0|0:0,0:0:0:0:
434,210,277109,1,6,1:2:0:0:
256,192,284508,12,0,290811,0:0:0:0:
