osu file format v14

[General]
AudioFilename: audio.mp3
AudioLeadIn: 0
PreviewTime: -1
Countdown: 0
SampleSet: Normal
StackLeniency: 0.3
Mode: 0
LetterboxInBreaks: 1
WidescreenStoryboard: 0

[Editor]
Bookmarks: 45127,56036,88763,91491,113309,114672
DistanceSpacing: 1
BeatDivisor: 4
GridSize: 16
TimelineZoom: 1

[Metadata]
Title:Pressure
TitleUnicode:Pressure
Artist:Tsukasa
ArtistUnicode:Tsukasa
Creator:Nitronic Techno
Version:Inate
Source:Cytus II
Tags:Ivy Vanessa Drum Bass DnB
BeatmapID:2147117
BeatmapSetID:1026714

[Difficulty]
HPDrainRate:6.4
CircleSize:3.8
OverallDifficulty:7
ApproachRate:9
SliderMultiplier:2
SliderTickRate:2

[Events]
//Background and Video events
0,0,"hidden_rain_village__firstakatsuki__2_by_iennidesign_d88of8l.png",0,0
//Break Periods
//Storyboard Layer 0 (Background)
//Storyboard Layer 1 (Fail)
//Storyboard Layer 2 (Pass)
//Storyboard Layer 3 (Foreground)
//Storyboard Layer 4 (Overlay)
//Storyboard Sound Samples

[TimingPoints]
1475,340.909090909091,4,1,0,60,1,0
4884,-100,4,2,0,30,0,0
5565,-100,4,1,0,60,0,0
7952,-133.333333333333,4,2,0,60,0,0
8634,-100,4,1,0,60,0,0
12384,-125,4,1,0,60,0,0
34202,-200,4,2,0,40,0,0
45111,-125,4,1,0,40,0,0
50565,-125,4,1,0,50,0,0
56020,-100,4,1,0,55,0,0
65906,-100,4,3,0,70,0,0
66929,-80,4,1,0,70,0,1
67739,-80,4,1,0,5,0,1
67781,-80,4,1,0,70,0,1
68080,-80,4,1,0,5,0,1
68122,-80,4,1,0,70,0,1
68421,-80,4,1,0,5,0,1
68463,-80,4,1,0,70,0,1
78648,-80,4,1,0,5,0,1
78690,-80,4,1,0,70,0,1
78989,-80,4,1,0,5,0,1
79031,-80,4,1,0,70,0,1
79330,-80,4,1,0,5,0,1
79372,-80,4,1,0,70,0,1
88747,-80,4,1,0,60,0,0
91475,-133.333333333333,4,1,0,50,0,0
99656,-100,4,1,0,50,0,0
100509,-133.333333333333,4,1,0,50,0,0
101361,-111.111111111111,4,1,0,60,0,0
101702,-92.5925925925926,4,1,0,50,0,0
102043,-76.9230769230769,4,1,0,80,0,0
102384,-100,4,1,0,50,0,0
113463,-100,4,3,0,70,0,0
114656,-80,4,1,0,70,0,1
115466,-80,4,1,0,5,0,1
115508,-80,4,1,0,70,0,1
115807,-80,4,1,0,5,0,1
115849,-80,4,1,0,70,0,1
116148,-80,4,1,0,5,0,1
116190,-80,4,1,0,70,0,1
126375,-80,4,1,0,5,0,1
126417,-80,4,1,0,70,0,1
126716,-80,4,1,0,5,0,1
126758,-80,4,1,0,70,0,1
127057,-80,4,1,0,5,0,1
127099,-80,4,1,0,70,0,1
136475,-80,4,1,0,60,0,0
139202,-100,4,1,0,45,0,0
150111,-133.333333333333,4,1,0,45,0,0

[HitObjects]
418,59,1475,6,0,P|379:122|391:263,2,200,0|0|8,0:0|0:0|0:0,0:0:0:0:
36,354,3178,2,0,P|116:340|220:275,1,200
121,76,3690,2,0,P|95:129|108:276,1,200
394,341,4543,2,0,P|414:274|389:132,1,200,0|8,0:0|1:1,0:0:0:0:
324,82,5054,5,0,0:0:0:0:
238,133,5225,1,0,0:0:0:0:
173,66,5395,1,0,0:0:0:0:
64,272,5565,5,0,0:0:0:0:
64,272,5736,1,0,0:0:0:0:
64,272,5906,2,0,L|276:232,1,200
384,192,6418,2,0,P|387:134|280:51,1,200
66,226,6929,5,0,0:0:0:0:
198,221,7100,1,0,0:0:0:0:
121,118,7270,2,0,P|211:41|291:54,1,200,8|0,0:0|0:0,0:0:0:0:
416,256,7952,6,0,L|308:247,1,75.0000028610231
192,304,8293,2,0,L|265:256,1,75.0000028610231
137,249,8634,2,0,P|82:205|93:79,1,200
256,48,9145,2,0,P|237:114|189:134,1,100
112,272,9486,2,0,P|142:227|200:214,1,100
304,160,9827,1,0,0:0:0:0:
64,176,9997,2,0,L|31:75,1,100,8|0,0:0|0:0,0:0:0:0:
144,320,10338,5,0,0:0:0:0:
208,288,10509,1,0,0:0:0:0:
272,320,10679,1,0,0:0:0:0:
336,288,10850,1,0,0:0:0:0:
416,208,11020,6,2,P|464:256|478:254,2,66.6666666666667
352,160,11361,2,2,P|304:111|290:114,2,66.6666666666667
289,224,11702,5,4,0:0:0:0:
80,48,12384,6,0,P|102:105|44:175,1,160,4|8,0:0|0:0,0:0:0:0:
167,205,12895,2,0,L|274:68,1,160
383,81,13406,2,0,B|308:113|347:232,1,160,8|0,0:0|0:0,0:0:0:0:
389,247,13861,1,0,0:0:0:0:
442,242,13975,1,0,0:0:0:0:
421,324,14088,1,8,0:0:0:0:
368,314,14202,1,0,0:0:0:0:
317,328,14315,1,0,0:0:0:0:
273,359,14429,5,0,0:0:0:0:
336,256,14600,1,0,0:0:0:0:
208,256,14770,5,8,0:0:0:0:
256,160,14940,1,0,0:0:0:0:
384,64,15111,6,0,P|362:116|368:220,1,160,0|8,0:0|0:0,0:0:0:0:
255,289,15622,2,0,B|236:202|185:143,1,160
167,131,16048,1,0,0:0:0:0:
142,128,16134,1,8,0:0:0:0:
320,64,16475,5,0,0:0:0:0:
336,176,16645,1,0,0:0:0:0:
224,208,16815,1,8,0:0:0:0:
208,96,16986,1,0,0:0:0:0:
256,336,17327,1,0,0:0:0:0:
320,272,17497,1,8,0:0:0:0:
384,336,17668,1,0,0:0:0:0:
448,272,17838,6,0,P|420:209|433:112,1,160,0|8,0:0|0:0,0:0:0:0:
320,64,18350,2,0,P|329:114|275:218,1,160
224,160,18861,1,8,0:0:0:0:
112,320,19202,5,0,0:0:0:0:
161,301,19315,1,0,0:0:0:0:
191,257,19429,1,0,0:0:0:0:
111,223,19543,1,8,0:0:0:0:
64,197,19656,1,0,0:0:0:0:
36,150,19770,1,0,0:0:0:0:
54,99,19884,5,0,0:0:0:0:
176,80,20054,1,0,0:0:0:0:
208,176,20225,5,8,0:0:0:0:
343,213,20395,1,0,0:0:0:0:
416,304,20565,6,0,P|422:256|440:225,1,80
455,207,20821,1,0,0:0:0:0:
476,189,20906,1,8,0:0:0:0:
416,112,21077,2,0,B|364:122|312:181|244:163,1,160
246,168,21503,1,0,0:0:0:0:
218,165,21588,1,8,0:0:0:0:
96,112,21929,6,0,P|118:67|155:48,1,80
176,176,22270,2,0,P|192:232|184:278,1,80,8|0,0:0|0:0,0:0:0:0:
335,176,22611,2,0,P|322:213|321:253,1,80
415,111,22952,2,0,P|401:75|369:51,1,80,8|0,0:0|0:0,0:0:0:0:
330,42,23207,1,0,0:0:0:0:
290,50,23293,6,0,P|238:76|136:53,1,160,0|8,0:0|0:0,0:0:0:0:
80,128,23804,2,0,L|254:172,1,160
128,256,24315,2,0,P|176:286|282:269,1,160,8|0,0:0|0:0,0:0:0:0:
327,260,24770,1,0,0:0:0:0:
354,214,24884,1,0,0:0:0:0:
272,176,24997,1,8,0:0:0:0:
220,161,25111,1,0,0:0:0:0:
197,112,25225,1,0,0:0:0:0:
210,60,25338,5,0,0:0:0:0:
320,32,25509,1,0,0:0:0:0:
320,192,25679,5,8,0:0:0:0:
448,176,25850,1,0,0:0:0:0:
416,336,26020,6,0,P|377:314|256:303,1,160,0|8,0:0|0:0,0:0:0:0:
112,320,26531,2,0,B|134:252|140:160,1,160
141,136,26957,1,0,0:0:0:0:
134,104,27043,1,8,0:0:0:0:
192,352,27384,5,0,0:0:0:0:
256,256,27554,1,0,0:0:0:0:
192,160,27725,1,8,0:0:0:0:
256,64,27895,1,0,0:0:0:0:
448,64,28236,1,0,0:0:0:0:
352,128,28406,1,8,0:0:0:0:
256,64,28577,1,0,0:0:0:0:
160,128,28747,6,0,P|143:183|196:282,1,160,0|8,0:0|0:0,0:0:0:0:
320,288,29259,2,0,B|316:239|293:198|293:128,1,160
301,99,29685,1,0,0:0:0:0:
324,77,29770,1,8,0:0:0:0:
432,112,30111,5,0,0:0:0:0:
458,158,30225,1,0,0:0:0:0:
445,209,30338,1,0,0:0:0:0:
361,243,30452,1,8,0:0:0:0:
343,293,30565,1,0,0:0:0:0:
374,336,30679,1,0,0:0:0:0:
427,339,30793,5,0,0:0:0:0:
272,320,30963,1,0,0:0:0:0:
352,192,31134,5,8,0:0:0:0:
208,176,31304,1,0,0:0:0:0:
320,64,31475,6,0,L|420:52,1,80
427,70,31730,1,0,0:0:0:0:
441,98,31815,1,8,0:0:0:0:
480,176,31986,2,0,P|436:208|330:177,1,160
309,172,32412,1,0,0:0:0:0:
277,174,32497,1,8,0:0:0:0:
240,25,32838,6,0,L|200:94,1,80,8|0,0:0|0:0,0:0:0:0:
155,295,33179,2,0,L|188:222,1,80,8|0,0:0|0:0,0:0:0:0:
53,138,33520,2,0,L|149:158,1,80,8|0,0:0|0:0,0:0:0:0:
334,196,33861,2,0,L|239:175,1,80,8|0,0:0|0:0,0:0:0:0:
64,272,34202,6,0,P|118:305|209:301,1,150
368,144,35225,2,0,P|364:195|293:263,1,150,2|0,0:0|0:0,0:0:0:0:
176,112,36076,1,0,0:0:0:0:
272,96,36247,2,0,L|251:153,1,50
96,144,36588,2,0,L|80:96,1,50,0|2,0:0|0:0,0:0:0:0:
240,32,36929,6,0,P|291:24|383:61,1,150
384,288,37952,1,2,0:0:0:0:
384,288,38122,2,0,P|347:299|281:268,1,100,2|0,0:0|0:0,0:0:0:0:
112,224,38804,1,0,0:0:0:0:
64,176,38975,2,0,L|109:143,1,50,0|2,0:0|0:0,0:0:0:0:
157,277,39315,2,0,L|110:310,1,50
240,352,39656,6,0,B|233:315|243:291|243:291|253:255|251:198,1,150
160,96,40679,2,0,P|113:135|51:72,1,150,2|0,0:0|0:0,0:0:0:0:
256,32,41531,1,0,0:0:0:0:
352,64,41702,2,0,L|320:112,1,50
187,105,42043,2,0,L|160:64,1,50,0|2,0:0|0:0,0:0:0:0:
80,160,42384,6,0,P|133:160|195:232,1,150
315,231,43406,1,2,0:0:0:0:
432,160,43577,2,0,P|379:160|338:207,1,100,2|0,0:0|0:0,0:0:0:0:
256,352,44259,1,0,0:0:0:0:
352,320,44430,2,0,L|320:272,1,50,0|2,0:0|0:0,0:0:0:0:
187,278,44771,2,0,L|160:320,1,50
48,288,45111,6,0,P|37:247|45:196,1,80
112,144,45452,2,0,P|158:153|197:146,1,80
288,96,45793,1,2,0:0:0:0:
288,96,45878,1,2,0:0:0:0:
288,96,45963,2,0,L|369:105,1,80
320,192,46304,2,0,L|240:192,1,80
288,288,46645,6,0,L|369:279,1,80,0|2,0:0|0:0,0:0:0:0:
367,279,46901,1,2,0:0:0:0:
367,279,46986,1,0,0:0:0:0:
432,176,47156,1,8,3:0:0:0:
272,128,47327,1,0,0:0:0:0:
208,272,47497,1,8,3:0:0:0:
384,320,47668,1,0,0:0:0:0:
464,259,47838,6,0,P|475:218|467:167,1,80
400,115,48179,2,0,P|354:124|315:117,1,80
224,67,48520,1,2,0:0:0:0:
224,67,48605,1,2,0:0:0:0:
224,67,48690,2,0,L|143:76,1,80
192,163,49031,2,0,L|272:163,1,80
224,259,49372,6,0,L|143:250,1,80,0|2,0:0|0:0,0:0:0:0:
144,250,49628,1,2,0:0:0:0:
144,250,49713,1,0,0:0:0:0:
80,147,49884,1,8,3:0:0:0:
240,99,50054,1,0,0:0:0:0:
304,243,50224,1,8,3:0:0:0:
128,291,50395,1,0,0:0:0:0:
80,192,50565,6,0,P|126:191|165:209,1,80
256,288,50906,2,0,P|305:299|342:288,1,80
416,224,51247,1,2,0:0:0:0:
416,224,51332,1,2,0:0:0:0:
416,224,51418,2,0,L|458:149,1,80
352,80,51759,2,0,L|334:169,1,80
239,191,52100,6,0,L|221:101,1,80,0|2,0:0|0:0,0:0:0:0:
223,112,52355,1,2,0:0:0:0:
223,112,52440,1,0,0:0:0:0:
64,160,52611,1,8,3:0:0:0:
144,272,52781,1,0,0:0:0:0:
288,272,52952,1,8,3:0:0:0:
368,160,53122,1,0,0:0:0:0:
432,240,53293,6,0,P|386:241|347:223,1,80
256,144,53634,2,0,P|207:133|170:144,1,80
96,208,53975,1,2,0:0:0:0:
96,208,54060,1,2,0:0:0:0:
96,208,54146,2,0,L|54:283,1,80
160,352,54487,2,0,L|178:263,1,80
273,241,54828,6,0,L|291:331,1,80,0|2,0:0|0:0,0:0:0:0:
288,320,55083,1,2,0:0:0:0:
288,320,55168,1,0,0:0:0:0:
448,272,55339,1,8,3:0:0:0:
368,160,55509,1,0,0:0:0:0:
224,160,55680,1,8,3:0:0:0:
144,272,55850,1,0,0:0:0:0:
32,192,56020,6,0,P|33:134|76:101,1,100,4|0,0:0|0:0,0:0:0:0:
208,64,56361,2,0,P|209:119|236:178,1,100,2|0,0:0|0:0,0:0:0:0:
288,336,56702,2,0,P|320:288|327:235,1,100,2|0,0:0|0:0,0:0:0:0:
416,48,57043,2,0,B|367:56|367:56|310:40,1,100,2|0,0:0|0:0,0:0:0:0:
176,48,57384,6,0,P|222:91|231:137,1,100,2|0,0:0|0:0,0:0:0:0:
128,224,57725,2,0,P|136:165|161:128,1,100,2|0,0:0|0:0,0:0:0:0:
299,162,58065,2,0,P|248:198|187:190,1,100,2|0,0:0|0:0,0:0:0:0:
144,304,58406,2,0,L|246:314,1,100,2|2,0:0|0:0,0:0:0:0:
282,301,58662,1,2,0:0:0:0:
324,296,58747,6,0,P|382:303|429:286,1,100,2|0,0:0|0:0,0:0:0:0:
337,177,59088,2,0,P|264:194|225:221,1,100,2|0,0:0|0:0,0:0:0:0:
127,318,59429,2,0,P|156:272|142:208,1,100,2|0,0:0|0:0,0:0:0:0:
64,112,59770,2,0,P|38:172|53:235,1,100,2|0,0:0|0:0,0:0:0:0:
192,304,60111,6,0,P|260:290|303:303,1,100,2|0,0:0|0:0,0:0:0:0:
400,240,60452,2,0,P|368:187|358:132,1,100,2|0,0:0|0:0,0:0:0:0:
176,64,60793,2,0,B|193:115|193:115|173:163,1,100,2|0,0:0|0:0,0:0:0:0:
96,256,61134,1,2,0:0:0:0:
85,217,61219,1,0,0:0:0:0:
90,177,61304,1,0,0:0:0:0:
100,138,61389,1,0,0:0:0:0:
98,97,61475,6,8,B|141:83|185:98|185:98|239:114|294:94,1,200
414,287,62156,2,8,B|371:301|326:285|326:285|273:270|218:290,1,200
89,230,62838,6,8,P|131:200|184:192,1,100
217,25,63179,2,8,P|247:67|255:118,1,100
421,154,63520,2,8,P|379:183|324:188,1,100
294,358,63861,2,8,P|264:316|258:259,1,100
254,189,64202,5,8,0:0:0:0:
264,150,64287,1,8,0:0:0:0:
290,120,64372,1,8,0:0:0:0:
327,105,64457,1,8,0:0:0:0:
366,113,64543,1,8,0:0:0:0:
396,139,64628,1,8,0:0:0:0:
414,174,64713,1,8,0:0:0:0:
412,213,64798,1,8,0:0:0:0:
391,247,64884,5,8,0:0:0:0:
358,270,64969,1,8,0:0:0:0:
319,280,65054,1,8,0:0:0:0:
279,278,65139,1,8,0:0:0:0:
241,264,65225,1,8,0:0:0:0:
211,237,65310,1,8,0:0:0:0:
193,201,65395,1,8,0:0:0:0:
188,145,65480,1,8,0:0:0:0:
190,105,65565,5,0,0:0:0:0:
57,284,65906,5,2,0:0:0:0:
190,105,66077,1,2,0:0:0:0:
187,330,66247,1,2,0:0:0:0:
59,146,66418,1,2,0:0:0:0:
270,219,66588,1,2,0:0:0:0:
96,112,66929,6,0,P|169:103|219:61,1,125,4|0,0:0|0:0,0:0:0:0:
256,160,67270,2,0,P|320:139|392:158,1,125,4|0,0:0|0:0,0:0:0:0:
390,370,67611,6,0,B|377:330|377:330|390:270,1,93.75,8|0,0:0|0:0,0:0:0:0:
391,265,67781,1,2,0:0:0:0:
246,210,67952,6,0,B|281:176|281:176|280:123,1,93.75,8|0,0:0|0:0,0:0:0:0:
276,113,68122,1,2,0:0:0:0:
112,144,68293,6,0,B|84:117|84:117|82:60,1,93.75,8|0,0:0|0:0,0:0:0:0:
82,40,68463,1,2,0:0:0:0:
352,32,68634,6,0,P|382:99|293:257,1,250
176,176,69145,2,0,P|238:132|307:141,1,125
144,256,69486,1,0,0:0:0:0:
80,112,69656,2,8,P|139:65|309:76,1,250,8|10,0:0|0:0,0:0:0:0:
128,240,70338,1,0,0:0:0:0:
32,352,70509,2,0,L|162:352,2,125,2|0|0,0:0|0:0|0:0,0:0:0:0:
208,288,71020,5,2,0:0:0:0:
256,288,71190,1,0,0:0:0:0:
304,288,71361,2,0,P|368:272|436:87,1,250
336,176,71872,1,0,0:0:0:0:
464,288,72043,2,0,P|422:337|352:337,1,125
48,288,72384,6,8,P|90:337|160:337,1,125
176,176,72725,1,8,0:0:0:0:
256,32,73065,1,0,0:0:0:0:
416,96,73236,1,2,0:0:0:0:
256,160,73406,1,2,0:0:0:0:
96,224,73577,1,2,0:0:0:0:
256,288,73747,1,2,0:0:0:0:
416,336,73918,1,2,0:0:0:0:
377,176,74088,6,0,B|309:185|254:171|254:171|185:145|119:165,1,250
256,272,74600,2,0,P|322:287|379:261,1,125
304,128,74940,1,0,0:0:0:0:
160,288,75111,2,8,B|147:227|169:160|169:160|186:86|165:21,1,250,8|10,0:0|0:0,0:0:0:0:
384,144,75793,1,0,0:0:0:0:
432,304,75963,2,0,L|298:254,2,125,2|0|0,0:0|0:0|0:0,0:0:0:0:
224,320,76475,5,8,0:0:0:0:
152,298,76588,1,0,0:0:0:0:
113,233,76702,1,0,0:0:0:0:
149,167,76815,1,8,0:0:0:0:
221,147,76929,1,0,0:0:0:0:
292,169,77043,1,0,0:0:0:0:
342,224,77156,5,8,0:0:0:0:
470,176,77327,1,0,0:0:0:0:
214,80,77497,5,8,0:0:0:0:
326,48,77668,1,0,0:0:0:0:
64,48,77838,6,0,P|83:118|69:176,1,125,4|0,0:0|0:0,0:0:0:0:
192,288,78179,2,0,P|175:227|188:163,1,125,4|0,0:0|0:0,0:0:0:0:
448,80,78520,6,0,B|400:93|400:93|344:87,1,93.75,8|0,0:0|0:0,0:0:0:0:
333,84,78690,1,2,0:0:0:0:
304,224,78861,6,0,B|268:201|268:201|216:199,1,93.75,8|0,0:0|0:0,0:0:0:0:
189,196,79031,1,2,0:0:0:0:
157,305,79202,6,0,B|131:331|131:331|71:335,1,93.75,8|0,0:0|0:0,0:0:0:0:
47,334,79372,1,2,0:0:0:0:
16,192,79543,6,0,P|91:201|288:179,1,250
128,96,80054,1,0,0:0:0:0:
38,286,80225,2,0,P|104:311|165:302,1,125
356,244,80565,2,8,P|266:218|80:259,1,250,8|10,0:0|0:0,0:0:0:0:
352,320,81247,1,0,0:0:0:0:
432,256,81418,2,0,L|432:128,2,125,2|0|0,0:0|0:0|0:0,0:0:0:0:
320,160,81929,5,2,0:0:0:0:
320,112,82100,1,0,0:0:0:0:
320,64,82270,2,0,P|257:83|80:48,1,250
64,176,82781,1,0,0:0:0:0:
144,240,82952,2,0,P|184:290|169:361,1,125
334,347,83293,6,8,P|328:286|368:240,1,125
448,176,83634,1,8,0:0:0:0:
112,96,83975,1,0,0:0:0:0:
16,192,84145,1,2,0:0:0:0:
112,288,84315,1,2,0:0:0:0:
208,192,84486,1,2,0:0:0:0:
304,96,84656,1,2,0:0:0:0:
400,192,84826,1,2,0:0:0:0:
304,288,84997,6,0,P|237:305|80:208,1,250
288,176,85509,1,0,0:0:0:0:
384,352,85679,1,0,0:0:0:0:
464,208,85850,2,8,B|353:227|297:269|297:269|216:321|109:286,1,375,8|10,0:0|0:0,0:0:0:0:
176,80,86702,1,0,0:0:0:0:
256,160,86872,2,0,L|400:160,2,125,2|0|0,0:0|0:0|0:0,0:0:0:0:
144,208,87384,5,8,0:0:0:0:
86,147,87497,1,0,0:0:0:0:
93,63,87611,1,0,0:0:0:0:
165,21,87725,1,8,0:0:0:0:
239,57,87838,1,0,0:0:0:0:
253,139,87952,1,0,0:0:0:0:
272,219,88065,5,8,0:0:0:0:
240,336,88236,1,0,0:0:0:0:
416,144,88406,5,8,0:0:0:0:
384,272,88577,1,0,0:0:0:0:
480,352,88747,5,4,3:1:0:0:
480,352,89088,1,2,0:0:0:0:
144,240,90963,5,0,0:0:0:0:
176,240,91048,1,0,0:0:0:0:
208,240,91134,1,0,0:0:0:0:
80,80,91475,6,0,P|169:92|192:158,1,150.000005722046,0|8,0:0|0:0,0:0:0:0:
256,352,92327,1,0,0:0:0:0:
233,322,92412,1,0,0:0:0:0:
228,284,92497,1,8,0:0:0:0:
304,224,92668,1,0,0:0:0:0:
384,160,92838,6,0,L|464:128,1,75.0000028610231,8|0,0:0|0:0,0:0:0:0:
304,112,93179,2,0,L|224:144,1,75.0000028610231
176,64,93520,5,0,0:0:0:0:
144,176,93690,1,0,0:0:0:0:
288,128,93861,5,8,0:0:0:0:
256,240,94031,1,0,0:0:0:0:
368,288,94202,6,0,P|343:325|342:361,1,75.0000028610231
448,288,94543,2,0,P|467:247|456:212,1,75.0000028610231,8|0,0:0|0:0,0:0:0:0:
304,144,95054,1,0,0:0:0:0:
341,144,95139,1,0,0:0:0:0:
378,143,95225,1,8,0:0:0:0:
64,320,95565,5,0,0:0:0:0:
80,262,95679,1,0,0:0:0:0:
121,218,95793,1,0,0:0:0:0:
192,240,95906,1,8,0:0:0:0:
222,292,96020,1,0,0:0:0:0:
270,328,96134,1,0,0:0:0:0:
317,342,96247,5,0,0:0:0:0:
336,208,96418,1,0,0:0:0:0:
448,352,96588,5,8,0:0:0:0:
464,208,96759,1,0,0:0:0:0:
448,112,96929,6,0,P|396:90|290:112,1,150.000005722046,0|8,0:0|0:0,0:0:0:0:
112,128,97781,1,0,0:0:0:0:
141,162,97867,1,0,0:0:0:0:
182,178,97952,1,8,0:0:0:0:
256,256,98122,1,0,0:0:0:0:
336,288,98293,6,0,L|352:208,1,75.0000028610231
304,96,98634,2,0,L|288:176,1,75.0000028610231,8|0,0:0|0:0,0:0:0:0:
384,128,98975,5,0,0:0:0:0:
448,32,99145,1,0,0:0:0:0:
416,240,99315,5,8,0:0:0:0:
480,144,99485,1,0,0:0:0:0:
112,256,99656,6,0,P|169:236|224:235,1,100
256,248,99912,1,0,0:0:0:0:
303,262,99997,2,0,P|378:253|416:144,1,200,8|0,0:0|0:0,0:0:0:0:
360,108,100509,1,0,0:0:0:0:
388,127,100594,1,0,0:0:0:0:
416,146,100679,1,8,0:0:0:0:
128,96,101020,6,0,L|208:48,1,75.0000028610231,2|0,0:0|0:0,0:0:0:0:
208,128,101361,2,0,L|120:94,1,89.9999972534181,2|0,0:0|0:0,0:0:0:0:
108,170,101702,2,0,L|220:122,1,108.000002636719,2|0,0:0|0:0,0:0:0:0:
229,216,102043,2,0,L|93:164,1,129.999994049073,2|0,0:0|0:0,0:0:0:0:
95,264,102384,5,4,0:0:0:0:
129,252,102469,1,0,0:0:0:0:
162,239,102554,1,0,0:0:0:0:
195,228,102639,1,0,0:0:0:0:
229,216,102725,1,8,0:0:0:0:
256,304,102895,2,0,P|323:309|437:234,1,200
437,206,103321,1,0,0:0:0:0:
439,171,103406,2,0,P|424:109|377:77,1,100,8|0,0:0|0:0,0:0:0:0:
256,48,103747,6,0,L|214:138,1,100,8|0,0:0|0:0,0:0:0:0:
256,224,104003,2,0,L|301:130,1,100,8|0,0:0|0:0,0:0:0:0:
336,224,104259,2,0,L|288:320,1,100,8|0,0:0|0:0,0:0:0:0:
246,334,104514,1,0,0:0:0:0:
198,318,104600,1,0,0:0:0:0:
128,224,104770,1,8,0:0:0:0:
256,208,104940,1,0,0:0:0:0:
416,64,105111,5,0,0:0:0:0:
367,52,105196,1,0,0:0:0:0:
317,58,105281,1,0,0:0:0:0:
283,95,105367,1,0,0:0:0:0:
267,142,105452,1,8,0:0:0:0:
224,352,105793,2,0,P|240:296|174:168,1,200,0|8,0:0|0:0,0:0:0:0:
232,166,106219,1,0,0:0:0:0:
281,158,106304,1,0,0:0:0:0:
330,151,106389,1,0,0:0:0:0:
377,135,106475,1,0,0:0:0:0:
336,336,106645,6,0,P|373:293|388:226,1,100,0|8,0:0|0:0,0:0:0:0:
360,209,106901,1,0,0:0:0:0:
256,96,107071,1,0,0:0:0:0:
128,256,107327,1,0,0:0:0:0:
240,224,107497,1,8,0:0:0:0:
160,144,107668,1,0,0:0:0:0:
377,82,107838,5,8,0:0:0:0:
325,149,107952,1,8,0:0:0:0:
256,96,108065,1,8,0:0:0:0:
301,28,108179,1,8,0:0:0:0:
272,256,108520,1,0,0:0:0:0:
311,257,108605,1,0,0:0:0:0:
350,258,108690,1,0,0:0:0:0:
390,258,108776,1,0,0:0:0:0:
429,258,108861,1,8,0:0:0:0:
448,144,109031,1,0,0:0:0:0:
336,160,109202,6,0,P|285:138|203:155,1,100,0|0,3:0|3:0,3:0:0:0:
160,240,109457,2,0,P|222:227|272:186,1,100,8|0,3:0|3:0,3:0:0:0:
139,173,109713,2,0,P|96:196|64:240,1,100,8|0,3:0|3:0,3:0:0:0:
208,336,110054,1,0,0:0:0:0:
304,256,110225,1,8,0:0:0:0:
192,224,110395,1,0,0:0:0:0:
64,64,110565,5,0,0:0:0:0:
114,68,110651,1,0,0:0:0:0:
161,52,110736,1,0,0:0:0:0:
210,50,110821,1,0,0:0:0:0:
255,70,110906,1,8,0:0:0:0:
277,114,110992,1,0,0:0:0:0:
277,163,111077,1,0,0:0:0:0:
250,205,111162,1,0,0:0:0:0:
204,225,111247,5,0,0:0:0:0:
169,261,111332,1,0,0:0:0:0:
174,311,111418,1,0,0:0:0:0:
208,347,111503,1,0,0:0:0:0:
257,348,111588,1,8,0:0:0:0:
303,330,111673,1,0,0:0:0:0:
352,321,111759,1,0,0:0:0:0:
401,327,111844,1,0,0:0:0:0:
400,160,112100,5,4,0:0:0:0:
256,96,112270,1,8,0:0:0:0:
256,145,112355,1,0,0:0:0:0:
255,194,112440,1,0,0:0:0:0:
256,244,112526,1,0,0:0:0:0:
257,293,112611,1,4,0:0:0:0:
112,288,112781,1,8,0:0:0:0:
130,241,112867,1,0,0:0:0:0:
121,191,112952,1,0,0:0:0:0:
110,142,113037,1,0,0:0:0:0:
124,94,113122,1,0,0:0:0:0:
0,192,113293,5,0,0:0:0:0:
416,64,113634,5,2,0:0:0:0:
367,281,113805,1,2,0:0:0:0:
278,74,113975,1,2,0:0:0:0:
470,190,114146,1,2,0:0:0:0:
247,210,114316,1,2,0:0:0:0:
48,48,114656,6,0,P|124:36|202:67,1,125,4|0,0:0|0:0,0:0:0:0:
48,128,114997,2,0,P|70:170|45:260,1,125,4|0,0:0|0:0,0:0:0:0:
128,352,115338,6,0,B|160:320|160:320|160:256,1,93.75,8|0,0:0|0:0,0:0:0:0:
176,240,115509,1,2,0:0:0:0:
288,64,115679,6,0,B|256:96|256:96|256:144,1,93.75,8|0,0:0|0:0,0:0:0:0:
272,176,115850,1,2,0:0:0:0:
368,352,116020,6,0,B|400:336|400:336|400:256,1,93.75,8|0,0:0|0:0,0:0:0:0:
416,250,116190,1,2,0:0:0:0:
288,64,116361,6,0,P|222:79|151:238,1,250
304,160,116872,1,0,0:0:0:0:
188,311,117043,2,0,P|160:264|148:175,1,125
356,136,117384,2,8,P|304:226|170:317,1,250,8|10,0:0|0:0,0:0:0:0:
32,32,118065,1,0,0:0:0:0:
112,64,118236,2,0,L|112:192,2,125,2|0|0,0:0|0:0|0:0,0:0:0:0:
240,64,118747,5,2,0:0:0:0:
352,144,118918,1,0,0:0:0:0:
224,192,119088,2,0,P|176:256|320:272,1,250
320,208,119600,1,0,0:0:0:0:
480,336,119770,2,0,P|470:264|432:208,1,125
224,95,120111,6,8,P|217:157|187:212,1,125
64,160,120451,1,8,0:0:0:0:
208,128,120793,1,0,0:0:0:0:
377,152,120963,1,2,0:0:0:0:
180,295,121134,1,2,0:0:0:0:
255,64,121304,1,2,0:0:0:0:
331,295,121475,1,2,0:0:0:0:
134,152,121645,1,2,0:0:0:0:
288,224,121815,6,0,P|364:244|491:135,1,250
352,112,122327,1,0,0:0:0:0:
224,208,122497,2,0,P|153:231|59:207,1,125
208,64,122838,2,8,P|260:120|424:74,1,250,8|10,0:0|0:0,0:0:0:0:
480,256,123520,1,0,0:0:0:0:
416,320,123690,2,0,L|272:320,2,125,2|0|0,0:0|0:0|0:0,0:0:0:0:
256,240,124202,5,8,0:0:0:0:
174,224,124315,1,0,0:0:0:0:
113,166,124429,1,0,0:0:0:0:
109,82,124543,1,8,0:0:0:0:
167,23,124656,1,0,0:0:0:0:
250,22,124770,1,0,0:0:0:0:
323,62,124884,5,8,0:0:0:0:
464,112,125054,1,0,0:0:0:0:
256,192,125225,5,8,0:0:0:0:
397,242,125395,1,0,0:0:0:0:
235,346,125565,6,0,P|292:295|289:204,1,125,4|0,0:0|0:0,0:0:0:0:
107,282,125906,2,0,P|174:253|233:266,1,125,4|0,0:0|0:0,0:0:0:0:
480,272,126247,6,0,B|448:304|448:304|384:304,1,93.75,8|0,0:0|0:0,0:0:0:0:
368,288,126418,1,2,0:0:0:0:
112,224,126588,6,0,B|144:192|144:192|208:192,1,93.75,8|0,0:0|0:0,0:0:0:0:
224,176,126759,1,2,0:0:0:0:
480,96,126929,6,0,B|448:128|448:128|384:128,1,93.75,8|0,0:0|0:0,0:0:0:0:
368,112,127100,1,2,0:0:0:0:
144,48,127270,6,0,P|112:136|163:296,1,250
256,112,127781,1,0,0:0:0:0:
352,224,127952,2,0,P|361:291|318:346,1,125
176,208,128293,2,8,P|240:160|421:165,1,250,8|10,0:0|0:0,0:0:0:0:
80,224,128975,1,0,0:0:0:0:
160,320,129145,2,0,L|32:320,2,125,2|0|0,0:0|0:0|0:0,0:0:0:0:
256,240,129656,5,2,0:0:0:0:
384,192,129827,1,0,0:0:0:0:
256,112,129997,2,0,P|186:121|56:8,1,250
256,32,130509,1,0,0:0:0:0:
336,144,130679,2,0,P|391:107|484:118,1,125
448,279,131020,6,8,P|386:275|336:240,1,125
256,352,131360,1,8,0:0:0:0:
75,128,131702,1,0,0:0:0:0:
256,128,131872,1,2,0:0:0:0:
437,128,132043,1,2,0:0:0:0:
437,309,132213,1,2,0:0:0:0:
256,309,132384,1,2,0:0:0:0:
256,128,132554,1,2,0:0:0:0:
75,309,132725,6,0,B|136:267|202:310|202:310|264:350|360:312,1,250
239,141,133236,1,0,0:0:0:0:
387,235,133406,2,0,P|361:293|259:331,1,125
16,208,133747,2,8,P|58:167|254:147,1,250,8|10,0:0|0:0,0:0:0:0:
464,32,134429,1,0,0:0:0:0:
384,80,134600,2,0,L|384:208,2,125,2|0|0,0:0|0:0|0:0,0:0:0:0:
304,48,135111,5,8,0:0:0:0:
222,65,135225,1,0,0:0:0:0:
160,120,135338,1,0,0:0:0:0:
145,202,135452,1,8,0:0:0:0:
178,277,135565,1,0,0:0:0:0:
256,304,135679,1,0,0:0:0:0:
337,287,135793,5,8,0:0:0:0:
384,160,135963,1,0,0:0:0:0:
224,240,136134,5,8,0:0:0:0:
288,96,136304,1,0,0:0:0:0:
128,144,136475,5,4,0:0:0:0:
128,144,136815,1,2,0:0:0:0:
352,240,138690,5,0,0:0:0:0:
320,240,138776,1,0,0:0:0:0:
288,240,138861,1,0,0:0:0:0:
400,144,139202,6,2,P|424:161|443:216,2,66.6666666666667
304,64,139543,2,2,P|320:43|368:25,2,66.6666666666667
208,128,140054,1,0,0:0:0:0:
214,177,140139,1,0,0:0:0:0:
206,226,140225,1,0,0:0:0:0:
128,304,140395,1,0,0:0:0:0:
256,336,140565,6,0,L|357:290,1,100
272,192,140906,2,0,L|208:288,1,100
432,256,141247,5,8,0:0:0:0:
336,144,141418,1,8,0:0:0:0:
480,160,141588,5,8,0:0:0:0:
384,48,141759,1,8,0:0:0:0:
192,48,141929,6,0,P|93:70|64:190,1,200
144,128,142440,2,0,P|191:164|356:144,1,200
373,143,142867,1,0,0:0:0:0:
412,113,142952,1,0,0:0:0:0:
256,336,143293,5,2,0:0:0:0:
160,240,143463,1,2,0:0:0:0:
256,336,143634,1,2,0:0:0:0:
352,240,143804,1,2,0:0:0:0:
160,240,144145,1,0,0:0:0:0:
256,144,144316,1,0,0:0:0:0:
352,240,144486,1,0,0:0:0:0:
464,320,144656,6,2,P|453:341|402:348,2,66.6666666666667
416,224,144997,2,2,P|424:207|469:194,2,66.6666666666667
288,288,145509,1,0,0:0:0:0:
239,297,145594,1,0,0:0:0:0:
193,276,145679,1,0,0:0:0:0:
112,192,145850,1,0,0:0:0:0:
193,108,146020,6,0,L|272:32,1,100
304,192,146361,2,0,L|176:192,1,100
336,32,146702,5,8,0:0:0:0:
384,160,146872,1,8,0:0:0:0:
272,224,147043,5,8,0:0:0:0:
320,352,147213,1,8,0:0:0:0:
224,320,147384,5,0,0:0:0:0:
96,272,147554,1,0,0:0:0:0:
143,258,147639,1,0,0:0:0:0:
191,243,147725,1,0,0:0:0:0:
320,272,147895,2,0,P|394:254|433:109,1,200
411,110,148321,1,0,0:0:0:0:
364,90,148406,1,0,0:0:0:0:
256,48,148747,5,2,0:0:0:0:
352,144,148917,1,2,0:0:0:0:
256,48,149088,1,2,0:0:0:0:
160,144,149258,1,2,0:0:0:0:
352,144,149599,1,0,0:0:0:0:
256,240,149770,1,0,0:0:0:0:
160,144,149940,1,0,0:0:0:0:
48,192,150111,6,2,L|48:256,2,50.0000019073487
128,224,150452,2,2,L|128:288,2,50.0000019073487
208,272,150793,2,0,P|270:292|360:272,1,150.000005722046
416,224,151304,1,0,0:0:0:0:
352,144,151475,2,0,P|313:129|279:126,1,75.0000028610231
208,176,151815,2,0,P|249:195|292:194,1,75.0000028610231
176,96,152156,5,8,0:0:0:0:
144,192,152327,1,8,0:0:0:0:
96,32,152497,5,8,0:0:0:0:
64,128,152668,1,8,0:0:0:0:
96,320,152838,6,0,P|130:285|130:243,1,75.0000028610231
256,176,153179,2,0,P|218:196|211:234,1,75.0000028610231
272,336,153520,2,0,P|336:350|408:311,1,150.000005722046
384,240,154031,1,0,0:0:0:0:
256,272,154202,5,2,0:0:0:0:
192,192,154372,1,2,0:0:0:0:
256,272,154543,1,2,0:0:0:0:
320,192,154713,1,2,0:0:0:0:
320,96,154884,2,0,L|384:48,1,75.0000028610231
192,96,155225,2,0,L|128:48,1,75.0000028610231
80,128,155565,6,2,L|16:128,2,50.0000019073487
128,192,155906,2,2,L|64:192,2,50.0000019073487
160,256,156247,2,0,P|231:266|329:245,1,150.000005722046
416,48,156929,2,0,P|402:91|412:218,1,150.000005722046
432,368,157611,5,8,0:0:0:0:
304,336,157781,1,8,0:0:0:0:
352,256,157952,5,8,0:0:0:0:
224,224,158122,1,8,0:0:0:0:
80,160,158293,6,0,P|98:102|131:70,1,75.0000028610231,2|0,0:0|0:0,0:0:0:0:
208,32,158634,2,0,P|215:84|207:127,1,75.0000028610231,2|0,0:0|0:0,0:0:0:0:
192,304,158975,2,0,B|229:285|229:285|275:310,1,75.0000028610231,2|0,0:0|0:0,0:0:0:0:
336,352,159315,2,0,P|409:348|429:336,1,75.0000028610231,2|0,0:0|0:0,0:0:0:0:
464,272,159656,5,2,0:0:0:0:
468,234,159742,1,0,0:0:0:0:
451,200,159827,1,2,0:0:0:0:
419,180,159912,1,0,0:0:0:0:
384,166,159997,1,2,0:0:0:0:
346,160,160082,1,0,0:0:0:0:
309,170,160168,1,2,0:0:0:0:
282,196,160253,1,0,0:0:0:0:
263,228,160338,5,4,0:0:0:0:
