osu file format v14

[General]
AudioFilename: audio.ogg
AudioLeadIn: 0
PreviewTime: 24717
Countdown: 0
SampleSet: Soft
StackLeniency: 0.7
Mode: 0
LetterboxInBreaks: 0
WidescreenStoryboard: 0

[Editor]
DistanceSpacing: 0.6
BeatDivisor: 4
GridSize: 32
TimelineZoom: 1

[Metadata]
Title:Mirage of the Rain
TitleUnicode:Mirage of the Rain
Artist:Tsukasa
ArtistUnicode:Tsukasa
Creator:228
Version:Lunatic
Source:東方星蓮船 ~ Undefined Fantastic Object.
Tags:aye1337 touhou 12 th12 C76 IBCD-0009 electronic instrumental drum and bass dnb d&b sound online nostalgia undefined fantastic object 青空の影 reimu hakurei sanae kochiya marisa kirisame TPAXMACTEP aozora no kage ZUN touhou project 東方Project Team shanghai alice
BeatmapID:4010428
BeatmapSetID:1939706

[Difficulty]
HPDrainRate:6
CircleSize:4
OverallDifficulty:9
ApproachRate:9.2
SliderMultiplier:1.4
SliderTickRate:1

[Events]
//Background and Video events
0,0,"anime-risunok-yepizod-fa3bc4c.jpg",0,0
//Break Periods
//Storyboard Layer 0 (Background)
//Storyboard Layer 1 (Fail)
//Storyboard Layer 2 (Pass)
//Storyboard Layer 3 (Foreground)
//Storyboard Layer 4 (Overlay)
//Storyboard Sound Samples

[TimingPoints]
32,342.857142857143,4,2,0,100,1,0
11003,-100,4,2,0,70,0,0
20603,-100,4,2,0,60,0,0
21289,-100,4,2,0,50,0,0
21974,-100,4,2,0,40,0,0
23003,-100,4,2,0,45,0,0
23174,-100,4,2,0,55,0,0
23346,-100,4,2,0,60,0,0
23517,-100,4,2,0,65,0,0
23689,-100,4,2,0,70,0,0
23860,-100,4,2,0,75,0,0
24032,-100,4,2,0,80,0,0
24203,-100,4,2,0,85,0,0
24374,-100,4,2,0,90,0,0
24632,-100,4,2,0,5,0,0
24717,-66.6666666666667,4,2,0,85,0,0
47003,-66.6666666666667,4,2,0,95,0,1
47174,-66.6666666666667,4,2,0,85,0,1
50603,-100,4,2,0,85,0,1
52317,-66.6666666666667,4,2,0,85,0,1
68774,-66.6666666666667,4,2,0,65,0,1
69117,-66.6666666666667,4,2,0,70,0,1
69460,-66.6666666666667,4,2,0,75,0,1
69803,-66.6666666666667,4,2,0,80,0,1
69974,-100,4,2,0,70,0,0
86432,-100,4,2,0,60,0,0
89860,-100,4,2,0,65,0,0
90546,-100,4,2,0,70,0,0
91917,-100,4,2,0,5,0,0

[Colours]
Combo1 : 234,91,91
Combo2 : 204,192,207
Combo3 : 96,206,134
Combo4 : 215,186,151
Combo5 : 104,136,232

[HitObjects]
0,314,11003,6,0,P|41:326|56:358,1,70,0|0,3:0|0:0,0:0:0:0:
60,239,11346,2,0,P|116:229|222:212,1,140,2|0,0:3|0:0,0:0:0:0:
198,215,11860,1,0,3:0:0:0:
61,158,12032,2,0,P|80:195|80:233,1,70,2|0,0:3|0:0,0:0:0:0:
244,305,12374,6,0,P|256:264|288:249,1,70,0|0,3:0|0:0,0:0:0:0:
463,329,12717,2,0,P|389:317|292:311,1,140,2|0,0:3|0:0,0:0:0:0:
324,311,13232,1,0,3:0:0:0:
472,251,13403,2,0,P|453:288|453:326,1,70,2|0,0:3|0:0,0:0:0:0:
227,384,13746,6,0,L|210:220,1,140,0|2,3:0|0:3,0:0:0:0:
212,244,14346,1,0,0:0:0:0:
212,244,14432,1,0,0:0:0:0:
246,175,14603,1,0,3:0:0:0:
320,157,14774,1,2,0:3:0:0:
397,142,14946,1,0,0:0:0:0:
438,53,15117,6,0,P|461:94|501:104,1,70,0|0,3:0|0:0,0:0:0:0:
463,191,15460,2,0,P|406:174|311:163,1,140,2|0,0:3|0:0,0:0:0:0:
326,163,15974,1,0,3:0:0:0:
458,268,16146,1,0,0:0:0:0:
438,361,16317,1,0,0:0:0:0:
291,291,16489,6,0,P|238:310|216:400,1,140,0|2,3:0|0:3,0:0:0:0:
211,384,17174,2,0,L|134:368,1,70,0|0,0:0|3:0,0:0:0:0:
89,314,17517,2,0,L|12:298,1,70,2|0,0:3|0:0,0:0:0:0:
0,101,17860,6,0,P|64:127|71:209,1,140,0|2,3:0|0:3,0:0:0:0:
78,191,18460,1,0,0:0:0:0:
78,191,18546,1,0,0:0:0:0:
163,184,18717,1,0,3:0:0:0:
244,165,18889,2,0,L|257:91,1,70,2|0,0:3|0:0,0:0:0:0:
328,0,19232,6,0,B|218:28|218:28|162:9,1,140,0|2,3:0|0:3,0:0:0:0:
192,19,19746,1,0,0:0:0:0:
336,82,19917,2,0,P|357:124|352:174,1,70,0|0,0:0|3:0,0:0:0:0:
191,226,20260,2,0,P|170:184|175:134,1,70,2|0,0:3|0:0,0:0:0:0:
265,156,20603,5,0,3:0:0:0:
265,156,20774,1,0,0:0:0:0:
296,232,20946,1,2,0:3:0:0:
347,292,21117,1,0,0:0:0:0:
418,303,21289,1,0,0:0:0:0:
453,293,21460,1,0,3:0:0:0:
471,283,21632,1,0,0:3:0:0:
494,214,21803,1,0,3:0:0:0:
443,114,21974,5,2,0:0:0:0:
256,192,23003,12,0,24632,0:0:0:0:
34,230,24717,6,2,B|102:338|111:264|182:401,1,210.000008010865,4|8,1:2|3:2,3:2:0:0:
351,284,25232,1,2,0:0:0:0:
278,219,25403,2,0,P|236:252|221:321,1,105.000004005432,0|0,0:0|1:0,0:0:0:0:
432,384,25746,1,10,3:2:0:0:
432,384,25917,6,0,P|496:341|498:191,1,210.000008010865,2|0,0:0|1:0,0:0:0:0:
358,222,26432,1,8,3:2:0:0:
286,138,26603,1,0,0:0:0:0:
286,138,26689,1,0,0:0:0:0:
286,138,26774,1,0,0:0:0:0:
185,186,26946,1,2,1:2:0:0:
127,33,27117,2,0,P|169:2|221:0,1,105.000004005432,10|0,3:2|0:0,0:0:0:0:
84,196,27460,6,0,P|38:258|2:406,1,210.000008010865,2|8,1:2|3:2,0:0:0:0:
317,238,27974,2,0,P|270:283|104:279,1,210.000008010865,2|0,0:0|1:0,0:0:0:0:
135,113,28489,2,0,P|157:171|160:228,1,105.000004005432,10|0,3:2|0:0,0:0:0:0:
378,380,28832,6,0,P|437:349|510:352,1,105.000004005432,2|0,1:2|1:0,0:0:0:0:
395,230,29174,1,10,3:2:0:0:
305,320,29346,1,2,0:0:0:0:
301,340,29432,1,0,3:0:0:0:
297,360,29517,1,2,0:1:0:0:
260,204,29689,1,0,1:0:0:0:
246,188,29774,1,2,0:1:0:0:
395,228,29947,1,0,3:0:0:0:
409,212,30032,1,2,3:1:0:0:
350,0,30203,6,2,P|313:38|141:71,1,210.000008010865,6|8,1:1|3:2,0:0:0:0:
8,334,30803,1,0,3:0:0:0:
1,354,30889,1,2,3:3:0:0:
101,296,31060,1,0,1:0:0:0:
122,302,31146,1,2,3:3:0:0:
217,266,31317,1,0,3:0:0:0:
196,272,31403,1,2,3:3:0:0:
60,226,31574,6,0,P|57:174|45:123,1,105.000004005432,2|0,1:3|1:1,0:0:0:0:
44,122,31917,1,8,3:2:0:0:
143,93,32089,5,0,0:0:0:0:
281,60,32260,1,2,0:0:0:0:
346,189,32432,1,0,1:0:0:0:
213,213,32603,1,10,3:2:0:0:
143,93,32774,1,2,0:0:0:0:
380,33,32946,6,2,P|450:68|474:198,1,210.000008010865,2|8,1:2|3:2,0:0:0:0:
376,300,33460,2,0,P|318:255|156:259,1,210.000008010865,2|0,0:0|1:0,0:0:0:0:
185,246,33974,2,0,L|161:356,1,105.000004005432,8|0,3:2|0:0,0:0:0:0:
292,384,34317,5,0,1:0:0:0:
281,276,34489,1,0,1:0:0:0:
103,258,34660,1,8,3:2:0:0:
130,152,34832,1,0,0:0:0:0:
281,276,35003,6,0,P|354:260|425:265,1,105.000004005432,2|0,0:0|1:0,0:0:0:0:
489,314,35346,1,10,3:2:0:0:
489,314,35432,1,0,0:0:0:0:
489,314,35517,1,0,0:0:0:0:
184,384,35689,6,2,B|196:315|196:315|248:282|248:282|262:204,1,210.000008010865,4|8,1:2|3:2,0:0:0:0:
189,46,36203,1,2,0:0:0:0:
145,130,36374,2,0,P|104:163|53:163,1,105.000004005432,0|0,0:0|1:1,0:0:0:0:
326,39,36717,1,10,3:2:0:0:
326,39,36889,6,0,P|381:86|514:80,1,210.000008010865,2|0,0:0|1:0,0:0:0:0:
412,11,37403,1,8,3:2:0:0:
379,121,37574,1,0,0:0:0:0:
379,121,37660,1,0,0:0:0:0:
379,121,37746,1,0,0:0:0:0:
455,192,37917,1,2,1:2:0:0:
389,301,38089,2,0,P|319:292|244:305,1,105.000004005432,10|0,3:2|0:0,0:0:0:0:
174,133,38432,6,0,P|111:201|-16:200,1,210.000008010865,2|8,1:2|3:2,0:0:0:0:
147,384,38946,2,0,B|183:259|226:348|279:192,1,210.000008010865,2|0,0:0|1:0,0:0:0:0:
418,384,39460,2,0,P|354:345|297:323,1,105.000004005432,10|0,3:2|0:0,0:0:0:0:
268,219,39803,5,2,3:2:0:0:
175,297,39974,1,0,3:0:0:0:
326,333,40146,1,10,3:2:0:0:
288,138,40317,1,2,0:0:0:0:
292,117,40403,1,0,3:0:0:0:
296,96,40489,1,2,0:1:0:0:
190,198,40660,1,0,1:0:0:0:
169,200,40746,1,2,0:1:0:0:
352,241,40917,1,0,3:0:0:0:
369,252,41003,1,2,0:1:0:0:
123,108,41174,6,2,P|84:161|67:307,1,210.000008010865,6|8,1:1|3:2,0:0:0:0:
230,380,41774,1,0,3:0:0:0:
226,360,41860,1,2,3:3:0:0:
171,267,42032,1,0,1:0:0:0:
167,287,42118,1,2,3:3:0:0:
96,224,42289,1,0,3:0:0:0:
110,209,42375,1,2,3:3:0:0:
171,137,42546,6,0,P|119:133|68:120,1,105.000004005432,2|0,1:3|1:0,0:0:0:0:
69,120,42889,1,8,3:2:0:0:
161,0,43060,5,0,0:0:0:0:
269,67,43232,1,2,0:0:0:0:
286,199,43403,1,0,1:0:0:0:
299,347,43574,1,10,3:2:0:0:
429,384,43746,1,2,0:0:0:0:
512,266,43917,6,2,P|482:199|335:168,1,210.000008010865,2|8,1:2|3:2,0:0:0:0:
359,159,44432,1,0,0:0:0:0:
205,251,44603,2,0,P|104:231|52:144,1,210.000008010865,0|8,0:0|3:2,0:0:0:0:
52,144,45117,1,0,0:0:0:0:
202,14,45289,6,0,P|176:74|175:124,1,105.000004005432,0|0,1:0|0:0,0:0:0:0:
173,112,45546,1,0,0:0:0:0:
173,112,45632,1,8,3:2:0:0:
330,258,45803,1,0,1:0:0:0:
330,258,45974,2,0,P|356:198|357:148,1,105.000004005432,0|0,1:2|0:0,0:0:0:0:
67,223,46317,5,2,3:2:0:0:
113,246,46402,1,2,3:0:0:0:
149,283,46488,1,2,3:2:0:0:
171,331,46574,1,2,3:0:0:0:
174,383,46659,1,2,1:2:0:0:
174,383,47003,5,14,1:2:0:0:
412,383,47174,2,0,P|492:322|471:196,1,210.000008010865,0|0,0:0|1:0,0:0:0:0:
489,220,47689,1,8,3:2:0:0:
308,24,47860,2,2,P|307:76|311:148,1,105.000004005432,2|0,0:0|1:0,0:0:0:0:
308,24,48203,1,0,1:0:0:0:
89,129,48374,2,2,P|142:124|206:126,1,105.000004005432,10|0,3:2|0:0,0:0:0:0:
193,124,48717,1,0,0:0:0:0:
106,264,48889,2,2,P|54:260|2:260,1,105.000004005432,2|8,1:2|3:2,0:0:0:0:
242,368,49232,1,2,0:0:0:0:
277,360,49317,1,0,0:0:0:0:
305,336,49403,5,2,1:2:0:0:
107,265,49660,1,0,3:3:0:0:
102,246,49746,1,10,3:2:0:0:
268,150,49917,1,0,3:3:0:0:
231,266,50089,5,2,0:0:0:0:
227,246,50174,1,0,3:0:0:0:
173,113,50346,1,2,3:2:0:0:
178,130,50432,1,0,3:2:0:0:
295,63,50603,6,0,P|359:62|459:63,1,140,2|0,3:2|1:0,0:0:0:0:
435,63,51117,1,8,3:2:0:0:
425,234,51289,1,2,0:0:0:0:
391,219,51374,1,0,0:0:0:0:
370,188,51460,1,2,0:0:0:0:
512,181,51632,1,0,1:1:0:0:
394,313,51803,1,10,3:2:0:0:
392,349,51888,1,0,0:0:0:0:
412,381,51974,1,2,0:0:0:0:
512,267,52146,5,2,1:2:0:0:
323,285,52317,2,0,P|255:292|187:298,1,105.000004005432,0|8,0:0|3:2,0:0:0:0:
218,295,52660,1,0,0:0:0:0:
45,201,52832,5,2,0:0:0:0:
24,326,53003,1,2,1:3:0:0:
135,384,53174,1,10,3:2:0:0:
166,176,53346,1,2,0:3:0:0:
286,117,53517,1,2,1:2:0:0:
291,384,53689,1,2,1:3:0:0:
419,340,53860,1,10,3:2:0:0:
377,183,54032,1,2,0:3:0:0:
495,217,54203,1,2,0:0:0:0:
489,296,54374,1,2,1:3:0:0:
348,267,54546,1,10,3:2:0:0:
319,0,54717,6,0,P|330:68|456:127,1,210.000008010865,2|0,0:0|0:0,0:0:0:0:
446,128,55146,1,0,0:0:0:0:
446,128,55232,1,8,3:2:0:0:
167,114,55403,1,2,0:2:0:0:
167,114,55746,5,0,1:0:0:0:
132,194,55917,1,8,3:2:0:0:
48,169,56089,1,0,0:0:0:0:
244,191,56260,2,0,P|287:164|306:116,1,105.000004005432,0|0,1:0|1:0,0:0:0:0:
120,285,56603,2,0,P|152:325|154:376,1,105.000004005432,8|2,3:2|0:0,0:0:0:0:
344,267,56946,6,0,L|206:285,1,105.000004005432,2|0,0:0|1:0,0:0:0:0:
215,300,57203,1,2,0:0:0:0:
183,296,57289,1,8,3:2:0:0:
152,290,57374,1,0,0:0:0:0:
120,285,57460,1,2,0:0:0:0:
48,21,57632,6,2,B|106:68|106:68|163:69|163:69|235:131,1,210.000008010865,6|8,1:2|3:2,0:0:0:0:
222,120,58146,1,2,0:0:0:0:
422,73,58317,2,0,P|378:129|339:176,1,105.000004005432,0|0,0:0|1:0,0:0:0:0:
265,258,58660,1,10,3:2:0:0:
265,258,58832,2,0,P|327:298|455:402,1,210.000008010865,2|0,0:0|1:0,0:0:0:0:
434,383,59346,1,8,3:2:0:0:
437,239,59517,1,2,0:0:0:0:
437,239,59603,1,0,0:0:0:0:
437,239,59689,5,2,0:0:0:0:
279,384,59946,5,0,3:3:0:0:
113,240,60203,5,0,3:3:0:0:
78,115,60374,5,2,1:2:0:0:
85,98,60460,1,0,3:0:0:0:
6,17,60632,1,2,3:2:0:0:
1,37,60717,1,8,3:2:0:0:
93,0,60889,1,0,3:0:0:0:
171,41,61060,1,2,0:0:0:0:
5,173,61317,1,2,3:2:0:0:
0,193,61403,1,8,3:2:0:0:
123,206,61574,1,0,3:0:0:0:
234,333,61746,6,0,L|242:386,1,52.5000020027161,0|0,1:0|0:0,0:0:0:0:
113,286,61917,2,0,L|165:276,1,52.5000020027161,0|0,1:0|0:0,0:0:0:0:
277,257,62089,2,0,L|365:234,1,52.5000020027161,8|0,3:2|0:0,0:0:0:0:
477,372,62260,6,2,P|529:293|504:179,1,210.000008010865,2|0,3:2|0:0,0:0:0:0:
489,174,62689,1,0,0:0:0:0:
469,167,62774,1,10,3:2:0:0:
395,308,62946,1,2,0:0:0:0:
291,163,63117,6,0,P|360:189|395:234,1,105.000004005432,4|0,1:1|0:0,0:0:0:0:
395,308,63460,1,10,3:2:0:0:
317,366,63632,2,0,P|243:369|110:306,1,210.000008010865,2|0,0:0|1:0,0:0:0:0:
16,158,64232,1,0,3:0:0:0:
22,138,64317,1,2,3:3:0:0:
106,70,64489,6,0,P|124:140|123:212,1,105.000004005432,2|0,1:3|1:0,0:0:0:0:
65,241,64832,1,8,3:2:0:0:
0,384,65003,5,0,0:0:0:0:
150,358,65174,1,2,0:0:0:0:
197,205,65346,1,0,1:0:0:0:
245,60,65517,1,10,3:2:0:0:
378,14,65689,6,0,P|445:32|511:165,2,210.000008010865,2|0|0,0:0|0:0|0:0,0:0:0:0:
339,104,66546,2,0,P|344:170|343:241,1,105.000004005432,0|0,0:0|1:2,0:0:0:0:
229,360,66889,1,10,3:2:0:0:
175,226,67060,6,0,P|241:281|365:298,1,210.000008010865,2|0,0:0|0:0,0:0:0:0:
489,221,67574,1,2,3:2:0:0:
469,212,67660,1,0,3:0:0:0:
448,205,67746,1,0,3:0:0:0:
360,298,67917,2,0,L|281:309,1,52.5000020027161,2|0,3:2|3:0,3:0:0:0:
314,212,68089,2,0,L|249:197,1,52.5000020027161,0|0,3:0|3:0,3:0:0:0:
193,348,68260,2,0,L|114:359,1,52.5000020027161,0|0,3:0|3:0,3:0:0:0:
0,231,68432,5,4,3:2:0:0:
0,231,68774,5,0,0:0:0:0:
75,315,68946,1,2,0:0:0:0:
147,269,69117,1,0,0:0:0:0:
271,338,69289,1,2,0:0:0:0:
337,212,69460,1,0,0:0:0:0:
449,297,69632,1,2,0:0:0:0:
512,153,69803,1,0,0:0:0:0:
512,361,69974,6,0,P|445:372|352:378,1,140,4|2,3:2|0:3,0:0:0:0:
373,377,70489,1,2,0:0:0:0:
294,295,70660,2,0,P|253:289|208:266,1,70,0|0,3:0|0:0,0:0:0:0:
218,187,71003,1,2,0:3:0:0:
359,148,71174,1,2,0:0:0:0:
359,148,71260,1,0,0:0:0:0:
359,148,71346,6,0,P|341:206|332:235,1,70,0|0,3:0|0:0,0:0:0:0:
247,40,71689,2,0,P|229:98|220:127,1,70,2|0,0:3|0:0,0:0:0:0:
226,106,71946,1,0,0:0:0:0:
226,106,72032,2,0,L|152:127,1,70,0|0,3:0|0:0,0:0:0:0:
336,74,72374,2,0,L|403:55,1,70,2|0,0:3|0:0,0:0:0:0:
158,210,72717,6,0,L|83:189,1,70,0|0,3:0|0:0,0:0:0:0:
11,164,73060,1,2,0:3:0:0:
127,296,73232,1,2,0:0:0:0:
127,296,73403,2,0,L|280:268,1,140,0|2,3:0|0:3,0:0:0:0:
387,258,73917,1,2,0:0:0:0:
387,258,74089,2,0,L|355:356,1,70,0|0,3:0|0:0,0:0:0:0:
481,207,74432,2,0,L|502:140,1,70,2|0,0:3|0:0,0:0:0:0:
376,14,74774,2,0,L|403:99,1,70,2|0,3:2|0:0,0:0:0:0:
397,80,75032,1,0,0:0:0:0:
397,80,75117,2,0,L|329:112,1,70,2|0,3:2|0:0,0:0:0:0:
150,29,75460,5,2,3:2:0:0:
150,29,75803,1,2,0:3:0:0:
212,99,75974,1,2,0:0:0:0:
207,189,76146,2,0,P|163:232|66:226,1,140,0|2,3:0|0:3,0:0:0:0:
21,165,76660,1,2,0:0:0:0:
21,165,76832,6,0,L|-3:241,1,70,0|0,3:0|0:0,0:0:0:0:
113,154,77174,2,0,L|135:88,1,70,2|2,0:3|0:0,0:0:0:0:
171,251,77517,1,0,3:0:0:0:
247,207,77689,1,0,0:0:0:0:
289,284,77860,1,2,0:3:0:0:
362,236,78032,1,2,0:0:0:0:
444,319,78203,6,0,L|535:299,1,70,0|0,3:0|0:0,0:0:0:0:
362,369,78546,2,0,L|293:384,1,70,2|2,0:3|0:0,0:0:0:0:
452,232,78889,2,0,L|477:150,1,70,0|0,3:0|0:0,0:0:0:0:
332,204,79232,2,0,L|312:271,1,70,2|2,0:3|0:0,0:0:0:0:
410,83,79574,5,0,3:0:0:0:
410,83,79746,1,0,0:0:0:0:
262,149,79917,1,2,0:3:0:0:
262,149,80089,1,0,0:0:0:0:
180,50,80260,1,2,3:2:0:0:
277,0,80432,1,0,0:0:0:0:
277,0,80517,1,0,0:0:0:0:
277,0,80603,2,0,L|294:88,1,70,2|0,3:2|0:0,0:0:0:0:
123,179,80946,6,0,P|41:187|-12:125,2,140,4|2|0,3:2|0:3|0:0,0:0:0:0:
323,164,81974,2,0,L|302:257,1,70,2|2,0:3|0:0,0:0:0:0:
377,297,82317,2,0,P|447:285|496:211,2,140,0|2|0,3:0|0:3|0:0,0:0:0:0:
377,297,83174,1,0,3:0:0:0:
270,315,83346,2,0,L|283:394,1,70,2|0,0:3|0:0,0:0:0:0:
96,310,83689,6,0,P|52:297|15:304,1,70,0|0,3:0|0:0,0:0:0:0:
164,162,84032,2,0,P|164:212|153:257,1,70,2|2,0:3|0:0,0:0:0:0:
274,296,84374,2,0,P|282:222|303:132,1,140,0|2,3:0|0:3,0:0:0:0:
295,157,84889,1,2,0:0:0:0:
403,209,85060,2,0,P|401:256|396:293,1,70,0|0,3:0|0:0,0:0:0:0:
494,288,85403,2,0,P|495:253|498:218,1,70,2|2,0:3|0:0,0:0:0:0:
457,150,85746,1,0,3:0:0:0:
469,0,86003,1,0,0:0:0:0:
469,0,86089,2,0,L|462:74,1,70,2|2,3:0|0:0,0:0:0:0:
350,113,86432,5,2,3:2:0:0:
141,52,86946,1,2,0:0:0:0:
76,115,87117,2,0,L|87:198,1,70,0|0,3:0|0:0,0:0:0:0:
85,184,87374,1,0,0:0:0:0:
85,184,87460,1,2,0:3:0:0:
189,181,87632,1,2,0:0:0:0:
265,227,87803,2,0,P|273:279|256:379,1,140,0|2,3:0|0:3,0:0:0:0:
261,364,88317,1,2,0:0:0:0:
166,334,88489,1,0,3:0:0:0:
19,353,88746,1,0,0:0:0:0:
19,353,88832,1,2,0:3:0:0:
68,287,89003,1,2,0:0:0:0:
141,252,89174,5,0,3:0:0:0:
256,192,89260,12,0,91917,0:0:0:0:
