osu file format v14

[General]
AudioFilename: audio.ogg
AudioLeadIn: 0
PreviewTime: 24717
Countdown: 0
SampleSet: Soft
StackLeniency: 0.7
Mode: 0
LetterboxInBreaks: 0
WidescreenStoryboard: 1

[Editor]
Bookmarks: 24717,69974
DistanceSpacing: 1
BeatDivisor: 4
GridSize: 32
TimelineZoom: 1

[Metadata]
Title:Mirage of the Rain
TitleUnicode:Mirage of the Rain
Artist:Tsukasa
ArtistUnicode:Tsukasa
Creator:228
Version:Collab Normal
Source:東方星蓮船 ~ Undefined Fantastic Object.
Tags:aye1337 touhou 12 th12 C76 IBCD-0009 electronic instrumental drum and bass dnb d&b sound online nostalgia undefined fantastic object 青空の影 reimu hakurei sanae kochiya marisa kirisame TPAXMACTEP aozora no kage ZUN touhou project 東方Project Team shanghai alice
BeatmapID:4010429
BeatmapSetID:1939706

[Difficulty]
HPDrainRate:3
CircleSize:3.5
OverallDifficulty:4
ApproachRate:6
SliderMultiplier:1
SliderTickRate:1

[Events]
//Background and Video events
0,0,"anime-risunok-yepizod-fa3bc4c.jpg",0,0
//Break Periods
//Storyboard Layer 0 (Background)
//Storyboard Layer 1 (Fail)
//Storyboard Layer 2 (Pass)
//Storyboard Layer 3 (Foreground)
//Storyboard Layer 4 (Overlay)
//Storyboard Sound Samples

[TimingPoints]
32,342.857142857143,4,2,0,100,1,0
11003,-111.111111111111,4,2,0,70,0,0
20603,-111.111111111111,4,2,0,60,0,0
21289,-111.111111111111,4,2,0,50,0,0
21974,-111.111111111111,4,2,0,40,0,0
24717,-90.9090909090909,4,2,0,85,0,0
47003,-90.9090909090909,4,2,0,95,0,1
47174,-90.9090909090909,4,2,0,85,0,1
69974,-111.111111111111,4,2,0,70,0,0
86432,-111.111111111111,4,2,0,60,0,0
89860,-111.111111111111,4,2,0,65,0,0
90546,-111.111111111111,4,2,0,70,0,0
91917,-111.111111111111,4,2,0,5,0,0

[Colours]
Combo1 : 234,91,91
Combo2 : 204,192,207
Combo3 : 96,206,134
Combo4 : 215,186,151
Combo5 : 104,136,232

[HitObjects]
65,234,11003,5,0,3:0:0:0:
161,205,11346,2,0,P|188:247|196:299,1,89.9999972534181,2|0,0:3|0:0,0:0:0:0:
181,330,11860,1,0,3:0:0:0:
181,330,12032,1,2,0:3:0:0:
260,370,12374,2,0,L|361:363,1,89.9999972534181,0|2,3:0|0:3,0:0:0:0:
440,360,13060,1,0,0:0:0:0:
432,270,13403,1,2,0:3:0:0:
355,223,13746,6,0,P|362:185|402:153,1,89.9999972534181,0|2,3:0|0:3,0:0:0:0:
445,154,14260,1,0,0:0:0:0:
469,115,14432,1,0,0:0:0:0:
440,29,14774,2,0,L|379:18,1,44.999998626709,2|0,0:3|0:0,0:0:0:0:
361,50,15117,2,0,P|313:67|260:63,1,89.9999972534181,0|2,3:0|0:3,0:0:0:0:
201,12,15803,1,0,0:0:0:0:
140,78,16146,1,0,0:0:0:0:
50,89,16489,5,0,3:0:0:0:
8,169,16832,2,0,P|32:209|88:230,1,89.9999972534181,2|0,0:3|0:0,0:0:0:0:
111,212,17346,1,0,3:0:0:0:
111,212,17517,1,2,0:3:0:0:
193,175,17860,2,0,L|202:272,1,89.9999972534181,0|2,3:0|0:3,0:0:0:0:
238,346,18546,1,0,0:0:0:0:
327,357,18889,1,2,0:3:0:0:
402,307,19232,6,0,P|415:259|404:212,1,89.9999972534181,0|2,3:0|0:3,0:0:0:0:
366,201,19746,1,0,0:0:0:0:
322,222,19917,1,0,0:0:0:0:
239,185,20260,1,2,3:0:0:0:
216,105,20603,2,0,P|228:72|289:41,1,89.9999972534181,0|2,3:0|0:3,0:0:0:0:
347,92,21289,1,0,0:0:0:0:
420,40,21632,1,0,0:3:0:0:
485,101,21974,1,2,0:0:0:0:
67,84,24717,6,2,B|42:140|42:140|63:209,1,110.000003356934,4|8,1:2|3:2,3:2:0:0:
104,214,25232,1,2,0:0:0:0:
147,247,25403,2,0,L|161:368,1,110.000003356934,0|10,0:0|3:2,0:0:0:0:
206,384,25917,1,2,0:0:0:0:
310,348,26260,1,0,1:0:0:0:
348,308,26432,2,0,L|352:241,2,55.0000016784668,8|0|0,3:2|0:0|0:0,0:0:0:0:
399,328,26946,1,2,1:2:0:0:
446,300,27117,2,0,L|507:294,1,55.0000016784668,10|0,3:2|0:0,0:0:0:0:
503,239,27460,5,2,1:2:0:0:
486,130,27803,1,8,3:2:0:0:
432,118,27974,2,0,P|376:100|336:-9,1,165.000005035401,2|10,0:0|3:2,0:0:0:0:
241,70,28832,2,0,L|224:187,1,110.000003356934,2|10,1:2|3:2,0:0:0:0:
259,222,29346,1,2,0:0:0:0:
255,276,29517,2,0,B|263:335|263:335|232:372,2,82.5000025177003,2|2|2,0:1|0:1|3:1,0:0:0:0:
199,273,30203,5,6,1:1:0:0:
100,321,30546,1,8,3:2:0:0:
49,228,30889,1,2,3:3:0:0:
56,173,31060,1,0,1:0:0:0:
65,122,31232,1,8,3:2:0:0:
90,22,31574,2,0,P|139:39|169:98,1,110.000003356934,2|8,1:3|3:2,0:0:0:0:
167,142,32089,1,0,0:0:0:0:
202,183,32260,2,0,L|267:174,1,55.0000016784668,2|0,0:0|1:0,0:0:0:0:
310,165,32603,2,0,L|300:98,1,55.0000016784668,10|2,3:2|0:0,0:0:0:0:
297,55,32946,5,2,1:2:0:0:
404,29,33289,1,8,3:2:0:0:
441,71,33460,2,0,L|459:187,1,110.000003356934,2|0,0:0|1:0,0:0:0:0:
439,231,33974,1,8,3:2:0:0:
361,308,34317,2,0,L|298:296,1,55.0000016784668,0|0,1:0|1:0,0:0:0:0:
255,318,34660,2,0,L|192:306,1,55.0000016784668,8|0,3:2|0:0,0:0:0:0:
171,261,35003,1,2,0:0:0:0:
224,164,35346,1,10,3:2:0:0:
199,56,35689,6,2,P|139:35|41:53,1,165.000005035401,4|2,1:2|0:0,0:0:0:0:
17,102,36374,1,0,0:0:0:0:
44,208,36717,1,10,3:2:0:0:
52,262,36889,2,0,L|23:386,1,110.000003356934,2|0,0:0|1:0,0:0:0:0:
81,363,37403,2,0,L|209:343,1,110.000003356934,8|0,3:2|0:0,0:0:0:0:
244,340,37917,1,2,1:2:0:0:
286,374,38089,2,0,L|356:367,1,55.0000016784668,10|0,3:2|0:0,0:0:0:0:
395,362,38432,5,2,1:2:0:0:
340,266,38774,1,8,3:2:0:0:
321,213,38946,1,2,0:0:0:0:
213,191,39289,1,0,1:0:0:0:
173,152,39460,2,0,L|177:86,1,55.0000016784668,10|0,3:2|0:0,0:0:0:0:
205,49,39803,2,0,B|268:65|322:46,1,110.000003356934,2|10,3:2|3:2,0:0:0:0:
352,9,40317,1,2,0:0:0:0:
404,26,40489,2,0,B|417:90|417:90|404:120,2,82.5000025177003,2|2|2,0:1|0:1|0:1,0:0:0:0:
456,10,41174,5,6,1:1:0:0:
500,110,41517,1,8,3:2:0:0:
428,193,41860,1,2,3:3:0:0:
439,247,42032,1,0,1:0:0:0:
448,300,42203,1,8,3:2:0:0:
386,369,42546,2,0,P|322:373|288:332,1,110.000003356934,2|8,1:3|3:2,0:0:0:0:
264,295,43060,1,0,0:0:0:0:
222,258,43232,2,0,L|159:266,1,55.0000016784668,2|0,0:0|1:0,0:0:0:0:
112,268,43574,1,10,3:2:0:0:
59,284,43746,1,2,0:0:0:0:
72,337,43917,5,2,1:2:0:0:
173,380,44260,2,0,L|232:371,1,55.0000016784668,8|0,3:2|0:0,0:0:0:0:
270,337,44603,2,0,L|397:357,1,110.000003356934,0|8,0:0|3:2,0:0:0:0:
417,314,45117,1,0,0:0:0:0:
426,259,45289,1,0,1:0:0:0:
351,178,45632,1,8,3:2:0:0:
420,92,45974,1,0,1:2:0:0:
338,19,46317,6,0,L|258:10,2,55.0000016784668,2|2|2,3:2|3:2|1:2,0:0:0:0:
448,13,47003,1,14,1:2:0:0:
477,59,47174,2,0,P|492:128|465:222,1,165.000005035401,0|8,0:0|3:2,0:0:0:0:
418,243,47860,1,2,0:0:0:0:
324,185,48203,1,0,1:0:0:0:
271,170,48374,1,10,3:2:0:0:
198,252,48717,1,0,0:0:0:0:
145,267,48888,1,2,1:2:0:0:
54,204,49232,1,2,0:0:0:0:
92,165,49403,6,0,B|97:101|97:101|73:70,2,82.5000025177003,2|0|0,1:2|3:3|3:3,0:0:0:0:
142,187,50089,2,0,L|263:175,1,110.000003356934,2|0,0:0|0:0,0:0:0:0:
302,197,50603,1,0,3:3:0:0:
403,239,50946,1,0,1:0:0:0:
353,337,51289,1,2,0:0:0:0:
302,315,51460,1,2,0:0:0:0:
192,329,51803,1,10,3:2:0:0:
87,344,52146,5,2,1:2:0:0:
32,337,52317,1,0,0:0:0:0:
5,232,52660,1,0,0:0:0:0:
42,191,52832,2,0,L|35:77,1,110.000003356934,2|10,0:0|3:2,0:0:0:0:
124,17,53517,1,2,1:2:0:0:
231,39,53860,1,10,3:2:0:0:
321,101,54203,1,2,0:0:0:0:
409,35,54546,1,10,3:2:0:0:
457,59,54717,6,0,P|484:95|487:180,1,110.000003356934,0|0,3:0|0:0,0:0:0:0:
472,209,55232,1,8,3:2:0:0:
421,231,55403,1,0,3:1:0:0:
349,314,55746,1,0,1:0:0:0:
301,342,55917,2,0,L|226:339,1,55.0000016784668,8|0,3:2|0:0,0:0:0:0:
200,309,56260,1,0,1:0:0:0:
245,208,56603,2,0,L|255:152,1,55.0000016784668,8|2,3:2|0:0,0:0:0:0:
297,118,56946,2,0,B|359:112|359:112|383:85,2,82.5000025177003,2|2|2,0:0|0:0|0:0,0:0:0:0:
268,70,57632,5,6,1:2:0:0:
164,26,57974,1,8,3:2:0:0:
112,46,58146,2,0,P|97:110|124:205,1,165.000005035401,2|10,0:0|3:2,0:0:0:0:
160,244,58832,2,0,L|278:266,1,110.000003356934,2|0,0:0|1:0,0:0:0:0:
356,198,59517,1,2,0:0:0:0:
397,234,59689,2,0,L|420:352,1,110.000003356934,2|0,0:0|0:0,0:0:0:0:
373,375,60203,1,0,3:3:0:0:
318,368,60374,6,0,B|253:362|253:362|234:338,2,82.5000025177003,2|2|0,1:2|0:0|3:0,0:0:0:0:
358,330,61060,2,0,B|368:263|368:263|396:236,2,82.5000025177003,2|2|0,0:0|0:0|3:0,0:0:0:0:
399,366,61746,1,0,1:0:0:0:
500,324,62089,1,8,3:2:0:0:
464,282,62260,2,2,L|444:107,1,165.000005035401,2|10,3:2|3:2,0:0:0:0:
463,66,62946,1,2,0:0:0:0:
417,34,63117,6,0,L|344:41,1,55.0000016784668,4|0,1:1|0:0,0:0:0:0:
327,82,63460,1,10,3:2:0:0:
272,74,63632,1,2,0:0:0:0:
192,149,63974,1,0,1:0:0:0:
102,85,64317,1,2,3:3:0:0:
53,110,64489,2,0,L|31:232,1,110.000003356934,2|8,1:3|3:2,0:0:0:0:
54,269,65003,1,0,0:0:0:0:
92,308,65174,2,0,L|157:299,1,55.0000016784668,2|0,0:0|1:0,0:0:0:0:
186,262,65517,1,10,3:2:0:0:
241,263,65689,6,0,P|276:283|300:356,1,110.000003356934,2|0,0:0|0:0,0:0:0:0:
348,373,66203,1,8,1:2:0:0:
446,323,66546,1,0,3:0:0:0:
395,225,66889,1,10,3:2:0:0:
346,198,67060,2,0,L|236:179,1,110.000003356934,2|0,0:0|0:0,0:0:0:0:
197,141,67574,1,2,3:2:0:0:
212,32,67917,1,2,3:2:0:0:
320,49,68260,1,0,3:0:0:0:
374,59,68432,1,4,3:2:0:0:
86,380,69974,6,0,L|67:273,1,89.9999972534181,4|2,3:2|0:3,0:0:0:0:
89,250,70489,1,2,0:0:0:0:
73,208,70660,1,0,3:0:0:0:
34,126,71003,1,2,0:3:0:0:
83,51,71346,1,0,3:0:0:0:
169,76,71689,1,2,0:3:0:0:
220,149,72032,1,0,3:0:0:0:
215,237,72374,1,2,0:3:0:0:
215,282,72546,1,0,0:0:0:0:
225,322,72717,6,0,P|283:334|325:314,1,89.9999972534181,0|2,3:0|0:3,0:0:0:0:
381,268,73403,1,0,3:0:0:0:
468,244,73746,1,2,0:3:0:0:
503,161,74089,2,0,L|496:65,1,89.9999972534181,0|2,3:0|0:3,0:0:0:0:
418,25,74774,1,2,3:2:0:0:
330,29,75117,1,2,0:3:0:0:
286,16,75289,1,0,0:0:0:0:
244,37,75460,6,0,P|248:78|245:146,1,89.9999972534181,2|2,3:2|0:3,0:0:0:0:
225,166,75974,1,2,0:0:0:0:
232,210,76146,1,0,3:0:0:0:
199,294,76489,1,2,0:3:0:0:
111,315,76832,1,0,3:0:0:0:
24,289,77174,1,2,0:3:0:0:
3,201,77517,1,0,3:0:0:0:
29,115,77860,1,2,0:3:0:0:
36,70,78032,1,2,0:0:0:0:
69,40,78203,6,0,P|115:27|162:23,1,89.9999972534181,0|2,3:0|0:3,0:0:0:0:
222,85,78889,1,0,3:0:0:0:
232,174,79232,1,2,0:3:0:0:
261,258,79574,2,0,P|270:325|270:359,1,89.9999972534181,0|2,3:0|0:3,0:0:0:0:
357,371,80260,1,2,3:2:0:0:
443,350,80603,1,2,3:2:0:0:
487,341,80774,1,0,0:0:0:0:
500,297,80946,5,4,3:2:0:0:
433,185,81460,1,0,0:0:0:0:
457,147,81632,2,0,L|473:44,1,89.9999972534181,0|2,0:0|0:3,0:0:0:0:
446,19,82146,1,2,0:0:0:0:
401,17,82317,1,0,3:0:0:0:
322,60,82660,1,2,0:3:0:0:
239,23,83003,2,0,L|183:32,1,44.999998626709
175,71,83346,1,2,0:3:0:0:
229,142,83689,5,0,3:0:0:0:
193,272,84203,1,2,0:0:0:0:
153,293,84374,2,0,L|48:305,1,89.9999972534181,0|2,3:0|0:3,0:0:0:0:
24,280,84889,1,2,0:0:0:0:
11,236,85060,1,0,3:0:0:0:
69,167,85403,1,2,0:3:0:0:
24,89,85746,1,0,3:0:0:0:
80,20,86089,1,2,3:0:0:0:
140,86,86432,5,2,3:2:0:0:
274,100,86946,1,2,0:0:0:0:
299,137,87117,2,0,L|306:247,1,89.9999972534181,0|2,3:0|0:3,0:0:0:0:
336,258,87632,1,2,0:0:0:0:
343,302,87803,1,0,3:0:0:0:
465,358,88317,1,2,0:0:0:0:
499,329,88489,2,0,L|489:221,1,89.9999972534181,0|2,3:0|0:3,0:0:0:0:
454,212,89003,1,2,0:0:0:0:
455,167,89174,5,0,3:0:0:0:
256,192,89346,12,0,91917,0:0:0:0:
