osu file format v14

[General]
AudioFilename: audio.mp3
AudioLeadIn: 0
PreviewTime: 46403
Countdown: 0
SampleSet: Normal
StackLeniency: 0.7
Mode: 3
LetterboxInBreaks: 0
SpecialStyle: 0
WidescreenStoryboard: 0

[Editor]
DistanceSpacing: 1
BeatDivisor: 4
GridSize: 4
TimelineZoom: 2.1

[Metadata]
Title:Binary World
TitleUnicode:Binary World
Artist:Tsukasa
ArtistUnicode:Tsukasa
Creator:Aikawa
Version:HD
Source:DJMAX Respect
Tags:Aki misawa, Tiffaco, Racoona, DumpingLIFE, Melodic Trance
BeatmapID:1401265
BeatmapSetID:661924

[Difficulty]
HPDrainRate:8
CircleSize:4
OverallDifficulty:8
ApproachRate:5
SliderMultiplier:1.4
SliderTickRate:1

[Events]
//Background and Video events
0,0,"bg.jpg",0,0
//Break Periods
//Storyboard Layer 0 (Background)
//Storyboard Layer 1 (Fail)
//Storyboard Layer 2 (Pass)
//Storyboard Layer 3 (Foreground)
//Storyboard Sound Samples

[TimingPoints]
-80.3413728489335,329.67032967033,4,1,0,100,1,0

[HitObjects]
448,192,578,5,0,0:0:0:0:
64,192,578,1,0,0:0:0:0:
64,192,1073,1,0,0:0:0:0:
192,192,1238,1,0,0:0:0:0:
320,192,1403,1,0,0:0:0:0:
448,192,1568,1,0,0:0:0:0:
320,192,1732,1,0,0:0:0:0:
192,192,2062,1,0,0:0:0:0:
320,192,2392,1,0,0:0:0:0:
64,192,2886,1,0,0:0:0:0:
64,192,3216,1,0,0:0:0:0:
320,192,4205,1,0,0:0:0:0:
192,192,5029,1,0,0:0:0:0:
64,192,5194,1,0,0:0:0:0:
192,192,5359,1,0,0:0:0:0:
320,192,5524,1,0,0:0:0:0:
448,192,5853,1,0,0:0:0:0:
192,192,6677,1,0,0:0:0:0:
320,192,6842,1,0,0:0:0:0:
192,192,7007,1,0,0:0:0:0:
448,192,7337,1,0,0:0:0:0:
320,192,7502,1,0,0:0:0:0:
192,192,7666,1,0,0:0:0:0:
64,192,7831,1,0,0:0:0:0:
320,192,7996,1,0,0:0:0:0:
64,192,8161,1,0,0:0:0:0:
448,192,8326,1,0,0:0:0:0:
192,192,8491,1,0,0:0:0:0:
320,192,8532,1,0,0:0:0:0:
448,192,8573,1,0,0:0:0:0:
64,192,9480,1,0,0:0:0:0:
192,192,9809,1,0,0:0:0:0:
320,192,10304,1,0,0:0:0:0:
448,192,10798,1,0,0:0:0:0:
64,192,11128,1,0,0:0:0:0:
192,192,11169,1,0,0:0:0:0:
320,192,11210,1,0,0:0:0:0:
320,192,11952,1,0,0:0:0:0:
64,192,12117,1,0,0:0:0:0:
192,192,12282,1,0,0:0:0:0:
64,192,12447,1,0,0:0:0:0:
320,192,12611,1,0,0:0:0:0:
64,192,12776,1,0,0:0:0:0:
448,192,12941,1,0,0:0:0:0:
64,192,13106,1,0,0:0:0:0:
448,192,13271,1,0,0:0:0:0:
192,192,13436,1,0,0:0:0:0:
448,192,13600,1,0,0:0:0:0:
64,192,13600,1,0,0:0:0:0:
192,192,13765,1,0,0:0:0:0:
320,192,13765,1,0,0:0:0:0:
64,192,14260,1,0,0:0:0:0:
320,192,14754,1,0,0:0:0:0:
192,192,14919,1,0,0:0:0:0:
64,192,15084,1,0,0:0:0:0:
64,192,15578,1,0,0:0:0:0:
64,192,16403,1,0,0:0:0:0:
448,192,16732,1,0,0:0:0:0:
64,192,16897,1,0,0:0:0:0:
448,192,17227,1,0,0:0:0:0:
64,192,17721,1,0,0:0:0:0:
448,192,17721,1,0,0:0:0:0:
192,192,18051,1,0,0:0:0:0:
64,192,18216,1,0,0:0:0:0:
448,192,18216,1,0,0:0:0:0:
320,192,18381,1,0,0:0:0:0:
448,192,18546,1,0,0:0:0:0:
64,192,18546,1,0,0:0:0:0:
320,192,18710,1,0,0:0:0:0:
192,192,18710,1,0,0:0:0:0:
64,192,19040,1,0,0:0:0:0:
64,192,19535,1,0,0:0:0:0:
192,192,20029,1,0,0:0:0:0:
320,192,20194,1,0,0:0:0:0:
64,192,20359,1,0,0:0:0:0:
64,192,20853,1,0,0:0:0:0:
448,192,21677,1,0,0:0:0:0:
192,192,21760,1,0,0:0:0:0:
320,192,21842,1,0,0:0:0:0:
192,192,21925,1,0,0:0:0:0:
320,192,22007,1,0,0:0:0:0:
64,192,22089,1,0,0:0:0:0:
320,192,22172,1,0,0:0:0:0:
192,192,22254,1,0,0:0:0:0:
448,192,22337,1,0,0:0:0:0:
64,192,22419,1,0,0:0:0:0:
448,192,22502,1,0,0:0:0:0:
192,192,22584,1,0,0:0:0:0:
320,192,22666,1,0,0:0:0:0:
192,192,22749,1,0,0:0:0:0:
448,192,22831,1,0,0:0:0:0:
64,192,22914,1,0,0:0:0:0:
320,192,22996,1,0,0:0:0:0:
192,192,23078,1,0,0:0:0:0:
320,192,23161,1,0,0:0:0:0:
64,192,23243,1,0,0:0:0:0:
448,192,23326,1,0,0:0:0:0:
192,192,23408,1,0,0:0:0:0:
448,192,23491,1,0,0:0:0:0:
192,192,23573,1,0,0:0:0:0:
320,192,23655,1,0,0:0:0:0:
64,192,23655,1,0,0:0:0:0:
448,192,23655,1,0,0:0:0:0:
192,192,23820,1,0,0:0:0:0:
64,192,23820,1,0,0:0:0:0:
448,192,23820,1,0,0:0:0:0:
64,192,24150,1,0,0:0:0:0:
448,192,24150,1,0,0:0:0:0:
192,192,24232,1,0,0:0:0:0:
320,192,24232,1,0,0:0:0:0:
448,192,24315,1,0,0:0:0:0:
64,192,24315,1,0,0:0:0:0:
448,192,24480,1,0,0:0:0:0:
192,192,24644,1,0,0:0:0:0:
320,192,24644,1,0,0:0:0:0:
64,192,24809,1,0,0:0:0:0:
320,192,24892,1,0,0:0:0:0:
192,192,24974,1,0,0:0:0:0:
320,192,25057,1,0,0:0:0:0:
64,192,25139,1,0,0:0:0:0:
192,192,25304,1,0,0:0:0:0:
448,192,25304,1,0,0:0:0:0:
320,192,25469,1,0,0:0:0:0:
64,192,25469,1,0,0:0:0:0:
448,192,25551,1,0,0:0:0:0:
192,192,25633,1,0,0:0:0:0:
320,192,25798,1,0,0:0:0:0:
64,192,25963,1,0,0:0:0:0:
448,192,25963,1,0,0:0:0:0:
64,192,26128,1,0,0:0:0:0:
320,192,26210,1,0,0:0:0:0:
192,192,26293,1,0,0:0:0:0:
320,192,26375,1,0,0:0:0:0:
64,192,26458,1,0,0:0:0:0:
192,192,26622,1,0,0:0:0:0:
448,192,26622,1,0,0:0:0:0:
320,192,26787,1,0,0:0:0:0:
192,192,26870,1,0,0:0:0:0:
64,192,26952,1,0,0:0:0:0:
320,192,27117,1,0,0:0:0:0:
192,192,27282,1,0,0:0:0:0:
448,192,27282,1,0,0:0:0:0:
64,192,27447,1,0,0:0:0:0:
320,192,27529,1,0,0:0:0:0:
192,192,27611,1,0,0:0:0:0:
320,192,27694,1,0,0:0:0:0:
64,192,27776,1,0,0:0:0:0:
448,192,27941,1,0,0:0:0:0:
192,192,27941,1,0,0:0:0:0:
320,192,28106,1,0,0:0:0:0:
192,192,28188,1,0,0:0:0:0:
64,192,28271,1,0,0:0:0:0:
448,192,28436,1,0,0:0:0:0:
192,192,28600,1,0,0:0:0:0:
320,192,28600,1,0,0:0:0:0:
64,192,28765,1,0,0:0:0:0:
448,192,28765,1,0,0:0:0:0:
192,192,28930,1,0,0:0:0:0:
320,192,29095,1,0,0:0:0:0:
448,192,29095,1,0,0:0:0:0:
64,192,29260,1,0,0:0:0:0:
320,192,29260,1,0,0:0:0:0:
192,192,29425,1,0,0:0:0:0:
320,192,29507,1,0,0:0:0:0:
448,192,29589,1,0,0:0:0:0:
64,192,29589,1,0,0:0:0:0:
320,192,29754,1,0,0:0:0:0:
192,192,29919,1,0,0:0:0:0:
64,192,29919,1,0,0:0:0:0:
448,192,30084,1,0,0:0:0:0:
64,192,30166,1,0,0:0:0:0:
320,192,30249,1,0,0:0:0:0:
192,192,30331,1,0,0:0:0:0:
320,192,30414,1,0,0:0:0:0:
64,192,30578,1,0,0:0:0:0:
448,192,30578,1,0,0:0:0:0:
320,192,30743,1,0,0:0:0:0:
448,192,30826,1,0,0:0:0:0:
192,192,30908,1,0,0:0:0:0:
320,192,30908,1,0,0:0:0:0:
64,192,31073,1,0,0:0:0:0:
320,192,31238,1,0,0:0:0:0:
448,192,31238,1,0,0:0:0:0:
64,192,31403,1,0,0:0:0:0:
448,192,31485,1,0,0:0:0:0:
192,192,31568,1,0,0:0:0:0:
320,192,31650,1,0,0:0:0:0:
64,192,31732,1,0,0:0:0:0:
448,192,31897,1,0,0:0:0:0:
192,192,31897,1,0,0:0:0:0:
320,192,32062,1,0,0:0:0:0:
448,192,32144,1,0,0:0:0:0:
64,192,32227,1,0,0:0:0:0:
320,192,32392,1,0,0:0:0:0:
192,192,32557,1,0,0:0:0:0:
448,192,32557,1,0,0:0:0:0:
64,192,32721,1,0,0:0:0:0:
320,192,32804,1,0,0:0:0:0:
64,192,32886,1,0,0:0:0:0:
192,192,33051,1,0,0:0:0:0:
448,192,33051,1,0,0:0:0:0:
64,192,33216,1,0,0:0:0:0:
448,192,33216,1,0,0:0:0:0:
192,192,33381,1,0,0:0:0:0:
448,192,33381,1,0,0:0:0:0:
320,192,33546,1,0,0:0:0:0:
64,192,33710,1,0,0:0:0:0:
192,192,33752,1,0,0:0:0:0:
320,192,33793,1,0,0:0:0:0:
448,192,33875,1,0,0:0:0:0:
320,192,34040,1,0,0:0:0:0:
192,192,34122,1,0,0:0:0:0:
448,192,34205,1,0,0:0:0:0:
64,192,34287,1,0,0:0:0:0:
448,192,34370,1,0,0:0:0:0:
64,192,34452,1,0,0:0:0:0:
192,192,34535,1,0,0:0:0:0:
320,192,34535,1,0,0:0:0:0:
320,192,34864,1,0,0:0:0:0:
64,192,34864,1,0,0:0:0:0:
448,192,34864,1,0,0:0:0:0:
192,192,35688,1,0,0:0:0:0:
448,192,35853,1,0,0:0:0:0:
320,192,36018,1,0,0:0:0:0:
192,192,37007,1,0,0:0:0:0:
448,192,37172,1,0,0:0:0:0:
320,192,37337,1,0,0:0:0:0:
64,192,37337,1,0,0:0:0:0:
64,192,37502,1,0,0:0:0:0:
320,192,38326,1,0,0:0:0:0:
448,192,38491,1,0,0:0:0:0:
320,192,38655,1,0,0:0:0:0:
192,192,38820,1,0,0:0:0:0:
320,192,39315,1,0,0:0:0:0:
192,192,39644,1,0,0:0:0:0:
320,192,39809,1,0,0:0:0:0:
64,192,40139,1,0,0:0:0:0:
448,192,40139,1,0,0:0:0:0:
192,192,40963,1,0,0:0:0:0:
448,192,41128,1,0,0:0:0:0:
320,192,41293,1,0,0:0:0:0:
64,192,41458,128,0,42447:0:0:0:0:
192,192,41458,128,0,42447:0:0:0:0:
320,192,42282,1,0,0:0:0:0:
448,192,42447,1,0,0:0:0:0:
320,192,42611,1,0,0:0:0:0:
192,192,42694,1,0,0:0:0:0:
64,192,42776,1,0,0:0:0:0:
320,192,42776,1,0,0:0:0:0:
64,192,43436,1,0,0:0:0:0:
448,192,43436,1,0,0:0:0:0:
192,192,43600,1,0,0:0:0:0:
320,192,43765,1,0,0:0:0:0:
192,192,43930,1,0,0:0:0:0:
64,192,44095,1,0,0:0:0:0:
448,192,44095,1,0,0:0:0:0:
320,192,44260,1,0,0:0:0:0:
448,192,44342,1,0,0:0:0:0:
192,192,44425,1,0,0:0:0:0:
320,192,44507,1,0,0:0:0:0:
64,192,44589,1,0,0:0:0:0:
448,192,44589,1,0,0:0:0:0:
448,192,45249,1,0,0:0:0:0:
192,192,45249,1,0,0:0:0:0:
64,192,45414,1,0,0:0:0:0:
320,192,45496,1,0,0:0:0:0:
192,192,45578,1,0,0:0:0:0:
320,192,45661,1,0,0:0:0:0:
192,192,45743,1,0,0:0:0:0:
448,192,45826,1,0,0:0:0:0:
64,192,45908,1,0,0:0:0:0:
320,192,45991,1,0,0:0:0:0:
192,192,46073,1,0,0:0:0:0:
320,192,46155,1,0,0:0:0:0:
64,192,46238,1,0,0:0:0:0:
448,192,46320,1,0,0:0:0:0:
320,192,46403,1,0,0:0:0:0:
192,192,46403,1,0,0:0:0:0:
64,192,46732,1,0,0:0:0:0:
448,192,46732,1,0,0:0:0:0:
320,192,46897,1,0,0:0:0:0:
448,192,47062,1,0,0:0:0:0:
192,192,47062,1,0,0:0:0:0:
64,192,47227,1,0,0:0:0:0:
320,192,47227,1,0,0:0:0:0:
192,192,47392,1,0,0:0:0:0:
320,192,47557,1,0,0:0:0:0:
64,192,47557,1,0,0:0:0:0:
192,192,47721,1,0,0:0:0:0:
320,192,47721,1,0,0:0:0:0:
448,192,47886,1,0,0:0:0:0:
192,192,48051,1,0,0:0:0:0:
64,192,48051,1,0,0:0:0:0:
448,192,48216,1,0,0:0:0:0:
320,192,48381,1,0,0:0:0:0:
192,192,48381,1,0,0:0:0:0:
320,192,48546,1,0,0:0:0:0:
64,192,48546,1,0,0:0:0:0:
448,192,48710,1,0,0:0:0:0:
64,192,48875,1,0,0:0:0:0:
320,192,48875,1,0,0:0:0:0:
192,192,49040,1,0,0:0:0:0:
448,192,49040,1,0,0:0:0:0:
320,192,49205,1,0,0:0:0:0:
192,192,49287,1,0,0:0:0:0:
64,192,49370,1,0,0:0:0:0:
448,192,49370,1,0,0:0:0:0:
320,192,49535,1,0,0:0:0:0:
320,192,49699,1,0,0:0:0:0:
192,192,49699,1,0,0:0:0:0:
448,192,49864,1,0,0:0:0:0:
64,192,49864,1,0,0:0:0:0:
320,192,50029,1,0,0:0:0:0:
320,192,50194,1,0,0:0:0:0:
64,192,50194,1,0,0:0:0:0:
448,192,50359,1,0,0:0:0:0:
192,192,50359,1,0,0:0:0:0:
320,192,50524,1,0,0:0:0:0:
64,192,50524,1,0,0:0:0:0:
320,192,50688,1,0,0:0:0:0:
448,192,50853,1,0,0:0:0:0:
192,192,50853,1,0,0:0:0:0:
320,192,51018,1,0,0:0:0:0:
64,192,51018,1,0,0:0:0:0:
192,192,51183,1,0,0:0:0:0:
448,192,51265,1,0,0:0:0:0:
320,192,51348,1,0,0:0:0:0:
64,192,51348,1,0,0:0:0:0:
64,192,51513,1,0,0:0:0:0:
448,192,51513,1,0,0:0:0:0:
448,192,51677,1,0,0:0:0:0:
192,192,51677,1,0,0:0:0:0:
64,192,51842,1,0,0:0:0:0:
320,192,51925,1,0,0:0:0:0:
448,192,52007,1,0,0:0:0:0:
64,192,52007,1,0,0:0:0:0:
320,192,52172,1,0,0:0:0:0:
192,192,52337,1,0,0:0:0:0:
448,192,52337,1,0,0:0:0:0:
448,192,52502,1,0,0:0:0:0:
64,192,52502,1,0,0:0:0:0:
192,192,52666,1,0,0:0:0:0:
320,192,52831,1,0,0:0:0:0:
64,192,52831,1,0,0:0:0:0:
448,192,52996,1,0,0:0:0:0:
192,192,52996,1,0,0:0:0:0:
320,192,53161,1,0,0:0:0:0:
192,192,53326,1,0,0:0:0:0:
64,192,53326,1,0,0:0:0:0:
448,192,53491,1,0,0:0:0:0:
192,192,53655,1,0,0:0:0:0:
320,192,53655,1,0,0:0:0:0:
320,192,53820,1,0,0:0:0:0:
64,192,53820,1,0,0:0:0:0:
448,192,53985,1,0,0:0:0:0:
64,192,54150,1,0,0:0:0:0:
320,192,54150,1,0,0:0:0:0:
192,192,54315,1,0,0:0:0:0:
448,192,54315,1,0,0:0:0:0:
320,192,54480,1,0,0:0:0:0:
64,192,54644,1,0,0:0:0:0:
448,192,54644,1,0,0:0:0:0:
192,192,54809,1,0,0:0:0:0:
320,192,54974,1,0,0:0:0:0:
64,192,54974,1,0,0:0:0:0:
448,192,55139,1,0,0:0:0:0:
192,192,55139,1,0,0:0:0:0:
320,192,55304,1,0,0:0:0:0:
192,192,55469,1,0,0:0:0:0:
64,192,55469,1,0,0:0:0:0:
448,192,55633,1,0,0:0:0:0:
192,192,55633,1,0,0:0:0:0:
64,192,55798,1,0,0:0:0:0:
320,192,55798,1,0,0:0:0:0:
192,192,55963,1,0,0:0:0:0:
448,192,56128,1,0,0:0:0:0:
64,192,56128,1,0,0:0:0:0:
192,192,56293,1,0,0:0:0:0:
320,192,56293,1,0,0:0:0:0:
320,192,56458,1,0,0:0:0:0:
64,192,56458,1,0,0:0:0:0:
448,192,56540,1,0,0:0:0:0:
192,192,56622,1,0,0:0:0:0:
320,192,56787,1,0,0:0:0:0:
64,192,56870,1,0,0:0:0:0:
448,192,56870,1,0,0:0:0:0:
320,192,56952,1,0,0:0:0:0:
192,192,57035,1,0,0:0:0:0:
320,192,57117,1,0,0:0:0:0:
448,192,57199,1,0,0:0:0:0:
192,192,57282,1,0,0:0:0:0:
320,192,57282,1,0,0:0:0:0:
320,192,57447,1,0,0:0:0:0:
64,192,57447,1,0,0:0:0:0:
448,192,57611,1,0,0:0:0:0:
192,192,57611,1,0,0:0:0:0:
320,192,57776,1,0,0:0:0:0:
64,192,57859,1,0,0:0:0:0:
448,192,57941,1,0,0:0:0:0:
64,192,58024,1,0,0:0:0:0:
320,192,58106,1,0,0:0:0:0:
448,192,58271,1,0,0:0:0:0:
192,192,58271,1,0,0:0:0:0:
320,192,58436,1,0,0:0:0:0:
192,192,58600,1,0,0:0:0:0:
64,192,58765,1,0,0:0:0:0:
448,192,58765,1,0,0:0:0:0:
192,192,58930,1,0,0:0:0:0:
320,192,58930,1,0,0:0:0:0:
320,192,59095,1,0,0:0:0:0:
448,192,59177,1,0,0:0:0:0:
192,192,59260,1,0,0:0:0:0:
320,192,59342,1,0,0:0:0:0:
64,192,59425,1,0,0:0:0:0:
320,192,59589,1,0,0:0:0:0:
448,192,59589,1,0,0:0:0:0:
192,192,59754,1,0,0:0:0:0:
320,192,59919,1,0,0:0:0:0:
64,192,59919,1,0,0:0:0:0:
448,192,60084,1,0,0:0:0:0:
192,192,60249,1,0,0:0:0:0:
448,192,60249,1,0,0:0:0:0:
320,192,60414,1,0,0:0:0:0:
64,192,60496,1,0,0:0:0:0:
448,192,60578,1,0,0:0:0:0:
64,192,60661,1,0,0:0:0:0:
320,192,60743,1,0,0:0:0:0:
192,192,60908,1,0,0:0:0:0:
448,192,60908,1,0,0:0:0:0:
64,192,61073,1,0,0:0:0:0:
320,192,61073,1,0,0:0:0:0:
192,192,61238,1,0,0:0:0:0:
448,192,61403,1,0,0:0:0:0:
64,192,61403,1,0,0:0:0:0:
192,192,61568,1,0,0:0:0:0:
320,192,61568,1,0,0:0:0:0:
320,192,61732,1,0,0:0:0:0:
448,192,61815,1,0,0:0:0:0:
64,192,61897,1,0,0:0:0:0:
320,192,61980,1,0,0:0:0:0:
64,192,62062,1,0,0:0:0:0:
448,192,62227,1,0,0:0:0:0:
192,192,62227,1,0,0:0:0:0:
320,192,62392,1,0,0:0:0:0:
192,192,62474,1,0,0:0:0:0:
448,192,62557,1,0,0:0:0:0:
320,192,62721,1,0,0:0:0:0:
192,192,62886,1,0,0:0:0:0:
448,192,62886,1,0,0:0:0:0:
64,192,63051,1,0,0:0:0:0:
320,192,63133,1,0,0:0:0:0:
192,192,63216,1,0,0:0:0:0:
320,192,63298,1,0,0:0:0:0:
64,192,63381,1,0,0:0:0:0:
448,192,63546,1,0,0:0:0:0:
192,192,63546,1,0,0:0:0:0:
320,192,63710,1,0,0:0:0:0:
448,192,63875,1,0,0:0:0:0:
64,192,63875,1,0,0:0:0:0:
320,192,64040,1,0,0:0:0:0:
192,192,64205,1,0,0:0:0:0:
448,192,64205,1,0,0:0:0:0:
320,192,64370,1,0,0:0:0:0:
64,192,64452,1,0,0:0:0:0:
448,192,64535,1,0,0:0:0:0:
64,192,64617,1,0,0:0:0:0:
320,192,64699,1,0,0:0:0:0:
192,192,64864,1,0,0:0:0:0:
448,192,64864,1,0,0:0:0:0:
320,192,65029,1,0,0:0:0:0:
448,192,65194,1,0,0:0:0:0:
64,192,65359,1,0,0:0:0:0:
448,192,65524,1,0,0:0:0:0:
320,192,65524,1,0,0:0:0:0:
192,192,65688,1,0,0:0:0:0:
448,192,65771,1,0,0:0:0:0:
64,192,65853,1,0,0:0:0:0:
320,192,65936,1,0,0:0:0:0:
64,192,66018,1,0,0:0:0:0:
448,192,66183,1,0,0:0:0:0:
192,192,66183,1,0,0:0:0:0:
320,192,66348,1,0,0:0:0:0:
192,192,66348,1,0,0:0:0:0:
64,192,66430,1,0,0:0:0:0:
320,192,66513,1,0,0:0:0:0:
192,192,66595,1,0,0:0:0:0:
448,192,66677,1,0,0:0:0:0:
320,192,66760,1,0,0:0:0:0:
64,192,66842,1,0,0:0:0:0:
448,192,66842,1,0,0:0:0:0:
192,192,66925,1,0,0:0:0:0:
448,192,67007,1,0,0:0:0:0:
192,192,67089,1,0,0:0:0:0:
320,192,67172,1,0,0:0:0:0:
192,192,67254,1,0,0:0:0:0:
448,192,67337,1,0,0:0:0:0:
64,192,67419,1,0,0:0:0:0:
320,192,67502,1,0,0:0:0:0:
192,192,67584,1,0,0:0:0:0:
448,192,67666,1,0,0:0:0:0:
64,192,67749,1,0,0:0:0:0:
320,192,67831,1,0,0:0:0:0:
448,192,67831,1,0,0:0:0:0:
448,192,68326,1,0,0:0:0:0:
192,192,68326,1,0,0:0:0:0:
320,192,68491,1,0,0:0:0:0:
64,192,68491,1,0,0:0:0:0:
192,192,68655,1,0,0:0:0:0:
448,192,68820,1,0,0:0:0:0:
448,192,68985,1,0,0:0:0:0:
64,192,68985,1,0,0:0:0:0:
64,192,69315,1,0,0:0:0:0:
64,192,69480,1,0,0:0:0:0:
192,192,69644,1,0,0:0:0:0:
320,192,69727,1,0,0:0:0:0:
448,192,69809,1,0,0:0:0:0:
64,192,69809,1,0,0:0:0:0:
192,192,70057,1,0,0:0:0:0:
320,192,70304,1,0,0:0:0:0:
64,192,70469,1,0,0:0:0:0:
448,192,70469,1,0,0:0:0:0:
192,192,70716,1,0,0:0:0:0:
448,192,70963,1,0,0:0:0:0:
64,192,70963,1,0,0:0:0:0:
192,192,71128,1,0,0:0:0:0:
320,192,71128,1,0,0:0:0:0:
448,192,71375,1,0,0:0:0:0:
64,192,71622,1,0,0:0:0:0:
320,192,71622,1,0,0:0:0:0:
192,192,71787,1,0,0:0:0:0:
64,192,71952,1,0,0:0:0:0:
448,192,72117,1,0,0:0:0:0:
64,192,72282,1,0,0:0:0:0:
192,192,72364,1,0,0:0:0:0:
320,192,72447,1,0,0:0:0:0:
448,192,72447,1,0,0:0:0:0:
64,192,72611,1,0,0:0:0:0:
320,192,72776,1,0,0:0:0:0:
448,192,72941,1,0,0:0:0:0:
192,192,72941,1,0,0:0:0:0:
64,192,73106,1,0,0:0:0:0:
320,192,73106,1,0,0:0:0:0:
192,192,73436,1,0,0:0:0:0:
448,192,73600,1,0,0:0:0:0:
64,192,73600,1,0,0:0:0:0:
320,192,73765,1,0,0:0:0:0:
192,192,73765,1,0,0:0:0:0:
64,192,73930,1,0,0:0:0:0:
448,192,74095,1,0,0:0:0:0:
192,192,74260,1,0,0:0:0:0:
64,192,74589,1,0,0:0:0:0:
64,192,74754,1,0,0:0:0:0:
192,192,74919,1,0,0:0:0:0:
320,192,75002,1,0,0:0:0:0:
448,192,75084,1,0,0:0:0:0:
320,192,75249,1,0,0:0:0:0:
192,192,75414,1,0,0:0:0:0:
320,192,75578,1,0,0:0:0:0:
192,192,75743,1,0,0:0:0:0:
448,192,75743,1,0,0:0:0:0:
320,192,75908,1,0,0:0:0:0:
64,192,76073,1,0,0:0:0:0:
448,192,76238,1,0,0:0:0:0:
192,192,76238,1,0,0:0:0:0:
320,192,76403,1,0,0:0:0:0:
64,192,76403,1,0,0:0:0:0:
192,192,76568,1,0,0:0:0:0:
448,192,76732,1,0,0:0:0:0:
64,192,76897,1,0,0:0:0:0:
320,192,77062,1,0,0:0:0:0:
64,192,77227,1,0,0:0:0:0:
448,192,77392,1,0,0:0:0:0:
64,192,77392,1,0,0:0:0:0:
192,192,77474,1,0,0:0:0:0:
320,192,77557,1,0,0:0:0:0:
448,192,77639,1,0,0:0:0:0:
64,192,77721,1,0,0:0:0:0:
192,192,77721,1,0,0:0:0:0:
64,192,77886,1,0,0:0:0:0:
192,192,77886,1,0,0:0:0:0:
192,192,78216,1,0,0:0:0:0:
64,192,78381,1,0,0:0:0:0:
320,192,78381,1,0,0:0:0:0:
448,192,78381,1,0,0:0:0:0:
448,192,78710,1,0,0:0:0:0:
64,192,78710,1,0,0:0:0:0:
192,192,78875,1,0,0:0:0:0:
320,192,78958,1,0,0:0:0:0:
192,192,79040,1,0,0:0:0:0:
320,192,79122,1,0,0:0:0:0:
192,192,79205,1,0,0:0:0:0:
448,192,79370,1,0,0:0:0:0:
64,192,79370,1,0,0:0:0:0:
448,192,79535,1,0,0:0:0:0:
320,192,79617,1,0,0:0:0:0:
192,192,79699,1,0,0:0:0:0:
320,192,79864,1,0,0:0:0:0:
192,192,80029,1,0,0:0:0:0:
448,192,80029,1,0,0:0:0:0:
64,192,80194,1,0,0:0:0:0:
320,192,80194,1,0,0:0:0:0:
448,192,80359,1,0,0:0:0:0:
320,192,80524,1,0,0:0:0:0:
192,192,80606,1,0,0:0:0:0:
64,192,80688,1,0,0:0:0:0:
320,192,80853,1,0,0:0:0:0:
448,192,81018,1,0,0:0:0:0:
64,192,81018,1,0,0:0:0:0:
320,192,81183,1,0,0:0:0:0:
192,192,81348,1,0,0:0:0:0:
448,192,81348,1,0,0:0:0:0:
64,192,81513,1,0,0:0:0:0:
320,192,81513,1,0,0:0:0:0:
448,192,81677,1,0,0:0:0:0:
320,192,81842,1,0,0:0:0:0:
64,192,82007,1,0,0:0:0:0:
192,192,82007,1,0,0:0:0:0:
320,192,82172,1,0,0:0:0:0:
64,192,82337,1,0,0:0:0:0:
448,192,82337,1,0,0:0:0:0:
320,192,82502,1,0,0:0:0:0:
192,192,82666,1,0,0:0:0:0:
448,192,82666,1,0,0:0:0:0:
64,192,82831,1,0,0:0:0:0:
320,192,82831,1,0,0:0:0:0:
192,192,82996,1,0,0:0:0:0:
320,192,83161,1,0,0:0:0:0:
64,192,83161,1,0,0:0:0:0:
192,192,83326,1,0,0:0:0:0:
448,192,83326,1,0,0:0:0:0:
320,192,83491,1,0,0:0:0:0:
192,192,83655,1,0,0:0:0:0:
64,192,83655,1,0,0:0:0:0:
448,192,83820,1,0,0:0:0:0:
192,192,83985,1,0,0:0:0:0:
320,192,83985,1,0,0:0:0:0:
320,192,84150,1,0,0:0:0:0:
64,192,84150,1,0,0:0:0:0:
448,192,84480,1,0,0:0:0:0:
192,192,84562,1,0,0:0:0:0:
448,192,84644,1,0,0:0:0:0:
320,192,84644,1,0,0:0:0:0:
192,192,84809,1,0,0:0:0:0:
64,192,84974,1,0,0:0:0:0:
320,192,85139,1,0,0:0:0:0:
192,192,85221,1,0,0:0:0:0:
448,192,85304,1,0,0:0:0:0:
64,192,85386,1,0,0:0:0:0:
320,192,85469,1,0,0:0:0:0:
448,192,85633,1,0,0:0:0:0:
64,192,85798,1,0,0:0:0:0:
320,192,85963,1,0,0:0:0:0:
192,192,85963,1,0,0:0:0:0:
64,192,86293,1,0,0:0:0:0:
320,192,86293,1,0,0:0:0:0:
448,192,86622,1,0,0:0:0:0:
320,192,86622,1,0,0:0:0:0:
64,192,86787,1,0,0:0:0:0:
192,192,87117,1,0,0:0:0:0:
448,192,87117,1,0,0:0:0:0:
320,192,87282,1,0,0:0:0:0:
64,192,87282,1,0,0:0:0:0:
448,192,87364,1,0,0:0:0:0:
192,192,87447,1,0,0:0:0:0:
320,192,87611,1,0,0:0:0:0:
64,192,87611,1,0,0:0:0:0:
192,192,87776,1,0,0:0:0:0:
320,192,87941,1,0,0:0:0:0:
448,192,88106,1,0,0:0:0:0:
64,192,88271,1,0,0:0:0:0:
192,192,88491,1,0,0:0:0:0:
320,192,88710,1,0,0:0:0:0:
448,192,88930,1,0,0:0:0:0:
64,192,88930,1,0,0:0:0:0:
320,192,89919,1,0,0:0:0:0:
320,192,90084,1,0,0:0:0:0:
448,192,90249,1,0,0:0:0:0:
64,192,90331,1,0,0:0:0:0:
320,192,90414,1,0,0:0:0:0:
192,192,90496,1,0,0:0:0:0:
448,192,90578,1,0,0:0:0:0:
64,192,90661,1,0,0:0:0:0:
320,192,90743,1,0,0:0:0:0:
64,192,90826,1,0,0:0:0:0:
448,192,90908,1,0,0:0:0:0:
192,192,90991,1,0,0:0:0:0:
448,192,91073,1,0,0:0:0:0:
192,192,91155,1,0,0:0:0:0:
320,192,91238,1,0,0:0:0:0:
64,192,91238,1,0,0:0:0:0:
448,192,91568,1,0,0:0:0:0:
64,192,91568,1,0,0:0:0:0:
192,192,91732,1,0,0:0:0:0:
320,192,91732,1,0,0:0:0:0:
320,192,91897,1,0,0:0:0:0:
64,192,91897,1,0,0:0:0:0:
448,192,92062,1,0,0:0:0:0:
192,192,92144,1,0,0:0:0:0:
320,192,92227,1,0,0:0:0:0:
192,192,92309,1,0,0:0:0:0:
64,192,92392,1,0,0:0:0:0:
448,192,92392,1,0,0:0:0:0:
320,192,92557,1,0,0:0:0:0:
192,192,92557,1,0,0:0:0:0:
64,192,92721,1,0,0:0:0:0:
448,192,92886,1,0,0:0:0:0:
192,192,92886,1,0,0:0:0:0:
320,192,93051,1,0,0:0:0:0:
448,192,93216,1,0,0:0:0:0:
192,192,93216,1,0,0:0:0:0:
64,192,93381,1,0,0:0:0:0:
320,192,93463,1,0,0:0:0:0:
192,192,93546,1,0,0:0:0:0:
320,192,93628,1,0,0:0:0:0:
64,192,93710,1,0,0:0:0:0:
448,192,93710,1,0,0:0:0:0:
320,192,93875,1,0,0:0:0:0:
192,192,93875,1,0,0:0:0:0:
448,192,94040,1,0,0:0:0:0:
64,192,94205,1,0,0:0:0:0:
320,192,94205,1,0,0:0:0:0:
448,192,94370,1,0,0:0:0:0:
192,192,94370,1,0,0:0:0:0:
64,192,94535,1,0,0:0:0:0:
320,192,94535,1,0,0:0:0:0:
448,192,94699,1,0,0:0:0:0:
192,192,94782,1,0,0:0:0:0:
320,192,94864,1,0,0:0:0:0:
192,192,94947,1,0,0:0:0:0:
448,192,95029,1,0,0:0:0:0:
64,192,95029,1,0,0:0:0:0:
192,192,95194,1,0,0:0:0:0:
320,192,95194,1,0,0:0:0:0:
448,192,95359,1,0,0:0:0:0:
64,192,95359,1,0,0:0:0:0:
192,192,95524,1,0,0:0:0:0:
64,192,95688,1,0,0:0:0:0:
448,192,95688,1,0,0:0:0:0:
320,192,95853,1,0,0:0:0:0:
192,192,95853,1,0,0:0:0:0:
64,192,96018,1,0,0:0:0:0:
448,192,96018,1,0,0:0:0:0:
320,192,96100,1,0,0:0:0:0:
192,192,96183,1,0,0:0:0:0:
64,192,96183,1,0,0:0:0:0:
320,192,96348,1,0,0:0:0:0:
192,192,96348,1,0,0:0:0:0:
448,192,96513,1,0,0:0:0:0:
64,192,96513,1,0,0:0:0:0:
192,192,96677,1,0,0:0:0:0:
320,192,96760,1,0,0:0:0:0:
192,192,96842,1,0,0:0:0:0:
320,192,97007,1,0,0:0:0:0:
64,192,97007,1,0,0:0:0:0:
192,192,97172,1,0,0:0:0:0:
448,192,97172,1,0,0:0:0:0:
64,192,97337,1,0,0:0:0:0:
448,192,97419,1,0,0:0:0:0:
192,192,97502,1,0,0:0:0:0:
448,192,97584,1,0,0:0:0:0:
320,192,97666,1,0,0:0:0:0:
448,192,97831,1,0,0:0:0:0:
64,192,97831,1,0,0:0:0:0:
320,192,97996,1,0,0:0:0:0:
192,192,97996,1,0,0:0:0:0:
64,192,98161,1,0,0:0:0:0:
448,192,98326,1,0,0:0:0:0:
192,192,98326,1,0,0:0:0:0:
64,192,98491,1,0,0:0:0:0:
320,192,98491,1,0,0:0:0:0:
192,192,98655,1,0,0:0:0:0:
448,192,98738,1,0,0:0:0:0:
192,192,98820,1,0,0:0:0:0:
320,192,98903,1,0,0:0:0:0:
64,192,98985,1,0,0:0:0:0:
448,192,99150,1,0,0:0:0:0:
192,192,99150,1,0,0:0:0:0:
320,192,99315,1,0,0:0:0:0:
64,192,99480,1,0,0:0:0:0:
448,192,99480,1,0,0:0:0:0:
320,192,99644,1,0,0:0:0:0:
192,192,99644,1,0,0:0:0:0:
64,192,99809,1,0,0:0:0:0:
448,192,99809,1,0,0:0:0:0:
320,192,99974,1,0,0:0:0:0:
448,192,100057,1,0,0:0:0:0:
192,192,100139,1,0,0:0:0:0:
320,192,100221,1,0,0:0:0:0:
64,192,100304,1,0,0:0:0:0:
448,192,100469,1,0,0:0:0:0:
192,192,100469,1,0,0:0:0:0:
64,192,100633,1,0,0:0:0:0:
320,192,100633,1,0,0:0:0:0:
448,192,100798,1,0,0:0:0:0:
64,192,100963,1,0,0:0:0:0:
320,192,100963,1,0,0:0:0:0:
192,192,101128,1,0,0:0:0:0:
448,192,101128,1,0,0:0:0:0:
64,192,101293,1,0,0:0:0:0:
448,192,101375,1,0,0:0:0:0:
64,192,101458,1,0,0:0:0:0:
320,192,101622,1,0,0:0:0:0:
64,192,101705,1,0,0:0:0:0:
448,192,101787,1,0,0:0:0:0:
192,192,101870,1,0,0:0:0:0:
448,192,101952,1,0,0:0:0:0:
64,192,102035,1,0,0:0:0:0:
192,192,102117,1,0,0:0:0:0:
320,192,102117,1,0,0:0:0:0:
320,192,102282,1,0,0:0:0:0:
64,192,102282,1,0,0:0:0:0:
192,192,102447,1,0,0:0:0:0:
448,192,102447,1,0,0:0:0:0:
64,192,102611,1,0,0:0:0:0:
320,192,102694,1,0,0:0:0:0:
192,192,102776,1,0,0:0:0:0:
320,192,102859,1,0,0:0:0:0:
64,192,102941,1,0,0:0:0:0:
448,192,103106,1,0,0:0:0:0:
192,192,103106,1,0,0:0:0:0:
320,192,103271,1,0,0:0:0:0:
192,192,103271,1,0,0:0:0:0:
320,192,103436,1,0,0:0:0:0:
64,192,103436,1,0,0:0:0:0:
448,192,103600,1,0,0:0:0:0:
192,192,103600,1,0,0:0:0:0:
320,192,103765,1,0,0:0:0:0:
192,192,103765,1,0,0:0:0:0:
320,192,103930,1,0,0:0:0:0:
64,192,103930,1,0,0:0:0:0:
448,192,104013,1,0,0:0:0:0:
192,192,104095,1,0,0:0:0:0:
448,192,104177,1,0,0:0:0:0:
64,192,104260,1,0,0:0:0:0:
192,192,104260,1,0,0:0:0:0:
320,192,104425,1,0,0:0:0:0:
448,192,104425,1,0,0:0:0:0:
192,192,104589,1,0,0:0:0:0:
64,192,104754,1,0,0:0:0:0:
448,192,104754,1,0,0:0:0:0:
192,192,104919,1,0,0:0:0:0:
320,192,104919,1,0,0:0:0:0:
448,192,105084,1,0,0:0:0:0:
192,192,105084,1,0,0:0:0:0:
320,192,105249,1,0,0:0:0:0:
64,192,105249,1,0,0:0:0:0:
448,192,105331,1,0,0:0:0:0:
192,192,105414,1,0,0:0:0:0:
448,192,105496,1,0,0:0:0:0:
64,192,105578,1,0,0:0:0:0:
320,192,105578,1,0,0:0:0:0:
448,192,105743,1,0,0:0:0:0:
192,192,105743,1,0,0:0:0:0:
64,192,105908,1,0,0:0:0:0:
320,192,105908,1,0,0:0:0:0:
448,192,106073,1,0,0:0:0:0:
320,192,106238,1,0,0:0:0:0:
64,192,106238,1,0,0:0:0:0:
448,192,106403,1,0,0:0:0:0:
320,192,106403,1,0,0:0:0:0:
192,192,106568,1,0,0:0:0:0:
448,192,106650,1,0,0:0:0:0:
64,192,106732,1,0,0:0:0:0:
320,192,106732,1,0,0:0:0:0:
320,192,106897,1,0,0:0:0:0:
64,192,106897,1,0,0:0:0:0:
448,192,107062,1,0,0:0:0:0:
192,192,107062,1,0,0:0:0:0:
448,192,107227,1,0,0:0:0:0:
64,192,107227,1,0,0:0:0:0:
320,192,107309,1,0,0:0:0:0:
64,192,107392,1,0,0:0:0:0:
192,192,107557,1,0,0:0:0:0:
448,192,107721,1,0,0:0:0:0:
64,192,107886,1,0,0:0:0:0:
320,192,107886,1,0,0:0:0:0:
64,192,108051,1,0,0:0:0:0:
320,192,108051,1,0,0:0:0:0:
64,192,108216,1,0,0:0:0:0:
448,192,108381,1,0,0:0:0:0:
192,192,108381,1,0,0:0:0:0:
448,192,108546,1,0,0:0:0:0:
192,192,108546,1,0,0:0:0:0:
320,192,108710,1,0,0:0:0:0:
448,192,108875,1,0,0:0:0:0:
64,192,108875,1,0,0:0:0:0:
448,192,109040,1,0,0:0:0:0:
64,192,109040,1,0,0:0:0:0:
192,192,109205,1,0,0:0:0:0:
320,192,109205,1,0,0:0:0:0:
64,192,109370,1,0,0:0:0:0:
320,192,109452,1,0,0:0:0:0:
192,192,109535,1,0,0:0:0:0:
448,192,109535,1,0,0:0:0:0:
64,192,109699,1,0,0:0:0:0:
448,192,109699,1,0,0:0:0:0:
192,192,109864,1,0,0:0:0:0:
320,192,109864,1,0,0:0:0:0:
448,192,110029,1,0,0:0:0:0:
64,192,110029,1,0,0:0:0:0:
320,192,110194,1,0,0:0:0:0:
64,192,110194,1,0,0:0:0:0:
448,192,110359,1,0,0:0:0:0:
192,192,110359,1,0,0:0:0:0:
320,192,110524,1,0,0:0:0:0:
192,192,110524,1,0,0:0:0:0:
448,192,110688,1,0,0:0:0:0:
64,192,110688,1,0,0:0:0:0:
320,192,110853,1,0,0:0:0:0:
64,192,110853,1,0,0:0:0:0:
192,192,111018,1,0,0:0:0:0:
448,192,111018,1,0,0:0:0:0:
192,192,111183,1,0,0:0:0:0:
320,192,111183,1,0,0:0:0:0:
448,192,111348,1,0,0:0:0:0:
64,192,111430,1,0,0:0:0:0:
320,192,111513,1,0,0:0:0:0:
192,192,111595,1,0,0:0:0:0:
448,192,111677,1,0,0:0:0:0:
64,192,111760,1,0,0:0:0:0:
320,192,111842,1,0,0:0:0:0:
64,192,111925,1,0,0:0:0:0:
448,192,112007,1,0,0:0:0:0:
192,192,112089,1,0,0:0:0:0:
448,192,112172,1,0,0:0:0:0:
192,192,112254,1,0,0:0:0:0:
320,192,112337,1,0,0:0:0:0:
64,192,112419,1,0,0:0:0:0:
320,192,112502,1,0,0:0:0:0:
192,192,112584,1,0,0:0:0:0:
448,192,112666,1,0,0:0:0:0:
64,192,112666,128,0,115963:0:0:0:0:
448,192,115304,1,0,0:0:0:0:
320,192,115345,1,0,0:0:0:0:
