osu file format v14

[General]
AudioFilename: audio.mp3
AudioLeadIn: 0
PreviewTime: 21381
Countdown: 0
SampleSet: Soft
StackLeniency: 0.7
Mode: 0
LetterboxInBreaks: 0
WidescreenStoryboard: 0

[Editor]
Bookmarks: 10714,21381,42714,53381,74714
DistanceSpacing: 1.3
BeatDivisor: 4
GridSize: 32
TimelineZoom: 1.9

[Metadata]
Title:Fragrance
TitleUnicode:Fragrance
Artist:Tsukasa (Arte Refact)
ArtistUnicode:矢鴇つかさ (Arte Refact)
Creator:Lugu
Version:ChuuritsuTv's Hard
Source:HALFPIPE TOKYO
Tags:SEGA maimai ChuuritsuTv yShadowXOP_ NexusQI
BeatmapID:2242916
BeatmapSetID:1068557

[Difficulty]
HPDrainRate:4
CircleSize:3.5
OverallDifficulty:4
ApproachRate:7.5
SliderMultiplier:1.4
SliderTickRate:1

[Events]
//Background and Video events
0,0,"johnkwller523-shinobu-kocho.jpg",0,0
//Break Periods
//Storyboard Layer 0 (Background)
//Storyboard Layer 1 (Fail)
//Storyboard Layer 2 (Pass)
//Storyboard Layer 3 (Foreground)
//Storyboard Layer 4 (Overlay)
//Storyboard Sound Samples

[TimingPoints]
48,333.333333333333,4,2,1,100,1,0
4214,-100,4,2,1,30,0,0
9714,-100,4,2,1,45,0,0
10714,-100,4,2,1,55,0,0
19964,-100,4,2,1,5,0,0
20047,-100,4,2,1,58,0,0
21381,-100,4,2,1,70,0,0
32047,-100,4,2,1,75,0,0
45381,-100,4,2,1,75,0,0
53381,-100,4,2,1,75,0,0
80381,-100,4,2,1,5,0,0

[Colours]
Combo1 : 255,255,0
Combo2 : 77,158,184
Combo3 : 37,57,202
Combo4 : 128,255,255
Combo5 : 128,255,128
Combo6 : 255,0,255

[HitObjects]
422,283,4214,6,0,L|418:353,1,70,2|2,0:0|0:0,0:0:0:0:
511,192,4714,2,0,L|507:121,1,70,2|2,0:0|0:0,0:0:0:0:
508,122,9714,6,0,L|511:192,2,70,2|2|2,0:0|0:0|0:0,0:0:0:0:
440,60,10214,1,2,0:0:0:0:
376,125,10381,2,0,L|379:195,1,70,2|2,0:0|0:0,0:0:0:0:
385,302,10714,6,0,P|321:329|254:312,1,140,0|8,3:0|0:0,0:0:0:0:
164,316,11214,2,0,P|100:343|33:326,1,140,0|0,0:0|3:0,0:0:0:0:
61,239,11714,2,0,L|131:235,1,70,8|0,0:0|0:0,0:0:0:0:
127,144,12047,5,0,3:0:0:0:
127,144,12214,2,0,L|56:147,1,70,0|8,3:0|0:0,0:0:0:0:
24,67,12547,2,0,P|87:39|154:56,1,140,0|0,0:0|3:0,0:0:0:0:
214,124,13047,2,0,L|284:120,1,70,8|0,0:0|0:0,0:0:0:0:
316,88,13297,1,8,0:0:0:0:
316,88,13381,6,0,B|383:90|383:90|387:94|387:94|457:97,1,140,0|8,3:0|0:0,0:0:0:0:
452,188,13881,2,0,B|449:255|449:255|446:259|446:259|443:329,1,140,0|0,0:0|3:0,0:0:0:0:
359,291,14381,2,0,L|362:220,2,70,8|0|0,0:0|0:0|3:0,0:0:0:0:
302,362,14881,5,2,0:2:0:0:
235,300,15047,2,0,P|201:292|166:296,1,70,10|2,0:2|0:2,0:0:0:0:
96,355,15381,1,2,0:0:0:0:
14,315,15547,2,0,L|10:385,2,70,2|8|0,3:2|0:0|0:0,0:0:0:0:
40,277,15964,1,8,0:0:0:0:
40,277,16047,6,0,L|33:136,1,140,0|8,3:0|0:0,0:0:0:0:
33,46,16547,2,0,L|173:39,1,140,0|0,0:0|3:0,0:0:0:0:
181,130,17047,2,0,L|184:199,1,70,8|0,0:0|0:0,0:0:0:0:
275,196,17381,5,0,3:0:0:0:
275,196,17547,2,0,L|271:126,1,70,0|8,3:0|0:0,0:0:0:0:
271,36,17881,2,0,L|411:29,1,140,0|0,0:0|3:0,0:0:0:0:
420,119,18381,2,0,L|424:189,1,70,8|0,0:0|0:0,0:0:0:0:
418,234,18631,1,8,0:0:0:0:
418,234,18714,6,0,P|351:256|277:238,1,140,0|8,3:0|0:0,0:0:0:0:
208,191,19214,1,0,0:0:0:0:
134,244,19381,2,0,L|127:407,1,140,0|8,0:0|0:0,0:0:0:0:
37,372,19881,6,0,B|26:351|26:351|29:254|29:254|42:239,1,140,6|8,0:0|0:0,0:0:0:0:
89,166,20381,1,10,0:2:0:0:
89,166,20547,2,0,L|79:96,1,70,10|2,0:2|3:2,0:0:0:0:
75,74,20797,1,0,0:0:0:0:
69,51,20881,2,0,L|62:10,2,35,2|0|2,3:2|3:0|3:2,0:0:0:0:
204,109,21214,1,2,3:2:0:0:
204,109,21297,1,0,3:0:0:0:
204,109,21381,6,0,P|274:111|339:88,1,140,6|8,3:2|0:0,0:0:0:0:
487,133,21881,2,0,P|454:120|420:125,1,70,2|0,3:2|0:0,0:0:0:0:
360,183,22214,2,0,L|354:339,2,140,8|0|0,0:0|3:0|3:0,0:0:0:0:
337,18,23047,5,10,0:2:0:0:
337,18,23214,2,0,L|340:96,1,70,2|0,3:2|0:0,0:0:0:0:
274,151,23547,2,0,L|271:220,1,70,10|0,0:0|0:0,0:0:0:0:
222,298,23881,1,2,0:0:0:0:
179,217,24047,6,0,L|182:148,1,70,2|0,3:2|0:0,0:0:0:0:
232,70,24381,1,8,0:0:0:0:
232,70,24547,1,2,3:2:0:0:
131,10,24714,2,0,L|121:87,1,70,0|8,0:0|0:0,0:0:0:0:
1,139,25047,5,0,0:0:0:0:
1,139,25214,2,0,P|55:152|95:246,1,140,0|0,3:0|0:0,0:0:0:0:
60,307,25714,1,10,0:2:0:0:
60,307,25881,2,0,L|129:310,1,70,0|0,3:0|0:0,0:0:0:0:
205,255,26214,2,0,L|351:248,1,140,10|0,0:2|0:0,0:0:0:0:
441,383,26714,6,0,L|435:244,1,140,2|8,3:2|0:0,0:0:0:0:
482,94,27214,2,0,L|479:164,1,70,2|0,3:2|0:0,0:0:0:0:
387,163,27547,2,0,P|326:139|237:155,2,140,8|0|0,0:0|3:0|3:0,0:0:0:0:
438,313,28381,5,10,0:2:0:0:
438,313,28547,2,0,L|435:244,1,70,2|0,3:2|0:0,0:0:0:0:
343,249,28881,2,0,L|346:318,1,70,10|0,0:0|0:0,0:0:0:0:
280,382,29214,1,2,0:0:0:0:
203,331,29381,6,0,L|200:261,1,70,2|0,3:2|0:0,0:0:0:0:
152,183,29714,1,8,0:0:0:0:
152,183,29881,1,2,3:2:0:0:
108,267,30047,2,0,L|111:336,1,70,0|8,0:0|0:0,0:0:0:0:
0,384,30381,1,0,0:0:0:0:
0,384,30547,6,0,L|6:238,1,140,4|0,3:2|0:0,0:0:0:0:
69,179,31047,1,10,0:0:0:0:
69,179,31214,2,0,L|72:91,1,70,2|0,3:2|3:0,0:0:0:0:
135,43,31547,1,0,3:0:0:0:
135,43,31714,2,0,L|196:45,3,35,2|2|2|2,0:0|0:0|0:0|0:0,0:0:0:0:
214,78,32047,6,0,B|270:80|270:80|277:85|277:85|370:88,1,140,2|8,3:2|0:0,0:0:0:0:
512,96,32547,2,0,L|442:93,1,70,2|0,3:2|0:0,0:0:0:0:
394,172,32881,2,0,P|436:226|470:172,2,140,8|0|0,0:0|3:0|3:0,0:0:0:0:
440,24,33714,5,10,0:2:0:0:
440,24,33881,2,0,L|442:93,1,70,2|0,3:2|0:0,0:0:0:0:
350,94,34214,2,0,L|348:25,1,70,10|0,0:2|0:0,0:0:0:0:
265,62,34547,1,2,0:0:0:0:
180,30,34714,6,0,L|182:99,1,70,2|0,3:2|0:0,0:0:0:0:
136,178,35047,1,8,0:0:0:0:
136,178,35214,1,2,3:2:0:0:
90,100,35381,2,0,L|88:31,1,70,0|8,0:0|0:0,0:0:0:0:
12,145,35714,5,0,0:0:0:0:
12,145,35881,2,0,P|12:217|76:240,1,140,0|0,3:0|3:0,0:0:0:0:
153,270,36381,1,10,0:0:0:0:
153,270,36547,2,0,P|187:256|226:262,1,70,2|0,3:2|3:0,0:0:0:0:
293,315,36881,2,0,L|444:310,1,140,10|0,0:2|0:0,0:0:0:0:
483,146,37381,6,0,P|506:224|510:305,1,140,2|8,3:2|0:0,0:0:0:0:
422,380,37881,2,0,P|423:345|433:311,1,70,2|0,3:2|0:0,0:0:0:0:
429,220,38214,2,0,L|289:224,2,140,8|0|0,0:0|3:0|3:0,0:0:0:0:
483,62,39047,5,10,0:0:0:0:
483,62,39214,2,0,L|485:131,1,70,2|0,3:2|0:0,0:0:0:0:
391,135,39547,2,0,L|322:137,1,70,10|0,0:2|0:0,0:0:0:0:
264,64,39881,1,2,0:2:0:0:
210,141,40047,2,0,L|142:144,1,70,2|0,3:2|0:0,0:0:0:0:
98,225,40381,5,8,0:0:0:0:
98,225,40547,1,2,3:2:0:0:
48,146,40714,2,0,L|46:78,1,70,0|8,0:0|0:0,0:0:0:0:
141,2,41047,1,0,0:0:0:0:
141,2,41214,6,0,P|197:45|264:63,1,140,4|0,3:2|0:0,0:0:0:0:
336,8,41714,1,10,0:0:0:0:
428,56,41881,1,0,3:0:0:0:
428,56,41964,1,0,3:0:0:0:
428,56,42047,2,0,L|462:54,2,35,0|0|0,3:0|3:0|3:0,0:0:0:0:
346,119,42381,2,0,L|347:153,3,35,2|2|2|2,0:0|0:0|0:0|0:0,0:0:0:0:
349,199,42714,6,0,L|353:346,1,140,4|10,3:2|0:2,0:0:0:0:
261,346,43214,2,0,L|259:276,1,70,2|0,3:2|0:0,0:0:0:0:
248,185,43547,2,0,L|178:187,1,70,10|0,0:2|0:0,0:0:0:0:
165,277,43881,2,0,L|167:347,1,70,0|0,3:0|0:0,0:0:0:0:
76,358,44214,6,0,L|6:360,1,70,0|8,0:0|0:0,0:0:0:0:
3,268,44547,1,0,3:0:0:0:
3,268,44714,2,0,L|73:266,1,70,0|0,0:0|3:0,0:0:0:0:
69,174,45047,2,0,L|-1:176,1,70,8|0,0:0|0:0,0:0:0:0:
0,84,45381,6,0,P|18:20|106:16,1,140,2|8,3:2|0:0,0:0:0:0:
155,61,45881,2,0,P|187:73|242:62,1,70,2|0,3:2|0:0,0:0:0:0:
311,87,46214,1,8,0:0:0:0:
311,87,46381,2,0,P|343:99|398:88,1,70,0|0,0:0|3:0,0:0:0:0:
400,89,46631,1,8,0:0:0:0:
421,80,46714,6,0,L|466:86,3,35,0|8|0|0,3:0|0:0|3:0|0:0,0:0:0:0:
479,123,47047,2,0,L|473:168,3,35,10|2|2|10,0:0|0:0|3:2|0:0,0:0:0:0:
441,188,47381,2,0,L|406:183,2,35,2|2|10,3:2|0:0|0:0,0:0:0:0:
413,274,47714,2,0,L|407:319,3,35,2|2|2|2,0:0|0:0|0:0|0:0,0:0:0:0:
375,340,48047,6,0,B|314:332|314:332|305:336|305:336|232:327,1,140,6|8,3:2|0:0,0:0:0:0:
177,258,48547,2,0,L|107:266,1,70,0|0,3:2|0:0,0:0:0:0:
15,270,48881,2,0,P|2:240|9:194,1,70,8|0,0:2|0:0,0:0:0:0:
94,182,49214,2,0,L|163:173,1,70,0|0,3:0|0:0,0:0:0:0:
253,157,49547,6,0,L|322:148,1,70,0|8,0:0|0:0,0:0:0:0:
411,126,49880,2,0,P|414:91|400:59,1,70,0|0,3:0|0:0,0:0:0:0:
309,64,50214,1,8,0:0:0:0:
309,64,50381,2,0,L|239:72,1,70
171,11,50714,6,0,P|102:-4|39:30,1,140,0|8,3:0|0:0,0:0:0:0:
0,103,51214,2,0,L|8:173,1,70,0|0,3:0|0:0,0:0:0:0:
70,232,51547,2,0,L|78:302,1,70,10|2,0:0|0:0,0:0:0:0:
154,352,51881,6,0,B|181:361|181:361|265:340|265:340|295:349,1,140,2|0,3:2|3:0,0:0:0:0:
373,381,52381,1,8,0:0:0:0:
373,381,52547,2,0,B|453:356,1,70,0|0,3:0|3:0,0:0:0:0:
483,347,52797,1,0,3:0:0:0:
483,347,52881,1,10,0:0:0:0:
458,259,53047,2,0,B|449:224,3,35,2|0|0|0,3:2|3:0|3:0|3:0,0:0:0:0:
439,180,53381,6,0,P|379:213|289:210,1,140,6|8,3:2|0:0,0:0:0:0:
168,144,53881,2,0,P|203:145|234:162,1,70,2|0,3:2|0:0,0:0:0:0:
227,252,54214,2,0,P|165:272|122:222,2,140,8|0|0,0:0|3:0|3:0,0:0:0:0:
245,93,55047,5,8,0:0:0:0:
245,93,55214,2,0,L|233:162,1,70,2|0,0:0|0:0,0:0:0:0:
308,215,55547,2,0,L|323:127,1,70,10|0,0:0|0:0,0:0:0:0:
379,76,55881,1,2,0:0:0:0:
413,161,56047,6,0,L|402:231,1,70,2|0,3:2|0:0,0:0:0:0:
467,294,56381,1,8,0:0:0:0:
467,294,56547,1,2,3:2:0:0:
489,205,56714,2,0,L|501:136,1,70,0|8,0:0|0:0,0:0:0:0:
467,2,57047,5,0,0:0:0:0:
467,2,57214,2,0,P|444:65|378:75,1,140,0|0,3:0|0:0,0:0:0:0:
291,91,57714,1,10,0:0:0:0:
291,91,57881,2,0,L|218:103,1,70,2|0,3:2|0:0,0:0:0:0:
153,46,58214,2,0,L|14:68,1,140,10|0,0:0|0:0,0:0:0:0:
55,252,58714,6,0,P|99:202|72:142,1,140,2|8,3:2|0:0,0:0:0:0:
0,4,59214,2,0,P|-2:38|14:69,1,70,2|0,3:2|0:0,0:0:0:0:
105,54,59547,2,0,L|243:31,2,140,8|0|0,0:0|3:0|3:0,0:0:0:0:
133,212,60381,5,10,0:0:0:0:
133,212,60547,2,0,L|121:142,1,70,2|0,3:2|0:0,0:0:0:0:
212,129,60881,2,0,L|223:198,1,70,10|0,0:2|0:0,0:0:0:0:
298,146,61214,1,2,0:0:0:0:
384,163,61381,6,0,L|373:94,1,70,2|0,3:2|0:0,0:0:0:0:
405,8,61714,1,8,0:0:0:0:
405,8,61881,1,2,3:2:0:0:
463,80,62047,2,0,L|474:148,1,70,0|8,0:0|0:0,0:0:0:0:
444,235,62381,1,0,0:0:0:0:
444,235,62547,6,0,L|471:396,1,140,4|0,3:2|0:0,0:0:0:0:
378,353,63047,1,10,0:0:0:0:
378,353,63214,2,0,L|297:339,1,70,2|0,3:2|3:0,0:0:0:0:
227,381,63547,1,8,0:0:0:0:
227,381,63714,2,0,L|186:374,2,35,2|2|2,0:0|0:0|0:0,0:0:0:0:
227,289,64047,6,0,L|233:248,4,35,2|2|2|2|2,0:0|0:0|0:0|0:0|0:0,0:0:0:0:
97,370,64547,1,2,0:0:0:0:
97,370,64631,1,2,0:0:0:0:
97,370,64714,6,0,B|93:306|93:306|98:295|98:295|93:205,2,140,6|2|2,0:2|0:0|0:0,0:0:0:0:
2,213,65714,5,10,0:0:0:0:
2,213,65881,2,0,L|-1:143,1,70,2|0,3:2|0:0,0:0:0:0:
61,77,66214,2,0,L|64:7,1,70,10|0,0:0|0:0,0:0:0:0:
155,5,66547,5,2,0:0:0:0:
155,5,66714,2,0,L|158:74,1,70,2|0,3:2|0:0,0:0:0:0:
114,154,67047,1,8,0:0:0:0:
114,154,67214,1,2,3:2:0:0:
217,210,67381,2,0,L|221:141,1,70,0|8,0:0|0:0,0:0:0:0:
272,28,67714,5,0,0:0:0:0:
272,28,67881,2,0,P|296:96|370:122,1,140,0|0,3:0|0:0,0:0:0:0:
447,109,68381,1,10,0:0:0:0:
447,109,68547,2,0,P|466:137|459:170,1,70,2|0,3:2|0:0,0:0:0:0:
465,261,68881,2,0,P|503:317|489:384,1,140,10|0,0:0|0:0,0:0:0:0:
289,384,69381,6,0,L|380:278,1,140,2|8,3:2|0:0,0:0:0:0:
510,208,69881,2,0,L|465:261,1,70,2|0,3:2|0:0,0:0:0:0:
405,191,70214,2,0,P|411:133|490:132,2,140,8|0|0,0:0|3:0|3:0,0:0:0:0:
502,317,71047,5,10,0:0:0:0:
502,317,71214,2,0,P|490:284|465:261,1,70,2|0,3:2|0:0,0:0:0:0:
375,276,71547,2,0,L|297:296,1,70,10|0,0:0|0:0,0:0:0:0:
256,369,71881,1,2,0:0:0:0:
204,293,72047,6,0,L|137:276,1,70,2|0,3:2|0:0,0:0:0:0:
47,260,72381,1,8,0:0:0:0:
47,260,72547,1,2,3:2:0:0:
62,170,72714,2,0,L|80:103,1,70,0|8,0:0|0:0,0:0:0:0:
96,12,73047,2,0,L|163:29,1,70,0|0,0:0|3:0,0:0:0:0:
187,68,73297,1,0,3:0:0:0:
187,68,73381,6,0,L|254:85,1,70,0|0,3:0|3:0,0:0:0:0:
344,104,73714,1,8,0:0:0:0:
283,172,73881,1,8,0:0:0:0:
351,230,74047,2,0,L|359:263,3,35,0|0|0|0,3:0|3:0|3:0|3:0,0:0:0:0:
393,295,74381,2,0,L|401:328,3,35,0|0|0|0,3:0|3:0|3:0|3:0,0:0:0:0:
435,358,74714,5,4,3:2:0:0:
256,192,74797,12,0,80381,0:0:0:0:
