osu file format v14

[General]
AudioFilename: audio.mp3
AudioLeadIn: 0
PreviewTime: 21393
Countdown: 0
SampleSet: Normal
StackLeniency: 0.7
Mode: 1
LetterboxInBreaks: 0
WidescreenStoryboard: 1

[Editor]
DistanceSpacing: 1.3
BeatDivisor: 2
GridSize: 32
TimelineZoom: 1

[Metadata]
Title:Fragrance
TitleUnicode:Fragrance
Artist:Tsukasa (Arte Refact)
ArtistUnicode:Tsukasa (Arte Refact)
Creator:[Zeth]
Version:Vulkin's Kantan
Source:HALFPIPE TOKYO
Tags:maimai+ PLUS electronic instrumental drum and n' bass dnb artcore vulkin
BeatmapID:3987137
BeatmapSetID:1929812

[Difficulty]
HPDrainRate:9.5
CircleSize:7
OverallDifficulty:3
ApproachRate:10
SliderMultiplier:1.4
SliderTickRate:1

[Events]
//Background and Video events
0,0,"98223673_p0_master1200.jpg",0,80
//Break Periods
//Storyboard Layer 0 (Background)
//Storyboard Layer 1 (Fail)
//Storyboard Layer 2 (Pass)
//Storyboard Layer 3 (Foreground)
//Storyboard Layer 4 (Overlay)
//Storyboard Sound Samples

[TimingPoints]
60,333.333333333333,4,1,0,60,1,0
21226,-100,4,1,0,80,0,0
21393,-100,4,1,0,80,0,1
31726,-100,4,1,0,80,0,0
32059,-100,4,1,0,80,0,1
42726,-100,4,1,0,80,0,0
53393,-100,4,1,0,80,0,1
64059,-100,4,1,0,80,0,0
64726,-100,4,1,0,80,0,1
74726,-100,4,1,0,80,0,0
74893,-100,4,1,0,60,0,0

[HitObjects]
256,192,60,5,0,0:0:0:0:
256,192,726,5,8,0:0:0:0:
256,192,2726,5,0,0:0:0:0:
256,192,3393,5,8,0:0:0:0:
256,192,4393,5,0,0:0:0:0:
256,192,4726,5,8,0:0:0:0:
256,192,5393,5,0,0:0:0:0:
256,192,6059,5,8,0:0:0:0:
256,192,8059,5,0,0:0:0:0:
256,192,8726,5,8,0:0:0:0:
256,192,9726,5,8,0:0:0:0:
256,192,10059,5,8,0:0:0:0:
256,192,10726,5,0,0:0:0:0:
256,192,11726,5,8,0:0:0:0:
256,192,12059,5,0,0:0:0:0:
256,192,13059,5,0,0:0:0:0:
256,192,13393,5,0,0:0:0:0:
256,192,14393,5,8,0:0:0:0:
256,192,14726,5,0,0:0:0:0:
256,192,15059,5,0,0:0:0:0:
256,192,15393,5,8,0:0:0:0:
256,192,16059,5,0,0:0:0:0:
256,192,17059,5,8,0:0:0:0:
256,192,17393,5,0,0:0:0:0:
256,192,18393,5,0,0:0:0:0:
256,192,18726,5,0,0:0:0:0:
256,192,19726,5,8,0:0:0:0:
256,192,20059,12,0,21059,0:0:0:0:
256,192,21393,5,4,0:0:0:0:
256,192,21893,5,0,0:0:0:0:
256,192,23059,5,0,0:0:0:0:
256,192,23559,5,0,0:0:0:0:
256,192,24059,5,8,0:0:0:0:
256,192,24559,5,8,0:0:0:0:
256,192,25726,5,8,0:0:0:0:
256,192,26226,5,8,0:0:0:0:
256,192,26726,5,0,0:0:0:0:
256,192,27226,5,0,0:0:0:0:
256,192,28393,5,0,0:0:0:0:
256,192,28893,5,0,0:0:0:0:
256,192,29393,5,8,0:0:0:0:
256,192,29893,5,8,0:0:0:0:
256,192,30393,5,0,0:0:0:0:
256,192,30726,5,8,0:0:0:0:
256,192,31059,5,0,0:0:0:0:
256,192,31393,5,0,0:0:0:0:
256,192,32059,5,4,0:0:0:0:
256,192,32559,5,0,0:0:0:0:
256,192,33726,5,0,0:0:0:0:
256,192,34226,5,0,0:0:0:0:
256,192,34726,5,8,0:0:0:0:
256,192,35226,5,8,0:0:0:0:
256,192,36393,5,8,0:0:0:0:
256,192,36893,5,8,0:0:0:0:
256,192,37393,5,0,0:0:0:0:
256,192,37893,5,0,0:0:0:0:
256,192,38726,5,8,0:0:0:0:
256,192,39059,5,0,0:0:0:0:
256,192,39559,5,0,0:0:0:0:
256,192,40059,5,8,0:0:0:0:
256,192,40559,5,8,0:0:0:0:
256,192,41059,5,0,0:0:0:0:
256,192,41393,5,8,0:0:0:0:
256,192,41726,5,0,0:0:0:0:
256,192,42059,5,8,0:0:0:0:
256,192,42726,5,4,0:0:0:0:
256,192,43226,5,0,0:0:0:0:
256,192,44559,5,0,0:0:0:0:
256,192,44892,5,8,0:0:0:0:
256,192,45393,5,8,0:0:0:0:
256,192,45893,5,8,0:0:0:0:
256,192,46726,5,0,0:0:0:0:
256,192,47059,5,0,0:0:0:0:
256,192,47393,5,8,0:0:0:0:
256,192,48059,5,4,0:0:0:0:
256,192,48559,5,0,0:0:0:0:
256,192,49893,5,0,0:0:0:0:
256,192,50226,5,8,0:0:0:0:
256,192,50726,5,8,0:0:0:0:
256,192,51226,5,8,0:0:0:0:
256,192,52059,5,8,0:0:0:0:
256,192,52393,5,0,0:0:0:0:
256,192,52726,5,8,0:0:0:0:
256,192,53393,5,4,0:0:0:0:
256,192,54059,5,0,0:0:0:0:
256,192,54393,5,8,0:0:0:0:
256,192,54726,5,8,0:0:0:0:
256,192,55226,5,8,0:0:0:0:
256,192,55726,5,0,0:0:0:0:
256,192,56226,5,0,0:0:0:0:
256,192,56726,5,8,0:0:0:0:
256,192,58059,5,8,0:0:0:0:
256,192,58726,5,0,0:0:0:0:
256,192,59393,5,0,0:0:0:0:
256,192,59726,5,8,0:0:0:0:
256,192,60059,5,8,0:0:0:0:
256,192,60559,5,0,0:0:0:0:
256,192,61059,5,8,0:0:0:0:
256,192,62059,5,0,0:0:0:0:
256,192,62559,5,8,0:0:0:0:
256,192,63059,5,0,0:0:0:0:
256,192,63393,5,8,0:0:0:0:
256,192,64059,5,8,0:0:0:0:
256,192,64726,5,4,0:0:0:0:
256,192,65393,5,8,0:0:0:0:
256,192,65893,5,8,0:0:0:0:
256,192,66393,5,0,0:0:0:0:
256,192,66893,5,0,0:0:0:0:
256,192,67393,5,8,0:0:0:0:
256,192,68726,5,8,0:0:0:0:
256,192,69393,5,0,0:0:0:0:
256,192,70059,5,0,0:0:0:0:
256,192,70559,5,8,0:0:0:0:
256,192,71393,5,0,0:0:0:0:
256,192,71726,5,8,0:0:0:0:
256,192,72059,5,0,0:0:0:0:
256,192,72726,5,0,0:0:0:0:
256,192,73059,5,8,0:0:0:0:
256,192,73393,5,8,0:0:0:0:
256,192,74059,5,8,0:0:0:0:
256,192,74726,5,4,0:0:0:0:
