osu file format v14

[General]
AudioFilename: audio.mp3
AudioLeadIn: 0
PreviewTime: 64416
Countdown: 0
SampleSet: Soft
StackLeniency: 0.7
Mode: 0
LetterboxInBreaks: 0
WidescreenStoryboard: 1

[Editor]
Bookmarks: 11083,16416,21750,32416,43083,48416,53750,59083,64416,67083,69750,75083,77750,80416
DistanceSpacing: 0.9
BeatDivisor: 3
GridSize: 32
TimelineZoom: 1.5

[Metadata]
Title:Futari wa Wasurechau (TV Size)
TitleUnicode:二人は忘れちゃう♡ (TV Size)
Artist:Tsukamoto Shimai (CV: Koshimizu Ami, Noto Mamiko)
ArtistUnicode:塚本姉妹 (CV:小清水亜美、能登麻美子)
Creator:Chaoslitz
Version:Collab Normal
Source:スクールランブル二学期
Tags:bossandy Sukuuru Ranburu School Rumble Ni Gakki Anime Japanese Ending Ed3 塚本天満 Tsukamoto Tenma 塚本八雲 Tsukamoto Yakumo IPPEI 中井雅 Nakai Miyabi 小林尽 Kobayashi Jin
BeatmapID:2332224
BeatmapSetID:1064345

[Difficulty]
HPDrainRate:3
CircleSize:3.8
OverallDifficulty:4
ApproachRate:5
SliderMultiplier:0.9
SliderTickRate:1

[Events]
//Background and Video events
Video,181,"video.avi"
0,0,"bg.jpg",0,0
//Break Periods
//Storyboard Layer 0 (Background)
//Storyboard Layer 1 (Fail)
//Storyboard Layer 2 (Pass)
//Storyboard Layer 3 (Foreground)
//Storyboard Layer 4 (Overlay)
//Storyboard Sound Samples

[TimingPoints]
417,333.333333333333,4,2,1,50,1,0
417,-111.111111111111,4,2,1,50,0,0
2250,-111.111111111111,4,2,1,10,0,0
2416,-111.111111111111,4,2,1,50,0,0
3083,-111.111111111111,4,2,1,50,0,0
5750,-111.111111111111,4,2,1,70,0,0
7083,-111.111111111111,4,2,1,70,0,0
7583,-111.111111111111,4,2,1,10,0,0
7750,-111.111111111111,4,2,1,70,0,0
8416,-111.111111111111,4,2,1,70,0,0
9750,-111.111111111111,4,2,3,90,0,0
10416,-111.111111111111,4,2,3,90,0,0
11083,-100,4,2,1,90,0,0
11416,-100,4,2,2,90,0,0
13305,-100,4,2,1,90,0,0
13750,-100,4,2,2,90,0,0
15972,-100,4,2,1,90,0,0
16416,-100,4,2,1,90,0,0
16750,-100,4,2,2,90,0,0
17972,-100,4,2,3,90,0,0
18083,-100,4,2,4,90,0,0
18416,-100,4,2,3,90,0,0
18750,-100,4,2,4,90,0,0
19083,-100,4,2,2,90,0,0
20639,-100,4,2,3,90,0,0
20750,-100,4,2,4,90,0,0
21305,-100,4,2,1,90,0,0
21416,-100,4,2,3,90,0,0
21750,-100,4,2,1,70,0,0
24083,-100,4,2,4,70,0,0
24416,-100,4,2,1,70,0,0
26750,-100,4,2,4,70,0,0
27083,-100,4,2,1,70,0,0
29416,-100,4,2,4,70,0,0
29750,-100,4,2,1,70,0,0
31416,-100,4,2,4,70,0,0
31639,-100,4,2,1,70,0,0
32083,-100,4,2,4,70,0,0
32416,-100,4,2,1,70,0,0
34750,-100,4,2,4,70,0,0
35083,-100,4,2,1,70,0,0
37416,-100,4,2,4,70,0,0
37750,-100,4,2,1,70,0,0
40083,-100,4,2,4,70,0,0
40416,-100,4,2,1,70,0,0
40750,-100,4,2,4,70,0,0
40972,-100,4,2,1,70,0,0
41416,-100,4,2,4,70,0,0
41639,-100,4,2,1,70,0,0
42083,-100,4,2,4,70,0,0
42250,-100,4,2,1,70,0,0
42639,-100,4,2,4,70,0,0
42750,-100,4,2,1,70,0,0
43083,-100,4,2,5,65,0,0
43416,-100,4,2,1,65,0,0
45416,-100,4,2,2,65,0,0
45639,-100,4,2,1,65,0,0
45750,-100,4,2,1,65,0,0
48083,-100,4,2,4,65,0,0
48416,-100,4,2,5,65,0,0
48749,-100,4,2,1,65,0,0
50750,-100,4,2,2,65,0,0
50972,-100,4,2,1,65,0,0
51083,-100,4,2,1,65,0,0
52750,-100,4,2,2,65,0,0
52972,-100,4,2,1,65,0,0
53416,-100,4,2,4,65,0,0
53750,-100,4,2,5,65,0,0
54083,-100,4,2,1,65,0,0
56083,-100,4,2,2,65,0,0
56306,-100,4,2,1,65,0,0
56416,-100,4,2,1,65,0,0
58750,-100,4,2,4,65,0,0
59083,-100,4,2,5,65,0,0
59416,-100,4,2,1,65,0,0
61416,-100,4,2,1,65,0,0
61417,-100,4,2,2,65,0,0
61639,-100,4,2,1,65,0,0
61750,-100,4,2,5,70,0,0
62083,-100,4,2,4,70,0,0
62305,-100,4,2,1,70,0,0
62416,-100,4,2,1,75,0,0
62750,-100,4,2,4,75,0,0
62972,-100,4,2,1,75,0,0
63083,-100,4,2,2,80,0,0
63416,-100,4,2,2,80,0,0
63750,-100,4,2,2,90,0,0
64416,-100,4,2,5,100,0,1
64750,-100,4,2,1,100,0,1
66083,-100,4,2,2,100,0,1
66416,-100,4,2,2,90,0,1
66750,-100,4,2,2,80,0,1
67083,-100,4,2,1,100,0,1
68750,-100,4,2,2,100,0,1
69083,-100,4,2,2,90,0,1
69416,-100,4,2,2,80,0,1
69750,-100,4,2,2,90,0,0
70083,-100,4,2,4,100,0,0
70416,-100,4,2,1,100,0,0
70750,-100,4,2,4,100,0,0
70972,-100,4,2,1,100,0,0
71416,-100,4,2,4,100,0,0
71639,-100,4,2,1,100,0,0
72083,-100,4,2,4,100,0,0
72416,-100,4,2,1,100,0,0
75083,-100,4,2,5,100,0,1
75417,-100,4,2,1,100,0,1
76750,-100,4,2,2,100,0,1
77083,-100,4,2,2,90,0,1
77416,-100,4,2,2,80,0,1
77750,-100,4,2,1,100,0,1
79417,-100,4,2,2,100,0,1
79750,-100,4,2,2,90,0,1
80083,-100,4,2,2,80,0,1
80416,-100,4,2,2,100,0,0
80750,-100,4,2,4,100,0,0
81083,-100,4,2,3,100,0,0
81416,-100,4,2,4,100,0,0
81639,-100,4,2,3,100,0,0
82083,-100,4,2,1,100,0,0
82305,-100,4,2,3,100,0,0
82416,-100,4,2,1,100,0,0
82750,-100,4,2,1,100,0,0
83083,-100,4,2,1,100,0,0
83416,-100,4,2,4,100,0,0
83639,-100,4,2,1,100,0,0
84083,-100,4,2,4,100,0,0
84305,-100,4,2,1,100,0,0
84750,-100,4,2,4,100,0,0
84972,-100,4,2,1,100,0,0
85305,-100,4,2,4,100,0,0
85416,-100,4,2,4,100,0,0
85528,-100,4,2,1,100,0,0

[Colours]
Combo1 : 96,219,255
Combo2 : 251,177,190
Combo3 : 254,92,121
Combo4 : 177,234,251
SliderBorder : 239,92,169
SliderTrackOverride : 248,133,167

[HitObjects]
41,353,417,6,0,P|38:349|67:236,2,121.499996292114,2|0|0,0:0|0:0|0:0,0:0:0:0:
104,306,1750,2,0,B|184:278|176:355|256:328,1,161.999995056153,2|2,0:0|0:0,0:0:0:0:
382,225,3083,22,0,L|395:99,2,121.499996292114,2|0|0,0:0|0:0|0:0,0:0:0:0:
319,276,4416,1,2,0:0:0:0:
394,305,4750,2,0,B|401:317|401:317|393:392,2,80.9999975280763,2|2|0,3:2|0:0|0:0,0:0:0:0:
319,276,5750,22,0,L|194:288,2,121.499996292114,14|0|0,0:1|0:0|0:0,0:0:0:0:
382,225,7083,2,0,P|399:197|326:117,1,161.999995056153,2|2,0:1|0:0,0:0:0:0:
256,159,8083,1,0,3:0:0:0:
185,117,8416,22,0,P|182:113|211:0,2,121.499996292114,10|0|0,0:1|0:0|0:0,0:0:0:0:
256,159,9750,1,10,0:0:0:0:
238,241,10083,1,10,0:0:0:0:
155,249,10416,1,10,0:0:0:0:
122,172,10750,1,10,0:0:0:0:
185,117,11083,38,0,P|192:72|176:28,1,90,14|8,0:1|0:0,0:0:0:0:
100,4,11750,1,10,0:1:0:0:
32,44,12083,1,8,0:0:0:0:
16,124,12416,2,0,L|24:220,1,90,2|10,0:0|0:0,0:0:0:0:
32,268,12972,2,0,L|121:260,1,90,2|2,0:0|0:0,0:0:0:0:
176,320,13639,21,2,0:0:0:0:
192,340,13750,2,0,L|288:336,1,90,10|8,0:1|0:0,0:0:0:0:
252,260,14416,1,10,0:1:0:0:
272,180,14750,1,8,0:0:0:0:
228,112,15083,2,0,P|180:124|138:115,1,90,2|10,0:0|0:0,0:0:0:0:
92,92,15639,2,0,L|100:-8,2,90,2|2|2,0:0|0:0|0:0,0:0:0:0:
70,108,16416,22,0,B|46:146|46:146|64:200,1,90,14|8,0:1|0:0,0:0:0:0:
127,237,17083,1,10,0:1:0:0:
201,202,17416,1,8,0:0:0:0:
268,250,17750,2,0,L|258:338,1,60,2|10,0:0|0:1,0:0:0:0:
274,333,18083,1,10,0:1:0:0:
349,362,18416,2,0,P|358:366|411:329,1,60,10|2,0:1|0:1,0:0:0:0:
422,332,18750,2,0,P|428:323|414:260,1,60,10|2,0:1|0:1,0:0:0:0:
411,255,19083,22,0,L|420:158,1,90,10|8,0:1|0:0,0:0:0:0:
481,112,19750,1,10,0:1:0:0:
429,50,20083,1,8,0:0:0:0:
366,102,20416,2,0,L|285:109,1,60,2|10,0:0|0:1,0:0:0:0:
290,85,20750,1,10,0:1:0:0:
243,19,21083,2,0,L|142:28,1,90,10|10,0:1|0:1,0:0:0:0:
75,50,21750,6,0,L|67:164,1,90,12|10,0:1|0:0,0:0:0:0:
35,212,22416,2,0,L|30:271,1,60,10|2,0:3|0:0,0:0:0:0:
61,347,22972,1,10,0:3:0:0:
163,314,23416,2,0,L|278:319,1,90,8|8,0:0|0:1,0:0:0:0:
314,370,24083,2,0,P|337:333|329:301,1,60,10|2,0:1|0:0,0:0:0:0:
330,291,24416,5,8,0:1:0:0:
303,214,24750,2,0,L|403:223,1,90,10|10,0:0|0:3,0:0:0:0:
446,224,25305,2,0,P|466:174|450:119,1,90,2|10,0:0|0:3,0:0:0:0:
371,77,26083,2,0,L|258:86,1,90,8|8,0:0|0:1,0:0:0:0:
220,138,26750,2,0,P|178:125|155:96,1,60,10|2,0:0|0:1,0:0:0:0:
152,91,27083,37,12,0:1:0:0:
91,37,27416,2,0,B|50:64|50:64|25:107,1,90,10|10,0:0|0:3,0:0:0:0:
31,153,27972,2,0,L|33:246,1,90,2|10,0:0|0:3,0:0:0:0:
128,293,28750,2,0,L|126:203,1,90,8|8,0:0|0:1,0:0:0:0:
196,163,29416,2,0,B|228:169|228:169|253:158,1,60,10|2,0:1|0:0,0:0:0:0:
277,146,29750,5,10,0:3:0:0:
350,111,30083,1,8,0:0:0:0:
424,143,30416,1,8,0:1:0:0:
499,113,30750,2,0,L|489:19,1,90,10|0,0:0|0:0,0:0:0:0:
409,32,31416,2,0,P|374:35|336:29,1,60,10|0,0:1|3:0,0:0:0:0:
322,26,31750,1,8,0:1:0:0:
244,3,32083,2,0,P|209:0|171:6,1,60,10|2,0:1|0:0,0:0:0:0:
159,14,32416,5,12,0:1:0:0:
86,49,32750,2,0,B|62:87|62:87|80:141,1,90,10|10,0:0|0:3,0:0:0:0:
106,174,33305,2,0,L|218:163,1,90,2|10,0:0|0:3,0:0:0:0:
222,268,34083,2,0,L|334:257,1,90,8|8,0:0|0:1,0:0:0:0:
388,233,34750,2,0,P|427:273|424:290,1,60,10|2,0:1|0:0,0:0:0:0:
423,298,35083,5,8,0:1:0:0:
375,366,35416,1,10,0:0:0:0:
306,319,35750,2,0,L|313:243,1,60,10|2,0:3|0:0,0:0:0:0:
262,193,36305,2,0,L|272:74,1,120,10|8,0:3|0:0,0:0:0:0:
224,7,37083,1,8,0:1:0:0:
158,56,37416,2,0,P|105:77|92:72,1,60,10|2,0:0|0:1,0:0:0:0:
81,64,37750,37,12,0:1:0:0:
13,113,38083,1,10,0:0:0:0:
39,192,38416,2,0,L|32:268,1,60,10|2,0:3|0:0,0:0:0:0:
57,331,38972,2,0,P|63:337|185:323,1,120,10|8,0:3|0:0,0:0:0:0:
201,267,39750,1,8,0:1:0:0:
248,335,40083,2,0,P|305:343|316:330,1,60,10|2,0:1|0:0,0:0:0:0:
322,328,40416,6,0,L|330:232,2,90,10|10|8,0:3|0:1|0:1,0:0:0:0:
390,375,41416,1,10,0:1:0:0:
465,340,41750,1,2,0:0:0:0:
430,265,42083,2,0,B|414:221|414:221|437:183,1,90,10|8,0:1|0:0,0:0:0:0:
453,132,42639,2,0,L|352:141,1,90,10|2,0:1|3:2,0:0:0:0:
336,144,43083,6,0,L|348:28,1,90,14|10,0:0|0:0,0:0:0:0:
276,12,43750,2,0,L|193:48,1,90,10|4,0:3|0:3,0:0:0:0:
184,128,44416,2,0,L|278:196,1,90,10|10,0:3|0:0,0:0:0:0:
200,240,45083,2,0,L|141:197,1,60,8|10,0:3|0:3,0:0:0:0:
132,188,45416,1,6,0:3:0:0:
64,144,45750,6,0,P|52:196|64:232,1,90,10|10,0:3|0:0,0:0:0:0:
60,312,46416,2,0,P|111:296|136:268,1,90,10|4,0:3|0:3,0:0:0:0:
205,231,47083,2,0,P|165:194|128:187,1,90,10|10,0:3|0:0,0:0:0:0:
134,270,47750,2,0,P|173:306|192:312,1,60,10|8,0:3|0:3,0:0:0:0:
204,312,48083,2,0,P|232:324|260:352,1,60,2|2,0:1|0:0,0:0:0:0:
252,370,48416,6,0,L|364:359,1,90,14|10,0:0|0:0,0:0:0:0:
409,316,49083,2,0,B|424:274|424:274|402:235,1,90,10|4,0:3|0:3,0:0:0:0:
329,197,49750,2,0,L|217:208,1,90,10|10,0:3|0:0,0:0:0:0:
166,167,50416,2,0,P|156:152|175:91,1,60,8|10,0:3|0:3,0:0:0:0:
172,89,50750,1,6,0:3:0:0:
245,54,51083,6,0,B|286:68|286:68|325:44,2,90,10|10|10,0:3|0:0|0:3,0:0:0:0:
179,8,52083,1,4,0:3:0:0:
106,43,52416,2,0,P|53:63|44:59,1,60,10|0,0:3|0:0,0:0:0:0:
29,52,52750,2,0,B|39:65|39:65|32:147,1,90,10|10,0:0|0:3,0:0:0:0:
85,200,53416,2,0,L|79:271,1,60,10|2,0:0|3:2,0:0:0:0:
100,280,53750,6,0,P|140:296|196:292,1,90,14|10,0:0|0:0,0:0:0:0:
240,236,54416,2,0,P|233:193|202:146,1,90,10|4,0:3|0:3,0:0:0:0:
132,136,55083,2,0,P|98:162|73:213,1,90,10|10,0:3|0:0,0:0:0:0:
100,280,55750,2,0,P|112:308|112:348,1,60,8|10,0:3|0:3,0:0:0:0:
108,364,56083,1,6,0:3:0:0:
188,356,56417,6,0,B|232:348|232:348|276:364,1,90,10|10,0:3|0:0,0:0:0:0:
340,316,57083,2,0,P|356:268|344:228,1,90,10|4,0:3|0:3,0:0:0:0:
280,184,57750,2,0,P|312:153|356:146,1,90,10|10,0:3|0:0,0:0:0:0:
432,180,58417,2,0,L|444:112,1,60,10|8,0:3|0:3,0:0:0:0:
428,100,58750,2,0,L|438:40,1,60,2|2,0:1|0:0,0:0:0:0:
424,20,59083,6,0,L|312:31,1,90,14|10,0:0|0:0,0:0:0:0:
267,75,59750,2,0,L|155:86,1,90,10|4,0:3|0:3,0:0:0:0:
110,130,60416,2,0,B|119:146|119:146|112:221,1,90,10|10,0:3|0:0,0:0:0:0:
117,297,61083,2,0,P|171:317|184:310,1,60,8|10,0:3|0:3,0:0:0:0:
193,305,61416,1,6,0:3:0:0:
267,340,61750,6,0,L|379:329,1,90,14|10,0:0|0:1,0:0:0:0:
431,366,62416,1,10,0:3:0:0:
424,284,62750,2,0,P|428:222|438:215,1,60,10|8,0:1|0:3,0:0:0:0:
444,212,63083,1,10,0:1:0:0:
481,140,63416,1,10,0:0:0:0:
457,62,63750,1,10,0:0:0:0:
385,25,64083,1,10,0:1:0:0:
307,49,64416,22,0,P|276:56|248:52,1,60,14|2,0:0|0:0,0:0:0:0:
224,40,64750,2,0,L|116:52,1,90,10|10,0:0|0:3,0:0:0:0:
52,56,65416,1,10,0:0:0:0:
28,104,65639,2,0,P|20:152|32:204,1,90,10|8,0:3|0:1,0:0:0:0:
40,216,66083,2,0,P|48:264|36:316,2,90,10|10|10,0:0|0:1|0:0,0:0:0:0:
116,184,67083,22,0,L|197:176,1,60,10|2,0:3|0:0,0:0:0:0:
198,192,67416,2,0,L|186:305,1,90,10|10,0:0|0:3,0:0:0:0:
199,364,68083,1,10,0:0:0:0:
247,341,68305,2,0,L|360:329,1,90,10|0,0:3|0:0,0:0:0:0:
361,319,68750,2,0,P|356:309|389:221,2,90,10|10|10,0:0|0:1|0:0,0:0:0:0:
434,285,69750,5,6,0:0:0:0:
448,204,70083,2,0,L|440:136,1,60,10|2,0:0|0:1,0:0:0:0:
344,100,70750,2,0,L|352:32,1,60,10|8,0:1|0:1,0:0:0:0:
332,24,71083,1,2,0:0:0:0:
260,60,71416,1,10,0:1:0:0:
184,28,71750,1,8,0:1:0:0:
112,60,72083,2,0,L|124:140,1,60,10|2,0:1|0:1,0:0:0:0:
124,144,72416,6,0,L|112:256,1,90,10|8,0:3|0:0,0:0:0:0:
104,312,73083,2,0,P|128:332|168:344,1,60,10|0,0:3|0:0,0:0:0:0:
180,336,73416,2,0,P|240:324|288:340,2,90,10|2|8,0:0|0:0|0:0,0:0:0:0:
108,372,74416,1,10,0:3:0:0:
36,332,74750,2,0,L|40:256,1,60,8|8,0:0|0:1,0:0:0:0:
25,249,75083,22,0,P|16:235|29:177,1,60,14|2,0:0|0:0,0:0:0:0:
32,170,75416,2,0,L|132:160,1,90,10|10,0:0|0:3,0:0:0:0:
154,237,76083,1,10,0:0:0:0:
194,201,76305,2,0,L|307:189,1,90,10|8,0:3|0:1,0:0:0:0:
308,179,76750,2,0,P|303:169|336:81,2,90,10|10|10,0:0|0:1|0:0,0:0:0:0:
381,145,77750,22,0,P|396:112|396:80,1,60,10|2,0:3|0:0,0:0:0:0:
396,60,78083,2,0,P|356:20|300:20,1,90,10|10,0:0|0:3,0:0:0:0:
248,40,78750,1,10,0:0:0:0:
200,68,78972,2,0,L|208:164,1,90,10|0,0:3|0:0,0:0:0:0:
192,180,79416,2,0,L|188:296,2,90,10|10|10,0:0|0:1|0:0,0:0:0:0:
124,135,80416,22,0,L|47:143,1,60,6|0,0:0|0:0,0:0:0:0:
49,164,80750,1,10,0:1:0:0:
88,236,81083,2,0,P|85:239|89:295,1,60,10|2,0:1|0:1,0:0:0:0:
123,362,81639,2,0,L|235:351,1,90,10|10,0:1|0:1,0:0:0:0:
237,340,82083,2,0,B|221:297|221:297|250:248,2,90,10|10|10,0:0|0:3|0:0,0:0:0:0:
311,306,83083,21,10,0:3:0:0:
362,368,83416,1,10,0:1:0:0:
424,317,83750,1,10,0:3:0:0:
373,255,84083,2,0,P|364:241|377:183,1,60,10|8,0:1|0:1,0:0:0:0:
380,176,84416,2,0,L|450:169,1,60,2|8,0:0|0:1,0:0:0:0:
459,189,84750,1,10,0:1:0:0:
506,121,85083,2,0,B|521:78|521:78|493:30,1,90,10|10,0:3|0:1,0:0:0:0:
430,87,85750,21,6,0:0:0:0:
