osu file format v14

[General]
AudioFilename: audio.mp3
AudioLeadIn: 0
PreviewTime: 2453
Countdown: 0
SampleSet: Normal
StackLeniency: 0.7
Mode: 1
LetterboxInBreaks: 0
WidescreenStoryboard: 0

[Editor]
DistanceSpacing: 1.2
BeatDivisor: 4
GridSize: 16
TimelineZoom: 1.5

[Metadata]
Title:Battle Fanfare
TitleUnicode:ラッキーマリオ、いってみよ~
Artist:Tsujiyoko Yuka
ArtistUnicode:辻横由佳
Creator:Kazaze
Version:Oni
Source:マリオストーリー
Tags:Video Game Instrumental Paper Story Lucky Mario Itte Miyo rpg n64 intelligent systems nintendo ost -Tenshi-
BeatmapID:2370371
BeatmapSetID:1134833

[Difficulty]
HPDrainRate:7
CircleSize:4
OverallDifficulty:5
ApproachRate:5
SliderMultiplier:1.4
SliderTickRate:1

[Events]
//Background and Video events
0,0,"bg.jpg",0,0
//Break Periods
//Storyboard Layer 0 (Background)
//Storyboard Layer 1 (Fail)
//Storyboard Layer 2 (Pass)
//Storyboard Layer 3 (Foreground)
//Storyboard Layer 4 (Overlay)
//Storyboard Sound Samples

[TimingPoints]
713,435.097897026831,4,1,0,70,1,0
2453,-100,4,1,0,70,0,1
16376,-100,4,1,0,45,0,0
21597,-100,4,1,0,70,0,0
30299,-100,4,1,0,70,0,1
44222,-100,4,1,0,45,0,0
49443,-100,4,1,0,70,0,0

[HitObjects]
192,160,713,5,0,0:0:0:0:
224,144,821,1,2,0:0:0:0:
240,128,1039,1,0,0:0:0:0:
176,224,1256,1,0,0:0:0:0:
224,240,1365,1,0,0:0:0:0:
224,240,1474,1,2,0:0:0:0:
208,224,1583,1,0,0:0:0:0:
256,240,1800,1,2,0:0:0:0:
256,240,2018,1,0,0:0:0:0:
272,240,2127,1,2,0:0:0:0:
272,240,2235,1,2,0:0:0:0:
320,160,2453,1,4,0:0:0:0:
208,240,2888,1,2,0:0:0:0:
160,224,3106,1,0,0:0:0:0:
160,208,3214,1,2,0:0:0:0:
192,224,3432,1,2,0:0:0:0:
176,224,3649,1,0,0:0:0:0:
192,208,3758,1,2,0:0:0:0:
192,224,3976,1,0,0:0:0:0:
208,224,4193,1,2,0:0:0:0:
320,272,4411,1,2,0:0:0:0:
320,272,4628,1,0,0:0:0:0:
272,256,4846,1,2,0:0:0:0:
288,224,5172,1,0,0:0:0:0:
256,208,5390,1,0,0:0:0:0:
256,240,5499,1,0,0:0:0:0:
272,192,5716,1,0,0:0:0:0:
288,224,5934,1,2,0:0:0:0:
128,240,6369,1,0,0:0:0:0:
192,240,6586,1,0,0:0:0:0:
192,240,6695,1,2,0:0:0:0:
192,192,6913,1,2,0:0:0:0:
224,192,7130,1,0,0:0:0:0:
320,208,7239,1,2,0:0:0:0:
320,224,7457,1,0,0:0:0:0:
256,240,7674,1,2,0:0:0:0:
256,224,7892,1,2,0:0:0:0:
272,208,8109,1,0,0:0:0:0:
160,240,8327,1,2,0:0:0:0:
176,256,8653,1,0,0:0:0:0:
176,192,8871,1,0,0:0:0:0:
176,192,8979,1,2,0:0:0:0:
128,192,9197,1,2,0:0:0:0:
256,208,9414,1,0,0:0:0:0:
304,192,9632,1,2,0:0:0:0:
224,224,9741,1,2,0:0:0:0:
304,192,9850,1,0,0:0:0:0:
224,144,10067,1,0,0:0:0:0:
224,144,10176,1,0,0:0:0:0:
224,144,10393,1,2,0:0:0:0:
240,160,10611,1,0,0:0:0:0:
240,160,10720,1,0,0:0:0:0:
240,176,10937,1,2,0:0:0:0:
224,160,11155,1,0,0:0:0:0:
208,256,11372,1,2,0:0:0:0:
208,256,11481,1,2,0:0:0:0:
208,224,11590,1,0,0:0:0:0:
160,192,11807,1,0,0:0:0:0:
160,192,11916,1,0,0:0:0:0:
160,192,12134,1,2,0:0:0:0:
160,192,12351,1,0,0:0:0:0:
160,192,12460,1,0,0:0:0:0:
160,192,12678,1,2,0:0:0:0:
208,208,12895,1,0,0:0:0:0:
224,208,13113,1,2,0:0:0:0:
224,208,13222,1,2,0:0:0:0:
208,208,13330,1,0,0:0:0:0:
128,208,13548,1,0,0:0:0:0:
128,208,13657,1,0,0:0:0:0:
128,208,13874,1,2,0:0:0:0:
272,208,14092,1,0,0:0:0:0:
128,208,14201,1,0,0:0:0:0:
224,224,14418,1,2,0:0:0:0:
256,192,14781,1,2,0:0:0:0:
256,160,14926,1,2,0:0:0:0:
224,208,15071,1,0,0:0:0:0:
224,208,15216,1,0,0:0:0:0:
224,208,15361,1,2,0:0:0:0:
224,208,15506,1,2,0:0:0:0:
288,208,15941,1,6,0:0:0:0:
144,160,16376,1,0,0:0:0:0:
192,256,16594,1,2,0:0:0:0:
240,224,16811,1,0,0:0:0:0:
192,224,17029,1,0,0:0:0:0:
192,224,17137,1,0,0:0:0:0:
192,224,17355,1,0,0:0:0:0:
192,224,17573,1,0,0:0:0:0:
192,224,17681,1,2,0:0:0:0:
192,224,17899,1,0,0:0:0:0:
192,224,18116,1,2,0:0:0:0:
283,187,18334,1,0,0:0:0:0:
192,224,18552,1,0,0:0:0:0:
256,224,18769,1,2,0:0:0:0:
256,272,19095,1,2,0:0:0:0:
208,240,19313,1,2,0:0:0:0:
240,176,19422,1,0,0:0:0:0:
272,176,19639,1,0,0:0:0:0:
288,176,19857,1,2,0:0:0:0:
208,192,20183,1,2,0:0:0:0:
208,192,20292,1,2,0:0:0:0:
224,176,20401,1,0,0:0:0:0:
224,176,20618,1,0,0:0:0:0:
224,160,20836,1,0,0:0:0:0:
224,160,21053,1,0,0:0:0:0:
224,160,21162,1,2,0:0:0:0:
224,160,21380,1,0,0:0:0:0:
176,176,21742,1,2,0:0:0:0:
272,160,21887,1,2,0:0:0:0:
272,160,22032,1,0,0:0:0:0:
272,160,22177,1,0,0:0:0:0:
272,160,22322,1,2,0:0:0:0:
224,160,22467,1,2,0:0:0:0:
224,224,22902,1,6,0:0:0:0:
128,240,23338,1,0,0:0:0:0:
224,208,23555,1,2,0:0:0:0:
352,272,23664,1,0,0:0:0:0:
224,208,23773,1,0,0:0:0:0:
224,208,23881,1,2,0:0:0:0:
288,256,24099,1,0,0:0:0:0:
272,256,24317,1,0,0:0:0:0:
224,240,24534,1,0,0:0:0:0:
224,240,24643,1,2,0:0:0:0:
304,256,24860,1,2,0:0:0:0:
272,256,25187,1,2,0:0:0:0:
208,240,25513,1,2,0:0:0:0:
256,240,25731,1,0,0:0:0:0:
64,336,26093,1,0,0:0:0:0:
80,192,26238,1,0,0:0:0:0:
208,160,26383,1,2,0:0:0:0:
192,96,26528,1,2,0:0:0:0:
128,192,26673,1,0,0:0:0:0:
320,224,26818,1,0,0:0:0:0:
272,176,27036,1,0,0:0:0:0:
256,176,27253,1,2,0:0:0:0:
214,185,27362,1,0,0:0:0:0:
256,176,27471,1,2,0:0:0:0:
320,160,27689,1,0,0:0:0:0:
320,160,27906,1,0,0:0:0:0:
221,202,28015,1,0,0:0:0:0:
320,160,28124,1,2,0:0:0:0:
304,176,28341,1,2,0:0:0:0:
221,202,28450,1,0,0:0:0:0:
304,176,28559,1,0,0:0:0:0:
186,189,28668,1,2,0:0:0:0:
119,214,28994,1,2,0:0:0:0:
119,214,29103,1,0,0:0:0:0:
119,214,29211,1,2,0:0:0:0:
134,199,29320,1,0,0:0:0:0:
134,199,29429,1,2,0:0:0:0:
134,199,29538,1,2,0:0:0:0:
134,199,29647,1,0,0:0:0:0:
288,256,29864,1,0,0:0:0:0:
288,256,30082,1,2,0:0:0:0:
288,256,30190,1,2,0:0:0:0:
320,160,30299,1,4,0:0:0:0:
208,240,30734,1,2,0:0:0:0:
160,224,30952,1,0,0:0:0:0:
160,208,31061,1,2,0:0:0:0:
192,224,31278,1,2,0:0:0:0:
176,224,31496,1,0,0:0:0:0:
192,208,31604,1,2,0:0:0:0:
192,224,31822,1,0,0:0:0:0:
208,224,32040,1,2,0:0:0:0:
320,272,32257,1,2,0:0:0:0:
320,272,32475,1,0,0:0:0:0:
272,256,32692,1,2,0:0:0:0:
288,224,33019,1,0,0:0:0:0:
256,208,33236,1,0,0:0:0:0:
256,240,33345,1,0,0:0:0:0:
272,192,33562,1,0,0:0:0:0:
288,224,33780,1,2,0:0:0:0:
128,240,34215,1,0,0:0:0:0:
192,240,34433,1,0,0:0:0:0:
192,240,34541,1,2,0:0:0:0:
192,192,34759,1,2,0:0:0:0:
224,192,34976,1,0,0:0:0:0:
320,208,35085,1,2,0:0:0:0:
320,224,35303,1,0,0:0:0:0:
256,240,35520,1,2,0:0:0:0:
256,224,35738,1,2,0:0:0:0:
272,208,35955,1,0,0:0:0:0:
160,240,36173,1,2,0:0:0:0:
176,256,36499,1,0,0:0:0:0:
176,192,36717,1,0,0:0:0:0:
176,192,36826,1,2,0:0:0:0:
128,192,37043,1,2,0:0:0:0:
256,208,37261,1,0,0:0:0:0:
304,192,37478,1,2,0:0:0:0:
224,224,37587,1,2,0:0:0:0:
304,192,37696,1,0,0:0:0:0:
224,144,37913,1,0,0:0:0:0:
224,144,38022,1,0,0:0:0:0:
224,144,38240,1,2,0:0:0:0:
240,160,38457,1,0,0:0:0:0:
240,160,38566,1,0,0:0:0:0:
240,176,38784,1,2,0:0:0:0:
224,160,39001,1,0,0:0:0:0:
208,256,39219,1,2,0:0:0:0:
208,256,39327,1,2,0:0:0:0:
208,224,39436,1,0,0:0:0:0:
160,192,39654,1,0,0:0:0:0:
160,192,39763,1,0,0:0:0:0:
160,192,39980,1,2,0:0:0:0:
160,192,40198,1,0,0:0:0:0:
160,192,40306,1,0,0:0:0:0:
160,192,40524,1,2,0:0:0:0:
208,208,40742,1,0,0:0:0:0:
224,208,40959,1,2,0:0:0:0:
224,208,41068,1,2,0:0:0:0:
208,208,41177,1,0,0:0:0:0:
128,208,41394,1,0,0:0:0:0:
128,208,41503,1,0,0:0:0:0:
128,208,41720,1,2,0:0:0:0:
272,208,41938,1,0,0:0:0:0:
128,208,42047,1,0,0:0:0:0:
224,224,42264,1,2,0:0:0:0:
256,192,42627,1,2,0:0:0:0:
256,160,42772,1,2,0:0:0:0:
224,208,42917,1,0,0:0:0:0:
224,208,43062,1,0,0:0:0:0:
224,208,43207,1,2,0:0:0:0:
224,208,43352,1,2,0:0:0:0:
288,208,43787,1,6,0:0:0:0:
144,160,44222,1,0,0:0:0:0:
192,256,44440,1,2,0:0:0:0:
240,224,44657,1,0,0:0:0:0:
192,224,44875,1,0,0:0:0:0:
192,224,44984,1,0,0:0:0:0:
192,224,45201,1,0,0:0:0:0:
192,224,45419,1,0,0:0:0:0:
192,224,45528,1,2,0:0:0:0:
192,224,45745,1,0,0:0:0:0:
192,224,45963,1,2,0:0:0:0:
168,181,46180,1,0,0:0:0:0:
192,224,46398,1,0,0:0:0:0:
256,224,46615,1,2,0:0:0:0:
256,272,46942,1,2,0:0:0:0:
208,240,47159,1,2,0:0:0:0:
240,176,47268,1,0,0:0:0:0:
272,176,47486,1,0,0:0:0:0:
288,176,47703,1,2,0:0:0:0:
208,192,48029,1,2,0:0:0:0:
208,192,48138,1,2,0:0:0:0:
224,176,48247,1,0,0:0:0:0:
224,176,48464,1,0,0:0:0:0:
224,160,48682,1,0,0:0:0:0:
224,160,48900,1,0,0:0:0:0:
224,160,49008,1,2,0:0:0:0:
224,160,49226,1,0,0:0:0:0:
176,176,49588,1,2,0:0:0:0:
272,160,49734,1,2,0:0:0:0:
272,160,49879,1,0,0:0:0:0:
272,160,50024,1,0,0:0:0:0:
272,160,50169,1,2,0:0:0:0:
224,160,50314,1,2,0:0:0:0:
224,224,50749,1,6,0:0:0:0:
195,216,51184,1,0,0:0:0:0:
