osu file format v14

[General]
AudioFilename: audio.mp3
AudioLeadIn: 0
PreviewTime: 2453
Countdown: 0
SampleSet: Normal
StackLeniency: 0.7
Mode: 1
LetterboxInBreaks: 0
WidescreenStoryboard: 0

[Editor]
DistanceSpacing: 1.2
BeatDivisor: 2
GridSize: 16
TimelineZoom: 1

[Metadata]
Title:Battle Fanfare
TitleUnicode:ラッキーマリオ、いってみよ~
Artist:Tsujiyoko Yuka
ArtistUnicode:辻横由佳
Creator:Kazaze
Version:Kantan
Source:マリオストーリー
Tags:Video Game Instrumental Paper Story Lucky Mario Itte Miyo rpg n64 intelligent systems nintendo ost -Tenshi-
BeatmapID:2370370
BeatmapSetID:1134833

[Difficulty]
HPDrainRate:9
CircleSize:5
OverallDifficulty:2
ApproachRate:5
SliderMultiplier:1.4
SliderTickRate:1

[Events]
//Background and Video events
0,0,"bg.jpg",0,0
//Break Periods
//Storyboard Layer 0 (Background)
//Storyboard Layer 1 (Fail)
//Storyboard Layer 2 (Pass)
//Storyboard Layer 3 (Foreground)
//Storyboard Layer 4 (Overlay)
//Storyboard Sound Samples

[TimingPoints]
713,435.097897026831,4,1,0,70,1,0
2453,-100,4,1,0,70,0,1
16376,-100,4,1,0,45,0,0
21597,-100,4,1,0,70,0,0
30299,-100,4,1,0,70,0,1
44222,-100,4,1,0,45,0,0
49443,-100,4,1,0,70,0,0

[HitObjects]
320,208,713,5,0,0:0:0:0:
272,192,1583,1,0,0:0:0:0:
272,192,2018,1,2,0:0:0:0:
352,256,2453,1,4,0:0:0:0:
143,245,3758,1,2,0:0:0:0:
208,208,4193,1,0,0:0:0:0:
208,208,5063,1,0,0:0:0:0:
208,208,5499,1,0,0:0:0:0:
208,208,5934,1,2,0:0:0:0:
314,232,7239,1,0,0:0:0:0:
240,240,7674,1,2,0:0:0:0:
304,224,8544,1,0,0:0:0:0:
320,272,8979,1,2,0:0:0:0:
352,256,9414,1,0,0:0:0:0:
320,224,10285,1,0,0:0:0:0:
320,224,11155,1,2,0:0:0:0:
320,192,11590,1,0,0:0:0:0:
336,256,12025,1,0,0:0:0:0:
320,224,12895,1,2,0:0:0:0:
336,240,13765,1,0,0:0:0:0:
43,108,14201,1,2,0:0:0:0:
212,206,15506,1,0,0:0:0:0:
352,272,15941,5,6,0:0:0:0:
304,256,16811,1,0,0:0:0:0:
320,240,17681,1,2,0:0:0:0:
304,160,18116,1,0,0:0:0:0:
320,240,18987,1,0,0:0:0:0:
304,208,19857,1,2,0:0:0:0:
336,208,21162,1,2,0:0:0:0:
54,191,21597,1,0,0:0:0:0:
166,246,22467,1,0,0:0:0:0:
240,224,22902,5,6,0:0:0:0:
240,208,23338,1,0,0:0:0:0:
320,192,24208,1,0,0:0:0:0:
320,192,24643,1,2,0:0:0:0:
288,208,25513,1,2,0:0:0:0:
320,224,25948,1,0,0:0:0:0:
256,192,26818,1,0,0:0:0:0:
256,192,27253,1,0,0:0:0:0:
256,192,27689,1,2,0:0:0:0:
225,238,28124,1,2,0:0:0:0:
288,208,28559,1,0,0:0:0:0:
256,192,28994,12,0,29864,0:0:0:0:
320,240,30299,5,4,0:0:0:0:
333,123,31604,1,2,0:0:0:0:
208,208,32040,1,0,0:0:0:0:
208,208,32910,1,0,0:0:0:0:
208,208,33345,1,0,0:0:0:0:
208,208,33780,1,2,0:0:0:0:
258,238,35085,1,0,0:0:0:0:
240,240,35520,1,2,0:0:0:0:
304,224,36391,1,0,0:0:0:0:
320,272,36826,1,2,0:0:0:0:
352,256,37261,1,0,0:0:0:0:
320,224,38131,1,0,0:0:0:0:
320,224,39001,1,2,0:0:0:0:
320,192,39436,1,0,0:0:0:0:
336,256,39871,1,0,0:0:0:0:
320,224,40742,1,2,0:0:0:0:
336,240,41612,1,0,0:0:0:0:
100,188,42047,1,2,0:0:0:0:
140,247,43352,1,0,0:0:0:0:
352,272,43787,5,6,0:0:0:0:
304,256,44657,1,0,0:0:0:0:
320,240,45528,1,2,0:0:0:0:
304,160,45963,1,0,0:0:0:0:
320,240,46833,1,0,0:0:0:0:
304,208,47703,1,2,0:0:0:0:
336,208,49008,1,2,0:0:0:0:
134,186,49443,5,0,0:0:0:0:
110,169,50314,1,0,0:0:0:0:
240,224,50749,5,6,0:0:0:0:
156,211,51184,1,0,0:0:0:0:
