osu file format v14

[General]
AudioFilename: audio.mp3
AudioLeadIn: 0
PreviewTime: 2453
Countdown: 0
SampleSet: Normal
StackLeniency: 0.7
Mode: 1
LetterboxInBreaks: 0
WidescreenStoryboard: 0

[Editor]
DistanceSpacing: 1.2
BeatDivisor: 4
GridSize: 16
TimelineZoom: 1

[Metadata]
Title:Battle Fanfare
TitleUnicode:ラッキーマリオ、いってみよ~
Artist:Tsujiyoko Yuka
ArtistUnicode:辻横由佳
Creator:Kazaze
Version:Futsuu
Source:マリオストーリー
Tags:Video Game Instrumental Paper Story Lucky Mario Itte Miyo rpg n64 intelligent systems nintendo ost -Tenshi-
BeatmapID:2370023
BeatmapSetID:1134833

[Difficulty]
HPDrainRate:8
CircleSize:5
OverallDifficulty:3
ApproachRate:5
SliderMultiplier:1.4
SliderTickRate:1

[Events]
//Background and Video events
0,0,"bg.jpg",0,0
//Break Periods
//Storyboard Layer 0 (Background)
//Storyboard Layer 1 (Fail)
//Storyboard Layer 2 (Pass)
//Storyboard Layer 3 (Foreground)
//Storyboard Layer 4 (Overlay)
//Storyboard Sound Samples

[TimingPoints]
713,435.097897026831,4,1,0,70,1,0
2453,-100,4,1,0,70,0,1
16376,-100,4,1,0,45,0,0
21597,-100,4,1,0,70,0,0
30299,-100,4,1,0,70,0,1
44222,-100,4,1,0,45,0,0
49443,-100,4,1,0,70,0,0

[HitObjects]
320,208,713,5,0,0:0:0:0:
254,213,1148,1,2,0:0:0:0:
272,192,1583,1,0,0:0:0:0:
320,256,1800,1,2,0:0:0:0:
272,192,2018,1,2,0:0:0:0:
352,256,2453,1,4,0:0:0:0:
320,256,2888,1,2,0:0:0:0:
320,256,3758,1,2,0:0:0:0:
208,208,4193,1,0,0:0:0:0:
208,208,4411,1,0,0:0:0:0:
320,192,4628,1,2,0:0:0:0:
142,262,5063,1,0,0:0:0:0:
208,208,5499,1,0,0:0:0:0:
203,179,5716,1,0,0:0:0:0:
208,208,5934,1,2,0:0:0:0:
304,240,6369,1,0,0:0:0:0:
224,224,7239,1,0,0:0:0:0:
240,240,7674,1,2,0:0:0:0:
320,224,7892,1,2,0:0:0:0:
240,192,8109,1,0,0:0:0:0:
125,240,8544,1,0,0:0:0:0:
320,272,8979,1,2,0:0:0:0:
246,176,9197,1,2,0:0:0:0:
352,256,9414,1,0,0:0:0:0:
256,192,10285,1,0,0:0:0:0:
202,255,10720,1,2,0:0:0:0:
272,240,11155,1,0,0:0:0:0:
256,240,11372,1,2,0:0:0:0:
304,224,11590,1,0,0:0:0:0:
304,224,12025,1,0,0:0:0:0:
150,173,12460,1,2,0:0:0:0:
256,240,12895,1,2,0:0:0:0:
108,232,13113,1,0,0:0:0:0:
192,192,13330,1,0,0:0:0:0:
192,192,13765,1,0,0:0:0:0:
246,193,14201,1,2,0:0:0:0:
205,250,14418,1,0,0:0:0:0:
240,180,14781,1,2,0:0:0:0:
157,157,15506,1,0,0:0:0:0:
272,224,15941,5,6,0:0:0:0:
288,208,16594,1,2,0:0:0:0:
240,128,16811,1,0,0:0:0:0:
240,224,17246,1,0,0:0:0:0:
224,240,17681,1,2,0:0:0:0:
150,283,17899,1,2,0:0:0:0:
256,160,18116,1,0,0:0:0:0:
137,227,18552,1,2,0:0:0:0:
256,160,18987,1,0,0:0:0:0:
224,256,19422,1,0,0:0:0:0:
77,284,19639,1,0,0:0:0:0:
176,256,19857,1,2,0:0:0:0:
129,287,20727,1,0,0:0:0:0:
161,166,21162,1,2,0:0:0:0:
176,292,21380,1,0,0:0:0:0:
154,249,21742,1,0,0:0:0:0:
134,199,22467,1,0,0:0:0:0:
304,224,22902,5,6,0:0:0:0:
250,184,23338,1,0,0:0:0:0:
250,184,24208,1,0,0:0:0:0:
204,237,24643,1,2,0:0:0:0:
93,264,24860,1,2,0:0:0:0:
204,237,25513,1,2,0:0:0:0:
325,242,25948,1,0,0:0:0:0:
112,237,26383,1,2,0:0:0:0:
155,200,26818,1,0,0:0:0:0:
155,200,27036,1,0,0:0:0:0:
155,200,27253,1,0,0:0:0:0:
155,200,27689,1,2,0:0:0:0:
155,200,27906,1,2,0:0:0:0:
155,200,28124,1,2,0:0:0:0:
155,200,28559,1,0,0:0:0:0:
256,192,28994,12,0,29864,0:0:0:0:
352,256,30299,5,4,0:0:0:0:
320,256,30734,1,2,0:0:0:0:
320,256,31604,1,2,0:0:0:0:
208,208,32040,1,0,0:0:0:0:
208,208,32257,1,0,0:0:0:0:
320,192,32475,1,2,0:0:0:0:
142,262,32910,1,0,0:0:0:0:
208,208,33345,1,0,0:0:0:0:
221,157,33562,1,0,0:0:0:0:
208,208,33780,1,2,0:0:0:0:
304,240,34215,1,0,0:0:0:0:
224,224,35085,1,0,0:0:0:0:
240,240,35520,1,2,0:0:0:0:
320,224,35738,1,2,0:0:0:0:
240,192,35955,1,0,0:0:0:0:
125,240,36391,1,0,0:0:0:0:
320,272,36826,1,2,0:0:0:0:
276,229,37043,1,2,0:0:0:0:
352,256,37261,1,0,0:0:0:0:
256,192,38131,1,0,0:0:0:0:
330,171,38566,1,2,0:0:0:0:
272,240,39001,1,0,0:0:0:0:
256,240,39219,1,2,0:0:0:0:
304,224,39436,1,0,0:0:0:0:
304,224,39871,1,0,0:0:0:0:
139,227,40306,1,2,0:0:0:0:
256,240,40742,1,2,0:0:0:0:
86,166,40959,1,0,0:0:0:0:
192,192,41177,1,0,0:0:0:0:
192,192,41612,1,0,0:0:0:0:
176,246,42047,1,2,0:0:0:0:
260,209,42264,1,0,0:0:0:0:
176,208,42627,1,2,0:0:0:0:
176,246,43352,1,0,0:0:0:0:
272,224,43787,5,6,0:0:0:0:
288,208,44440,1,2,0:0:0:0:
240,128,44657,1,0,0:0:0:0:
240,224,45092,1,0,0:0:0:0:
224,240,45528,1,2,0:0:0:0:
101,220,45745,1,2,0:0:0:0:
256,160,45963,1,0,0:0:0:0:
101,220,46398,1,2,0:0:0:0:
256,160,46833,1,0,0:0:0:0:
224,256,47268,1,0,0:0:0:0:
304,188,47486,1,0,0:0:0:0:
176,256,47703,1,2,0:0:0:0:
96,224,48573,5,0,0:0:0:0:
208,256,49008,1,2,0:0:0:0:
256,272,49226,1,0,0:0:0:0:
166,273,49588,1,0,0:0:0:0:
112,238,50314,1,0,0:0:0:0:
304,224,50749,5,6,0:0:0:0:
215,248,51184,1,0,0:0:0:0:
