osu file format v14

[General]
AudioFilename: audio.mp3
AudioLeadIn: 0
PreviewTime: 63528
Countdown: 0
SampleSet: Soft
StackLeniency: 0.7
Mode: 0
LetterboxInBreaks: 0
WidescreenStoryboard: 0

[Editor]
DistanceSpacing: 1.5
BeatDivisor: 4
GridSize: 4
TimelineZoom: 1

[Metadata]
Title:Kaze ni Naru
TitleUnicode:風になる
Artist:Tsuji Ayano
ArtistUnicode:つじあやの
Creator:alacat
Version:Special Blend
Source:猫の恩返し
Tags:studio ghibli Delis Pata-Mon Neko no Ongaeshi The Cat Returns
BeatmapID:1154292
BeatmapSetID:544724

[Difficulty]
HPDrainRate:7
CircleSize:4
OverallDifficulty:7.5
ApproachRate:8
SliderMultiplier:1.8
SliderTickRate:1

[Events]
//Background and Video events
0,0,"BGN.jpg",0,0
//Break Periods
//Storyboard Layer 0 (Background)
//Storyboard Layer 1 (Fail)
//Storyboard Layer 2 (Pass)
//Storyboard Layer 3 (Foreground)
//Storyboard Sound Samples

[TimingPoints]
7722,444.675016675313,4,2,1,40,1,0
7722,-166.666666666667,4,2,1,40,0,0
14836,-166.666666666667,4,2,1,50,0,0
21951,-100,4,2,1,60,0,0
50410,-125,4,2,1,50,0,0
59081,-125,4,2,1,30,0,0
59304,-125,4,2,1,50,0,0
61083,-100,4,2,1,60,0,0
64640,-100,4,2,1,70,0,1
75646,-100,4,2,1,20,0,1
75757,-100,4,2,1,70,0,1
89875,-100,4,2,1,20,0,1
89986,-100,4,2,1,70,0,1
91320,-100,4,2,1,60,0,0
93099,-100,4,2,1,40,0,0
94878,-100,4,2,1,60,0,0
101770,-100,4,2,1,40,0,0
101993,-100,4,2,1,60,0,0
123337,-125,4,2,1,40,0,0
134009,-100,4,2,1,60,0,0
134343,-100,4,2,1,40,0,0
134454,-100,4,2,1,60,0,0
136121,-100,4,2,1,40,0,0
136233,-100,4,2,1,60,0,0
137567,-100,4,2,1,70,0,1
148572,-100,4,2,1,20,0,1
148683,-100,4,2,1,70,0,1
162468,-100,4,2,1,60,0,1
163358,-100,4,2,1,50,0,1
164247,-100,4,2,1,40,0,0
166026,-100,4,2,1,5,0,0

[Colours]
Combo1 : 255,226,140
Combo2 : 190,255,125
Combo3 : 151,198,255
Combo4 : 250,163,175

[HitObjects]
60,252,7722,6,0,P|112:248|164:264,1,107.999996704102,2|0,0:0|0:0,0:0:0:0:
224,328,8389,1,2,0:0:0:0:
224,328,9056,2,0,L|280:320,1,53.9999983520508,2|0,0:0|0:0,0:0:0:0:
364,308,9500,1,2,0:0:0:0:
220,212,9945,2,0,P|164:224|108:232,2,107.999996704102
348,96,11279,6,0,L|456:108,1,107.999996704102,2|0,0:0|0:0,0:0:0:0:
488,28,11946,1,2,0:0:0:0:
256,144,12613,2,0,L|200:152,1,53.9999983520508,2|0,0:0|0:0,0:0:0:0:
120,128,13058,2,0,P|112:188|116:236,1,107.999996704102,2|0,0:0|0:0,0:0:0:0:
40,276,13725,1,0,0:0:0:0:
8,196,13947,1,2,0:0:0:0:
36,116,14169,1,0,0:0:0:0:
112,80,14392,2,0,L|168:88,1,53.9999983520508
232,144,14836,5,2,0:0:0:0:
232,144,15059,2,0,L|288:136,1,53.9999983520508
352,80,15503,2,0,P|408:88|448:124,1,107.999996704102,2|0,0:0|0:0,0:0:0:0:
508,172,16170,2,0,L|500:232,1,53.9999983520508,2|0,0:0|0:0,0:0:0:0:
448,292,16615,2,0,B|396:304|396:272|340:288,1,107.999996704102,2|0,0:0|0:0,0:0:0:0:
180,352,17504,2,0,B|233:336|233:368|285:356,1,107.999996704102,2|0,0:0|0:0,0:0:0:0:
348,196,18394,5,2,0:0:0:0:
356,168,19283,1,2,0:0:0:0:
368,132,20172,2,0,P|312:128|260:132,1,107.999996704102,2|0,0:0|0:0,0:0:0:0:
144,248,20839,5,0,0:0:0:0:
304,232,21062,1,8,0:3:0:0:
164,156,21284,1,4,0:3:0:0:
164,156,21395,1,8,0:0:0:0:
164,156,21506,1,8,0:0:0:0:
228,292,21729,1,8,0:3:0:0:
388,216,21951,5,4,0:0:0:0:
388,216,22396,2,0,P|432:216|480:220,1,90,8|0,0:0|0:0,0:0:0:0:
316,156,22840,1,0,0:0:0:0:
228,292,23063,1,0,0:0:0:0:
388,216,23285,1,8,0:0:0:0:
232,196,23507,1,0,0:0:0:0:
304,348,23730,6,0,P|384:356|440:284,1,180,2|8,0:0|0:0,0:0:0:0:
228,292,24397,1,0,0:0:0:0:
228,292,24619,2,0,P|180:292|136:296,1,90
256,212,25064,1,8,0:0:0:0:
304,348,25286,1,0,0:0:0:0:
406,256,25509,6,0,P|342:198|256:212,1,180,2|8,0:0|0:0,0:0:0:0:
112,96,26176,1,0,0:0:0:0:
88,192,26398,2,0,P|132:187|174:172,1,90
32,52,26843,1,8,0:0:0:0:
4,224,27065,1,0,0:0:0:0:
216,248,27287,6,0,P|200:148|196:68,1,180,2|8,0:0|0:0,0:0:0:0:
312,128,27954,1,0,0:0:0:0:
312,128,28177,2,0,P|312:80|316:36,1,90
424,164,28621,2,0,P|430:116|440:73,1,90,8|0,0:0|0:0,0:0:0:0:
504,260,29066,6,0,P|416:240|324:228,1,180,2|8,0:0|0:0,0:0:0:0:
160,220,29733,2,0,P|172:300|252:284,1,180
312,128,30400,1,8,0:0:0:0:
340,324,30622,1,0,0:0:0:0:
156,196,30845,6,0,B|88:192|20:224|20:224|48:188,1,180,2|8,0:0|0:0,0:0:0:0:
140,96,31512,1,0,0:0:0:0:
140,96,31734,2,0,P|184:108|236:108,1,90
88,24,32179,1,8,0:0:0:0:
4,128,32401,1,0,0:0:0:0:
156,196,32623,5,2,0:0:0:0:
168,216,33068,1,8,0:0:0:0:
168,216,33290,2,0,P|260:204|352:196,1,180
488,296,33957,1,8,0:0:0:0:
388,288,34180,1,0,0:0:0:0:
408,128,34402,5,2,0:0:0:0:
388,288,34624,2,0,P|340:292|296:300,1,90,0|8,0:0|0:0,0:0:0:0:
192,360,35069,1,0,0:0:0:0:
276,224,35291,1,0,0:0:0:0:
128,308,35514,1,0,0:0:0:0:
284,200,35736,1,8,0:0:0:0:
112,232,35958,1,0,0:0:0:0:
292,176,36181,5,2,0:0:0:0:
304,148,36625,2,0,P|261:157|212:168,1,90,8|0,0:0|0:0,0:0:0:0:
132,116,37070,1,0,0:0:0:0:
288,236,37292,2,0,P|331:245|380:256,1,90,0|8,0:0|0:0,0:0:0:0:
460,204,37737,1,0,0:0:0:0:
272,324,37959,6,0,P|229:333|180:344,2,90,2|0|8,0:0|0:0|0:0,0:0:0:0:
368,344,38626,1,0,0:0:0:0:
204,256,38849,1,0,0:0:0:0:
400,336,39071,1,0,0:0:0:0:
204,256,39293,1,8,0:0:0:0:
432,324,39516,1,0,0:0:0:0:
204,256,39738,6,0,P|184:180|264:144,1,180,2|8,0:0|0:0,0:0:0:0:
256,352,40405,2,0,P|164:328|76:320,1,180
140,144,41072,1,8,0:0:0:0:
204,256,41294,1,0,0:0:0:0:
4,360,41517,6,0,P|8:316|12:268,1,90,2|0,0:0|0:0,0:0:0:0:
64,72,41961,1,8,0:0:0:0:
104,236,42184,1,0,0:0:0:0:
226,128,42406,2,0,P|181:127|139:143,1,90
11,270,42851,1,8,0:0:0:0:
180,300,43073,1,0,0:0:0:0:
44,152,43296,5,2,0:0:0:0:
64,124,43740,1,8,0:0:0:0:
64,124,43963,2,0,P|68:216|84:304,1,180
152,376,44630,1,8,0:0:0:0:
0,320,44852,1,0,0:0:0:0:
152,196,45074,6,0,B|244:172|244:236|328:208,1,180,2|8,0:0|0:0,0:0:0:0:
288,128,45741,1,2,0:0:0:0:
192,272,45964,1,0,0:0:0:0:
300,104,46186,1,0,0:0:0:0:
192,272,46408,2,0,P|184:316|192:360,1,90,8|0,0:0|0:0,0:0:0:0:
280,228,46853,6,0,L|100:252,1,180,2|8,0:0|0:0,0:0:0:0:
276,320,47520,1,0,0:0:0:0:
276,320,47742,2,0,L|368:332,1,90,2|0,0:0|0:0,0:0:0:0:
412,244,48187,1,8,0:0:0:0:
192,312,48409,1,0,0:0:0:0:
365,331,48632,6,0,L|457:343,2,90,2|0|8,0:0|0:0|0:0,0:0:0:0:
304,256,49299,1,2,0:0:0:0:
256,372,49521,1,0,0:0:0:0:
365,331,49743,1,2,0:0:0:0:
147,331,49966,1,8,0:0:0:0:
147,331,50077,1,8,0:0:0:0:
147,331,50188,1,4,0:3:0:0:
256,228,50410,6,0,L|256:372,1,144,4|8,0:0|0:0,0:0:0:0:
365,331,51077,2,0,L|365:259,1,72
328,172,51522,2,0,L|328:100,1,72,0|8,0:0|0:0,0:0:0:0:
256,40,51967,1,0,0:0:0:0:
164,24,52189,6,0,P|92:36|36:84,1,144,2|8,0:0|0:0,0:0:0:0:
4,168,52856,1,0,0:0:0:0:
87,210,53078,1,0,0:0:0:0:
129,126,53301,1,0,0:0:0:0:
4,168,53523,1,8,0:0:0:0:
43,293,53745,1,0,0:0:0:0:
168,252,53968,6,0,P|242:252|310:272,1,144,2|8,0:0|0:0,0:0:0:0:
344,360,54635,2,0,P|418:360|486:340,1,144
508,248,55302,1,8,0:0:0:0:
440,184,55524,1,0,0:0:0:0:
360,232,55746,6,0,P|291:212|219:212,1,144,2|8,0:0|0:0,0:0:0:0:
132,244,56413,1,0,0:0:0:0:
208,300,56636,1,0,0:0:0:0:
146,153,56858,1,0,0:0:0:0:
40,260,57080,1,8,0:0:0:0:
220,212,57303,1,0,0:0:0:0:
67,119,57525,6,0,P|48:188|40:260,1,144,2|8,0:0|0:0,0:0:0:0:
88,340,58192,2,0,P|124:336|160:336,1,72
246,299,58637,1,0,0:0:0:0:
246,299,58859,2,0,P|282:303|318:303,1,72,8|2,0:0|0:0,0:0:0:0:
162,195,59304,6,0,B|186:267|134:267|162:343,1,144,2|8,0:0|0:0,0:0:0:0:
246,299,59971,1,0,0:0:0:0:
80,232,60193,1,0,0:0:0:0:
276,212,60415,1,2,0:3:0:0:
60,144,60638,1,8,0:0:0:0:
308,124,60860,1,8,0:3:0:0:
103,53,61083,6,0,L|80:232,1,180,4|8,0:0|0:0,0:0:0:0:
256,376,61750,2,0,L|232:197,1,180,4|4,0:0|0:3,0:0:0:0:
220,100,62417,1,8,0:0:0:0:
156,272,62639,1,4,0:3:0:0:
316,140,62861,6,0,P|412:148|468:208,1,180,4|8,0:0|0:0,0:0:0:0:
344,368,63528,2,0,P|296:360|248:356,1,90,4|0,0:0|0:0,0:0:0:0:
400,300,63973,2,0,P|448:292|496:288,2,90,4|8|0,0:3|0:0|0:0,0:0:0:0:
176,332,64640,6,0,P|120:272|160:196,1,180,4|8,0:0|0:0,0:0:0:0:
316,124,65307,1,2,0:0:0:0:
220,97,65529,1,2,0:0:0:0:
327,154,65752,1,0,0:0:0:0:
232,128,65974,1,8,0:0:0:0:
136,102,66196,1,0,0:0:0:0:
256,216,66419,6,0,P|348:200|436:200,1,180,2|8,0:0|0:0,0:0:0:0:
496,276,67086,1,2,0:0:0:0:
468,116,67308,1,2,0:0:0:0:
348,236,67530,1,0,0:0:0:0:
456,32,67753,1,8,0:0:0:0:
348,236,67975,1,0,0:0:0:0:
220,112,68197,6,0,P|128:96|40:96,1,180,2|8,0:0|0:0,0:0:0:0:
264,200,68864,2,0,L|236:20,1,180,2|2,0:0|0:0,0:0:0:0:
112,176,69531,2,0,L|100:268,1,90,8|0,0:0|0:0,0:0:0:0:
248,372,69976,5,2,0:0:0:0:
228,276,70198,1,0,0:0:0:0:
68,356,70421,2,0,P|112:356|155:343,1,90,8|2,0:0|0:0,0:0:0:0:
212,180,70865,1,0,0:0:0:0:
320,308,71088,1,2,0:0:0:0:
136,244,71310,1,8,0:0:0:0:
280,112,71532,1,0,0:0:0:0:
408,284,71755,6,0,L|228:276,1,180,2|8,0:0|0:0,0:0:0:0:
300,200,72422,1,0,0:0:0:0:
248,372,72644,2,0,L|156:368,1,90,2|0,0:0|0:0,0:0:0:0:
300,200,73089,2,0,L|389:203,1,90,8|0,0:0|0:0,0:0:0:0:
224,276,73533,6,0,P|188:204|232:120,1,180,2|8,0:0|0:0,0:0:0:0:
300,200,74200,1,0,0:0:0:0:
132,296,74423,2,0,P|88:288|40:288,1,90,2|0,0:0|0:0,0:0:0:0:
230,121,74867,1,8,0:0:0:0:
132,296,75090,1,0,0:0:0:0:
16,176,75312,6,0,P|8:112|40:48,1,135,2|0,0:0|0:0,0:0:0:0:
120,92,75757,2,0,L|212:92,1,90,8|2,0:0|0:0,0:0:0:0:
372,44,76201,1,0,0:0:0:0:
276,20,76424,1,2,0:0:0:0:
164,180,76646,2,0,L|72:180,1,90,8|2,0:0|0:0,0:0:0:0:
104,60,77091,5,2,0:0:0:0:
176,196,77313,1,0,0:0:0:0:
176,196,77424,1,0,0:0:0:0:
176,196,77535,1,8,0:0:0:0:
304,136,77758,1,2,0:0:0:0:
92,40,77980,1,4,0:3:0:0:
188,216,78202,1,8,0:0:0:0:
312,112,78425,1,8,0:0:0:0:
312,112,78536,1,8,0:0:0:0:
312,112,78647,1,4,0:3:0:0:
200,236,78870,6,0,P|108:236|16:244,1,180,4|8,0:0|0:0,0:0:0:0:
136,136,79537,1,2,0:0:0:0:
136,136,79759,2,0,P|88:132|40:132,1,90,2|0,0:0|0:0,0:0:0:0:
216,40,80204,2,0,P|168:36|120:36,1,90,8|0,0:0|0:0,0:0:0:0:
280,192,80648,6,0,P|292:96|320:16,1,180,2|8,0:0|0:0,0:0:0:0:
432,148,81315,1,2,0:0:0:0:
340,272,81538,1,2,0:0:0:0:
340,116,81760,1,0,0:0:0:0:
436,248,81982,1,8,0:0:0:0:
280,192,82205,1,0,0:0:0:0:
455,72,82427,6,0,P|431:158|436:248,1,180,2|8,0:0|0:0,0:0:0:0:
288,168,83094,2,0,L|104:184,1,180,2|2,0:0|0:0,0:0:0:0:
16,376,83761,1,8,0:0:0:0:
116,369,83983,1,0,0:0:0:0:
20,200,84206,6,0,L|12:244,3,45,2|0|0|0,0:0|0:0|0:0|0:0,0:0:0:0:
8,276,84650,2,0,L|100:269,1,90,8|2,0:0|0:0,0:0:0:0:
256,320,85095,1,0,0:0:0:0:
168,192,85318,1,2,0:0:0:0:
116,369,85540,1,8,0:0:0:0:
168,192,85762,1,0,0:0:0:0:
272,344,85984,6,0,P|364:328|456:324,1,180,2|8,0:0|0:0,0:0:0:0:
336,192,86652,1,0,0:0:0:0:
144,264,86874,2,0,P|188:268|236:276,1,90,2|0,0:0|0:0,0:0:0:0:
336,192,87318,2,0,P|380:184|425:180,1,90,8|0,0:0|0:0,0:0:0:0:
248,16,87763,6,0,P|240:100|220:196,1,180,2|8,0:0|0:0,0:0:0:0:
324,292,88430,1,0,0:0:0:0:
168,344,88652,2,0,P|160:300|156:248,1,90,2|0,0:0|0:0,0:0:0:0:
336,192,89097,1,8,0:0:0:0:
248,320,89320,1,0,0:0:0:0:
72,264,89542,6,0,P|68:204|80:128,1,135,2|0,0:0|0:0,0:0:0:0:
160,66,89986,2,0,L|164:158,1,90,8|2,0:0|0:0,0:0:0:0:
296,232,90431,1,0,0:0:0:0:
248,16,90653,2,0,L|252:108,1,90,2|8,0:0|0:0,0:0:0:0:
312,260,91098,1,2,0:0:0:0:
160,66,91320,5,4,0:0:0:0:
256,192,91432,12,2,93099,0:0:0:0:
256,128,93544,6,0,P|212:116|164:112,1,90,8|0,0:0|0:0,0:0:0:0:
320,68,93988,1,8,0:3:0:0:
388,216,94211,2,0,L|396:172,2,45,4|8|8,0:3|0:0|0:0,0:0:0:0:
256,128,94655,1,8,0:3:0:0:
412,88,94878,5,4,0:0:0:0:
464,296,95322,2,0,P|420:296|376:308,1,90,8|0,0:0|0:0,0:0:0:0:
296,368,95766,1,0,0:0:0:0:
212,220,95989,1,0,0:0:0:0:
375,308,96211,1,8,0:0:0:0:
200,196,96433,1,0,0:0:0:0:
296,368,96657,6,0,P|356:344|360:240,1,180,2|8,0:0|0:0,0:0:0:0:
188,172,97323,1,0,0:0:0:0:
80,296,97546,1,0,0:0:0:0:
256,252,97768,1,0,0:0:0:0:
56,116,97991,2,0,L|40:204,1,90,8|0,0:0|0:0,0:0:0:0:
188,324,98435,6,0,P|272:292|364:288,1,180,2|8,0:0|0:0,0:0:0:0:
452,324,99102,1,0,0:0:0:0:
492,192,99325,2,0,P|444:200|400:196,1,90
328,132,99769,1,8,0:0:0:0:
361,287,99991,1,0,0:0:0:0:
477,100,100214,6,0,P|394:76|328:132,1,180,2|8,0:0|0:0,0:0:0:0:
361,287,100881,1,2,0:0:0:0:
256,172,101103,1,0,0:0:0:0:
230,329,101326,1,0,0:0:0:0:
172,160,101548,1,8,0:0:0:0:
91,297,101770,1,2,0:0:0:0:
0,120,101993,6,0,B|52:84|120:100|120:100|96:120|96:146,1,180,2|8,0:0|0:0,0:0:0:0:
263,217,102660,2,0,P|249:138|172:160,1,180
230,329,103327,1,8,0:0:0:0:
96,146,103549,1,0,0:0:0:0:
316,288,103771,6,0,P|400:264|500:272,1,180,2|8,0:0|0:0,0:0:0:0:
364,164,104438,1,2,0:0:0:0:
237,239,104661,2,0,L|230:329,1,90,0|2,0:0|0:0,0:0:0:0:
364,164,105105,2,0,L|274:156,1,90,8|0,0:0|0:0,0:0:0:0:
72,276,105550,5,2,0:0:0:0:
64,304,105995,1,8,0:0:0:0:
64,304,106217,2,0,P|76:216|60:124,1,180
192,80,106884,1,8,0:0:0:0:
160,192,107107,1,0,0:0:0:0:
24,48,107329,5,2,0:0:0:0:
272,128,107551,2,0,P|284:84|272:40,1,90,0|8,0:0|0:0,0:0:0:0:
108,68,107996,1,0,0:0:0:0:
248,212,108218,2,0,L|340:200,1,90
192,80,108663,1,8,0:0:0:0:
160,220,108885,1,0,0:0:0:0:
364,120,109107,6,0,B|500:100|500:100|480:140,1,180,2|8,0:0|0:0,0:0:0:0:
337,200,109774,2,0,B|201:180|201:180|221:220,1,180,2|0,0:0|0:0,0:0:0:0:
372,282,110441,2,0,L|337:200,1,90,8|0,0:0|0:0,0:0:0:0:
201,80,110886,5,2,0:0:0:0:
164,259,111108,1,0,0:0:0:0:
337,200,111331,2,0,P|316:160|280:134,1,90,10|0,0:0|0:0,0:0:0:0:
164,259,111775,2,0,P|208:260|249:242,1,90,2|0,0:0|0:0,0:0:0:0:
200,80,112220,2,0,P|176:117|171:162,1,90,10|0,0:0|0:0,0:0:0:0:
248,352,112665,6,0,L|68:328,1,180,2|8,0:0|0:0,0:0:0:0:
236,264,113332,2,0,L|56:240,1,180,2|0,0:0|0:0,0:0:0:0:
228,176,113999,1,8,0:0:0:0:
49,152,114221,1,0,0:0:0:0:
236,264,114444,5,2,0:0:0:0:
220,92,114666,1,0,0:0:0:0:
49,152,114888,2,0,L|140:168,1,90,10|0,0:0|0:0,0:0:0:0:
312,112,115333,1,0,0:0:0:0:
124,72,115555,1,0,0:0:0:0:
316,136,115778,1,10,0:0:0:0:
120,48,116000,1,0,0:0:0:0:
320,160,116222,6,0,P|408:144|504:144,1,180,2|8,0:0|0:0,0:0:0:0:
308,88,116889,2,0,L|292:268,1,180,2|0,0:0|0:0,0:0:0:0:
384,376,117556,2,0,P|392:332|384:288,1,90,8|0,0:0|0:0,0:0:0:0:
212,216,118001,5,2,0:0:0:0:
280,356,118223,1,0,0:0:0:0:
368,260,118446,2,0,L|460:248,1,90,10|0,0:0|0:0,0:0:0:0:
248,220,118890,2,0,L|340:232,1,90,2|0,0:0|0:0,0:0:0:0:
140,196,119335,2,0,L|232:184,1,90,10|0,0:0|0:0,0:0:0:0:
388,120,119780,6,0,L|208:96,1,180,2|8,0:0|0:0,0:0:0:0:
276,24,120447,1,0,0:0:0:0:
348,200,120669,2,0,L|168:224,1,180,2|8,0:0|0:0,0:0:0:0:
308,108,121336,1,0,0:0:0:0:
388,280,121558,6,0,P|470:289|493:209,1,180,2|8,0:0|0:0,0:0:0:0:
348,200,122225,1,4,0:3:0:0:
256,328,122448,1,8,0:0:0:0:
388,280,122670,1,4,0:3:0:0:
256,188,122892,1,4,0:3:0:0:
240,348,123115,1,0,0:0:0:0:
364,172,123337,6,0,L|216:192,1,144,4|2,0:0|0:0,0:0:0:0:
128,208,124004,1,0,0:0:0:0:
128,208,124226,1,0,0:0:0:0:
152,56,124449,2,0,B|164:80|164:80|152:124,1,72,2|8,0:0|0:0,0:0:0:0:
40,224,124893,1,0,0:0:0:0:
188,280,125116,6,0,L|263:269,2,72,2|0|2,0:0|0:0|0:0,0:0:0:0:
128,208,125783,1,0,0:0:0:0:
188,280,126005,1,0,0:0:0:0:
188,280,126227,1,0,0:0:0:0:
40,224,126450,1,8,0:0:0:0:
40,224,126672,1,0,0:0:0:0:
198,150,126894,6,0,P|219:217|188:280,1,144,2|2,0:0|0:0,0:0:0:0:
96,296,127561,1,0,0:0:0:0:
96,296,127784,1,0,0:0:0:0:
232,356,128006,2,0,B|256:344|256:344|300:356,1,72,2|8,0:0|0:0,0:0:0:0:
392,380,128451,1,0,0:0:0:0:
280,264,128673,6,0,L|352:284,1,72,2|0,0:0|0:0,0:0:0:0:
320,192,129118,2,0,L|389:211,1,72,2|0,0:0|0:0,0:0:0:0:
440,312,129562,1,0,0:0:0:0:
280,264,129784,1,0,0:0:0:0:
480,240,130007,1,8,0:0:0:0:
320,192,130229,1,0,0:0:0:0:
440,312,130452,6,0,P|480:240|464:184,1,144,2|2,0:0|0:0,0:0:0:0:
392,128,131119,1,0,0:0:0:0:
392,128,131341,1,0,0:0:0:0:
252,192,131563,2,0,B|276:204|276:204|320:192,1,72,2|8,0:0|0:0,0:0:0:0:
360,40,132008,1,2,0:0:0:0:
240,120,132231,6,0,L|252:192,1,72,2|0,0:0|0:0,0:0:0:0:
280,48,132675,1,2,0:0:0:0:
140,24,132898,2,0,L|152:96,1,72,2|0,0:0|0:0,0:0:0:0:
276,20,133342,1,2,0:0:0:0:
168,180,133565,1,8,0:0:0:0:
168,180,133676,1,8,0:0:0:0:
168,180,133787,1,4,0:3:0:0:
312,372,134009,6,0,P|380:352|444:360,1,135,4|4,0:0|0:3,0:0:0:0:
464,376,134454,1,4,0:3:0:0:
505,252,134676,2,0,L|328:284,1,180,4|4,0:0|0:3,0:0:0:0:
220,200,135344,1,8,0:0:0:0:
344,148,135566,1,4,0:3:0:0:
204,348,135788,6,0,P|188:300|204:216,1,135,4|8,0:0|0:0,0:0:0:0:
220,200,136233,1,8,0:0:0:0:
108,304,136455,2,0,L|56:296,1,45,4|0,0:0|0:0,0:0:0:0:
24,220,136677,1,4,0:3:0:0:
204,348,136900,1,8,0:0:0:0:
324,216,137122,1,8,0:0:0:0:
320,200,137233,1,8,0:0:0:0:
316,184,137344,1,4,0:3:0:0:
312,168,137455,1,4,0:3:0:0:
308,152,137567,6,0,P|232:108|144:132,1,180,4|8,0:0|0:0,0:0:0:0:
104,220,138234,1,2,0:0:0:0:
128,40,138456,1,2,0:0:0:0:
76,236,138679,1,0,0:0:0:0:
152,24,138901,1,8,0:0:0:0:
44,232,139123,1,0,0:0:0:0:
184,24,139345,6,0,P|276:20|364:36,1,180,2|8,0:0|0:0,0:0:0:0:
428,160,140013,1,2,0:0:0:0:
197,141,140235,1,2,0:0:0:0:
347,191,140457,1,0,0:0:0:0:
188,220,140679,1,8,0:0:0:0:
356,112,140901,1,0,0:0:0:0:
84,88,141124,6,0,L|104:272,1,180,2|8,0:0|0:0,0:0:0:0:
323,343,141791,2,0,P|375:274|348:192,1,180,2|2,0:0|0:0,0:0:0:0:
188,220,142458,2,0,L|196:312,1,90,8|0,0:0|0:0,0:0:0:0:
280,256,142903,5,2,0:0:0:0:
180,136,143125,1,0,0:0:0:0:
100,233,143348,2,0,P|145:233|188:220,1,90,8|2,0:0|0:0,0:0:0:0:
236,68,143792,1,0,0:0:0:0:
280,256,144015,1,2,0:0:0:0:
180,136,144237,1,8,0:0:0:0:
320,68,144459,1,0,0:0:0:0:
280,256,144681,6,0,L|99:233,1,180,2|8,0:0|0:0,0:0:0:0:
300,160,145349,1,0,0:0:0:0:
380,264,145571,2,0,P|388:308|380:352,1,90,2|0,0:0|0:0,0:0:0:0:
300,160,146015,2,0,P|292:116|300:72,1,90,8|0,0:0|0:0,0:0:0:0:
488,176,146460,6,0,P|408:156|316:192,1,180,2|8,0:0|0:0,0:0:0:0:
256,308,147127,1,0,0:0:0:0:
140,240,147349,2,0,L|152:144,1,90,2|0,0:0|0:0,0:0:0:0:
256,308,147794,1,8,0:0:0:0:
128,348,148017,1,0,0:0:0:0:
16,272,148239,6,0,L|36:136,1,135,2|0,0:0|0:0,0:0:0:0:
52,32,148683,2,0,P|68:76|64:120,1,90,8|2,0:0|0:0,0:0:0:0:
160,264,149128,2,0,P|144:220|148:176,1,90,0|2,0:0|0:0,0:0:0:0:
240,80,149573,1,8,0:0:0:0:
64,118,149795,1,2,0:0:0:0:
228,208,150018,5,2,0:0:0:0:
332,56,150240,1,0,0:0:0:0:
332,56,150351,1,0,0:0:0:0:
332,56,150462,1,8,0:0:0:0:
152,104,150685,1,2,0:0:0:0:
360,144,150907,1,0,0:0:0:0:
136,196,151129,1,2,0:0:0:0:
392,220,151352,1,8,0:0:0:0:
120,280,151574,1,4,0:3:0:0:
418,300,151796,6,0,P|465:240|392:220,1,180,4|8,0:0|0:0,0:0:0:0:
348,352,152464,1,2,0:0:0:0:
311,191,152686,2,0,P|266:198|229:222,1,90,2|0,0:0|0:0,0:0:0:0:
372,120,153130,2,0,P|325:104|284:104,1,90,8|0,0:0|0:0,0:0:0:0:
216,252,153575,5,2,0:0:0:0:
364,380,153797,2,0,P|360:336|368:292,1,90,2|8,0:0|0:0,0:0:0:0:
188,328,154242,2,0,P|192:284|184:240,1,90,2|0,0:0|0:0,0:0:0:0:
264,80,154687,2,0,P|260:124|268:168,1,90,2|8,0:0|0:0,0:0:0:0:
368,240,155131,1,0,0:0:0:0:
280,56,155354,6,0,P|191:77|100:84,1,180,2|8,0:0|0:0,0:0:0:0:
300,36,156021,2,0,P|388:57|480:64,1,180,2|2,0:0|0:0,0:0:0:0:
368,240,156688,1,8,0:0:0:0:
500,144,156910,1,0,0:0:0:0:
384,316,157133,6,0,L|376:272,3,45,2|0|0|0,0:0|0:0|0:0|0:0,0:0:0:0:
368,240,157577,2,0,L|460:247,1,90,8|2,0:0|0:0,0:0:0:0:
356,160,158022,1,0,0:0:0:0:
488,252,158245,1,2,0:0:0:0:
352,132,158467,1,8,0:0:0:0:
384,316,158689,1,0,0:0:0:0:
488,148,158911,6,0,P|436:84|348:100,1,180,2|8,0:0|0:0,0:0:0:0:
280,236,159579,1,0,0:0:0:0:
288,40,159801,2,0,P|243:47|198:51,1,90,2|0,0:0|0:0,0:0:0:0:
348,180,160245,2,0,P|392:188|437:192,1,90,8|0,0:0|0:0,0:0:0:0:
228,148,160690,6,0,P|246:236|255:325,1,180,2|8,0:0|0:0,0:0:0:0:
376,260,161357,1,0,0:0:0:0:
328,84,161579,2,0,P|320:128|316:180,1,90,2|0,0:0|0:0,0:0:0:0:
192,32,162024,1,8,0:0:0:0:
344,56,162247,1,0,0:0:0:0:
144,112,162468,6,0,P|99:105|48:104,1,90,4|2,0:0|0:3,0:0:0:0:
200,192,162913,2,0,L|244:188,3,45,8|0|0|0,0:0|0:0|0:0|0:0,0:0:0:0:
272,172,163358,2,0,P|260:220|260:260,1,90,4|8,0:3|0:0,0:0:0:0:
156,360,163802,1,8,0:0:0:0:
135,330,163914,1,8,0:0:0:0:
105,310,164025,1,4,0:3:0:0:
71,305,164136,1,4,0:3:0:0:
35,314,164247,5,4,0:0:0:0:
256,192,164359,12,0,166026,0:0:0:0:
