osu file format v14

[General]
AudioFilename: audio.mp3
AudioLeadIn: 0
PreviewTime: 109054
Countdown: 0
SampleSet: Soft
StackLeniency: 0.2
Mode: 0
LetterboxInBreaks: 0
WidescreenStoryboard: 0

[Editor]
Bookmarks: 74857,178964
DistanceSpacing: 0.1
BeatDivisor: 4
GridSize: 4
TimelineZoom: 1.7

[Metadata]
Title:TRICK BOX
TitleUnicode:TRICK BOX
Artist:Tsugumi Seishirou (CV: Mikako Komatsu)
ArtistUnicode:鶫誠士郎 (CV: 小松未可子)
Creator:alden
Version:FALSE LOVE
Source:ニセコイ
Tags:netnesanya -Light- j-pop pop anime nisekoi japanese false love hedge hop mandess hhm f dt1
BeatmapID:4451198
BeatmapSetID:2119039

[Difficulty]
HPDrainRate:6
CircleSize:3.8
OverallDifficulty:8.7
ApproachRate:9
SliderMultiplier:1.8
SliderTickRate:1

[Events]
//Background and Video events
0,0,"nisekoi_drawn_by_robico.jpg",0,0
//Break Periods
2,132200,137114
//Storyboard Layer 0 (Background)
//Storyboard Layer 1 (Fail)
//Storyboard Layer 2 (Pass)
//Storyboard Layer 3 (Foreground)
//Storyboard Layer 4 (Overlay)
//Storyboard Sound Samples

[TimingPoints]
214,357.142857142857,4,2,1,70,1,0
572,357.142857142857,4,2,1,70,1,0
1375,-100,4,2,1,5,0,0
1464,-100,4,2,1,70,0,0
4232,-100,4,2,1,5,0,0
4321,-100,4,2,1,70,0,0
7089,-100,4,2,1,5,0,0
7179,-100,4,2,1,70,0,0
12000,-200,4,2,1,40,0,0
14768,-200,4,2,1,5,0,0
14857,-111.111111111111,4,2,1,70,0,0
15125,-111.111111111111,4,2,1,5,0,0
15214,-111.111111111111,4,2,1,70,0,0
17625,-111.111111111111,4,2,1,5,0,0
17714,-111.111111111111,4,2,1,70,0,0
19054,-111.111111111111,4,2,1,5,0,0
19143,-111.111111111111,4,2,1,70,0,0
20482,-111.111111111111,4,2,1,5,0,0
20571,-111.111111111111,4,2,1,70,0,0
20839,-111.111111111111,4,2,1,5,0,0
20929,-111.111111111111,4,2,1,70,0,0
22982,-111.111111111111,4,2,1,5,0,0
23071,-111.111111111111,4,2,1,70,0,0
24768,-111.111111111111,4,2,1,5,0,0
24857,-111.111111111111,4,2,1,70,0,0
26196,-111.111111111111,4,2,1,5,0,0
26286,-100,4,2,1,70,0,0
27446,-100,4,2,1,5,0,0
27536,-100,4,2,1,70,0,0
30839,-100,4,2,1,5,0,0
30929,-100,4,2,1,70,0,0
32982,-100,4,2,1,5,0,0
33071,-100,4,2,1,70,0,0
34768,-100,4,2,1,5,0,0
34857,-100,4,2,1,70,0,0
36196,-100,4,2,1,5,0,0
36286,-125,4,2,1,70,0,0
37982,-125,4,2,1,5,0,0
38071,-125,4,2,1,70,0,0
39143,-125,4,2,1,5,0,0
39321,-125,4,2,1,70,0,0
42000,-125,4,2,1,5,0,0
42179,-125,4,2,1,70,0,0
48339,-125,4,2,1,5,0,0
48429,-125,4,2,1,70,0,0
49143,-83.3333333333333,4,2,1,80,0,1
49411,-83.3333333333333,4,2,1,5,0,1
49500,-83.3333333333333,4,2,1,80,0,1
52268,-83.3333333333333,4,2,1,5,0,1
52357,-83.3333333333333,4,2,1,80,0,1
55125,-83.3333333333333,4,2,1,5,0,1
55214,-83.3333333333333,4,2,1,80,0,1
57982,-83.3333333333333,4,2,1,5,0,1
58071,-83.3333333333333,4,2,1,80,0,1
59054,-83.3333333333333,4,2,1,5,0,1
59143,-83.3333333333333,4,2,1,80,0,1
59857,-71.4285714285714,4,2,1,80,0,1
60125,-71.4285714285714,4,2,1,5,0,1
60214,-71.4285714285714,4,2,1,80,0,1
60482,-71.4285714285714,4,2,1,5,0,1
60571,-83.3333333333333,4,2,1,80,0,1
63696,-83.3333333333333,4,2,1,5,0,1
63786,-83.3333333333333,4,2,1,80,0,1
72000,-100,4,2,1,70,0,0
74500,-200,4,2,1,70,0,0
74768,-200,4,2,1,5,0,0
74857,-125,4,2,1,50,0,0
77625,-125,4,2,1,5,0,0
77714,-125,4,2,1,50,0,0
78696,-125,4,2,1,5,0,0
78786,-125,4,2,1,50,0,0
80571,-125,4,2,1,60,0,0
83786,-125,4,2,1,5,0,0
83875,-125,4,2,1,60,0,0
86196,-125,4,2,1,5,0,0
86286,-100,4,2,1,70,0,0
92268,-100,4,2,1,5,0,0
92357,-100,4,2,1,70,0,0
96286,-125,4,2,1,70,0,0
97982,-125,4,2,1,5,0,0
98071,-125,4,2,1,70,0,0
99143,-125,4,2,1,5,0,0
99321,-125,4,2,1,70,0,0
107982,-125,4,2,1,5,0,0
108071,-125,4,2,1,70,0,0
109143,-83.3333333333333,4,2,1,80,0,1
109411,-83.3333333333333,4,2,1,5,0,1
109500,-83.3333333333333,4,2,1,80,0,1
112268,-83.3333333333333,4,2,1,5,0,1
112357,-83.3333333333333,4,2,1,80,0,1
115125,-83.3333333333333,4,2,1,5,0,1
115214,-83.3333333333333,4,2,1,80,0,1
117982,-83.3333333333333,4,2,1,5,0,1
118071,-83.3333333333333,4,2,1,80,0,1
119054,-83.3333333333333,4,2,1,5,0,1
119143,-83.3333333333333,4,2,1,80,0,1
119857,-71.4285714285714,4,2,1,80,0,1
120125,-71.4285714285714,4,2,1,5,0,1
120214,-71.4285714285714,4,2,1,80,0,1
120482,-71.4285714285714,4,2,1,5,0,1
120571,-83.3333333333333,4,2,1,80,0,1
123696,-83.3333333333333,4,2,1,5,0,1
123786,-83.3333333333333,4,2,1,80,0,1
132000,-100,4,2,1,50,0,0
137714,-125,4,2,1,60,0,0
143339,-125,4,2,1,5,0,0
143429,-100,4,2,1,70,0,0
143696,-100,4,2,1,5,0,0
143786,-100,4,2,1,70,0,0
149054,-100,4,2,1,5,0,0
149143,-100,4,2,1,70,0,0
153339,-100,4,2,1,5,0,0
153429,-100,4,2,1,70,0,0
156286,-125,4,2,1,50,0,0
157625,-125,4,2,1,5,0,0
157714,-125,4,2,1,50,0,0
159500,-125,4,2,1,5,0,0
159679,-125,4,2,1,50,0,0
162268,-125,4,2,1,5,0,0
162357,-125,4,2,1,50,0,0
167714,-111.111111111111,4,2,1,60,0,0
170839,-111.111111111111,4,2,1,5,0,0
170929,-111.111111111111,4,2,1,60,0,0
173071,-200,4,2,1,70,0,0
177714,-100,4,2,1,70,0,0
179500,-83.3333333333333,4,2,1,80,0,1
179768,-83.3333333333333,4,2,1,5,0,1
179857,-83.3333333333333,4,2,1,80,0,1
182268,-83.3333333333333,4,2,1,5,0,1
182357,-83.3333333333333,4,2,1,80,0,1
185125,-83.3333333333333,4,2,1,5,0,1
185214,-83.3333333333333,4,2,1,80,0,1
186554,-83.3333333333333,4,2,1,5,0,1
186643,-83.3333333333333,4,2,1,80,0,1
187982,-83.3333333333333,4,2,1,5,0,1
188071,-83.3333333333333,4,2,1,80,0,1
189054,-83.3333333333333,4,2,1,5,0,1
189143,-83.3333333333333,4,2,1,80,0,1
189857,-71.4285714285714,4,2,1,80,0,1
190125,-71.4285714285714,4,2,1,5,0,1
190214,-71.4285714285714,4,2,1,80,0,1
190482,-71.4285714285714,4,2,1,5,0,1
190571,-83.3333333333333,4,2,1,80,0,1
193696,-83.3333333333333,4,2,1,5,0,1
193786,-83.3333333333333,4,2,1,80,0,1
202000,-100,4,2,1,70,0,0
210571,-166.666666666667,4,2,1,70,0,0
210929,-166.666666666667,4,2,1,5,0,0
211107,-166.666666666667,4,2,1,70,0,0
212179,-166.666666666667,4,2,1,5,0,0
212357,-166.666666666667,4,2,1,70,0,0
215571,-100,4,2,1,60,0,0
216286,-100,4,2,1,50,0,0
217000,-100,4,2,1,40,0,0
217357,-100,4,2,1,30,0,0
217714,-100,4,2,1,20,0,0

[Colours]
Combo1 : 90,90,173
Combo2 : 86,140,194

[HitObjects]
91,19,214,5,8,2:0:0:0:
0,58,392,1,0,1:0:0:0:
103,18,572,6,0,P|135:52|123:96,1,90,4|0,1:2|0:0,0:0:0:0:
8,241,929,1,8,0:0:0:0:
1,147,1107,2,0,B|40:134|64:164|64:164|90:192|123:181,1,135,4|0,1:2|0:0,0:0:0:0:
222,123,1464,1,0,1:0:0:0:
8,241,1643,1,8,0:0:0:0:
118,99,1821,6,0,P|139:181|161:282,1,180,4|0,1:2|1:0,0:0:0:0:
356,74,2357,2,0,P|343:26|276:32,1,90,8|0,0:0|1:0,0:0:0:0:
238,76,2625,1,0,1:0:0:0:
235,87,2714,6,0,P|226:113|218:147,1,45,0|0,1:0|0:0,0:0:0:0:
303,162,2893,2,0,P|295:183|289:204,1,45,0|0,1:0|1:0,0:0:0:0:
150,295,3071,1,0,1:0:0:0:
159,274,3160,1,0,1:0:0:0:
178,263,3249,1,0,1:0:0:0:
201,263,3338,1,0,0:0:0:0:
219,276,3429,6,0,P|254:303|308:300,1,90,4|0,1:2|0:0,0:0:0:0:
374,184,3787,1,8,0:0:0:0:
406,328,3964,2,0,P|404:261|380:192,1,135,4|0,1:2|0:0,0:0:0:0:
288,204,4322,1,0,1:0:0:0:
472,119,4501,1,8,0:0:0:0:
298,303,4679,6,0,B|246:285|216:326|216:326|185:365|136:345,1,180,4|0,1:2|1:0,0:0:0:0:
0,189,5215,5,8,0:0:0:0:
48,299,5394,1,0,1:0:0:0:
223,69,5571,5,8,0:0:0:0:
167,234,5750,1,0,1:0:0:0:
167,234,5839,1,0,1:0:0:0:
167,234,5929,6,0,P|140:225|110:216,1,45,8|0,1:2|1:0,0:0:0:0:
76,106,6107,2,0,P|103:115|133:124,1,45,0|0,1:0|1:0,0:0:0:0:
307,276,6286,6,0,P|300:234|284:188,1,90,4|0,1:2|0:0,0:0:0:0:
400,209,6643,1,8,0:0:0:0:
284,367,6821,2,0,P|301:328|403:343,1,135,4|0,1:2|0:0,0:0:0:0:
475,370,7179,1,0,1:0:0:0:
400,209,7357,1,8,0:0:0:0:
176,277,7536,6,0,P|192:183|222:76,1,180,4|0,1:2|1:0,0:0:0:0:
100,150,8071,1,8,0:0:0:0:
271,29,8250,1,0,0:0:0:0:
279,26,8339,1,0,1:0:0:0:
287,22,8429,2,0,P|309:17|335:10,1,45,0|0,1:0|0:0,0:0:0:0:
321,103,8607,2,0,P|343:98|369:91,1,45,0|0,1:0|0:0,0:0:0:0:
466,243,8786,1,8,1:2:0:0:
472,286,8875,1,0,1:0:0:0:
446,321,8964,1,0,1:0:0:0:
403,327,9053,1,0,1:0:0:0:
368,301,9143,6,0,B|328:249|365:184|365:184|399:188|417:163,2,180,4|8|8,1:2|1:2|1:2,0:0:0:0:
364,92,10036,1,0,1:0:0:0:
484,50,10214,1,8,1:2:0:0:
466,243,10393,6,0,P|376:203|291:197,1,180,4|0,1:2|1:0,0:0:0:0:
233,127,10839,1,0,1:0:0:0:
229,116,10929,2,0,P|221:85|210:51,1,45,8|0,0:0|0:0,0:0:0:0:
292,14,11107,2,0,P|298:35|303:57,1,45,0|0,1:0|1:0,0:0:0:0:
391,185,11286,5,8,2:0:0:0:
388,195,11375,1,0,0:0:0:0:
385,205,11464,2,0,P|378:226|373:248,1,45,8|0,0:0|0:0,0:0:0:0:
270,359,11643,1,8,0:0:0:0:
209,294,11821,1,0,1:0:0:0:
82,373,12000,6,0,P|87:351|92:329,1,45,0|0,1:0|0:0,0:0:0:0:
4,246,12357,2,0,P|26:251|48:256,1,45,0|0,1:0|0:0,0:0:0:0:
130,168,12714,2,0,P|125:190|122:213,1,45,0|0,1:0|0:0,0:0:0:0:
209,294,13071,2,0,P|187:289|165:286,1,45,0|0,1:0|0:0,0:0:0:0:
314,155,13429,5,0,1:0:0:0:
314,155,13607,1,0,0:0:0:0:
290,78,13786,1,0,1:0:0:0:
213,101,13965,1,8,0:0:0:0:
237,178,14143,1,0,1:0:0:0:
314,155,14321,1,8,0:0:0:0:
146,32,14500,6,0,P|121:56|121:105,1,67.5,4|0,1:3|0:0,0:0:0:0:
143,166,14857,6,0,B|117:185|88:169|88:169|58:152|29:173,1,121.499996292114,4|0,1:2|0:0,0:0:0:0:
23,182,15214,2,0,P|20:228|70:241,1,80.9999975280763,8|0,0:0|0:0,0:0:0:0:
236,178,15571,1,0,1:0:0:0:
261,20,15750,1,0,1:0:0:0:
115,87,15929,1,8,0:0:0:0:
250,177,16107,6,0,P|294:165|330:158,1,80.9999975280763,0|0,0:0|1:0,0:0:0:0:
440,302,16464,1,0,0:0:0:0:
314,255,16643,1,8,0:0:0:0:
501,188,16821,1,8,0:0:0:0:
318,264,17000,2,0,P|333:300|346:358,1,80.9999975280763,0|0,0:0|1:0,0:0:0:0:
402,223,17357,2,0,P|417:161|441:108,1,121.499996292114,8|0,0:0|0:0,0:0:0:0:
343,106,17714,5,0,1:0:0:0:
261,171,17893,1,0,0:0:0:0:
214,78,18071,1,8,0:0:0:0:
295,11,18249,1,0,0:0:0:0:
481,36,18429,2,0,P|480:85|450:106,1,80.9999975280763,0|0,1:0|1:0,0:0:0:0:
261,171,18786,2,0,P|319:187|374:212,1,121.499996292114,8|0,0:0|0:0,0:0:0:0:
438,296,19143,6,0,P|400:297|348:324,1,80.9999975280763,0|0,1:0|0:0,0:0:0:0:
512,366,19500,1,8,0:0:0:0:
464,208,19679,1,8,0:0:0:0:
288,375,19857,2,0,P|277:335|264:297,1,80.9999975280763,0|0,0:0|1:0,0:0:0:0:
320,181,20214,2,0,P|336:239|355:297,1,121.499996292114,8|0,0:0|0:0,0:0:0:0:
259,304,20571,6,0,P|208:263|228:209,1,121.499996292114,0|0,1:0|0:0,0:0:0:0:
321,171,20929,2,0,P|331:132|342:93,1,80.9999975280763,8|0,0:0|0:0,0:0:0:0:
423,141,21286,1,0,1:0:0:0:
248,97,21464,1,0,1:0:0:0:
382,12,21643,1,8,0:0:0:0:
235,100,21821,6,0,P|193:108|143:122,1,80.9999975280763,0|0,0:0|1:0,0:0:0:0:
64,140,22179,1,0,0:0:0:0:
224,208,22357,1,8,0:0:0:0:
41,250,22536,1,8,0:0:0:0:
209,210,22714,2,0,B|177:215|168:245|168:245|155:280|116:281,1,121.499996292114,0|0,0:0|0:0,0:0:0:0:
41,250,23071,1,8,0:0:0:0:
125,371,23250,1,0,0:0:0:0:
298,274,23429,6,0,P|303:231|326:183,1,80.9999975280763,0|0,1:2|0:0,0:0:0:0:
319,362,23786,1,8,0:0:0:0:
428,222,23964,1,0,0:0:0:0:
223,207,24143,2,0,P|196:178|202:140,1,80.9999975280763,0|0,1:0|1:0,0:0:0:0:
289,66,24500,2,0,P|302:125|315:192,1,121.499996292114,8|0,0:0|0:0,0:0:0:0:
298,274,24857,5,0,1:0:0:0:
428,222,25036,1,0,1:0:0:0:
313,184,25214,5,8,0:0:0:0:
462,126,25393,1,8,0:0:0:0:
457,306,25571,5,0,1:0:0:0:
378,78,25750,1,0,1:0:0:0:
298,274,25929,6,0,B|266:288|242:269|242:269|215:248|182:261,1,121.499996292114,12|0,0:0|0:0,0:0:0:0:
127,370,26286,6,0,P|173:375|196:316,1,90,4|0,1:2|0:0,0:0:0:0:
7,291,26643,2,0,P|21:330|34:381,1,90,10|0,0:0|0:0,0:0:0:0:
198,343,27000,1,0,1:0:0:0:
90,257,27179,2,0,P|106:192|130:129,1,135,2|0,1:2|0:0,0:0:0:0:
206,187,27536,6,0,P|211:237|165:261,1,90,0|0,0:0|1:0,0:0:0:0:
18,173,27893,1,0,0:0:0:0:
223,98,28071,1,10,0:0:0:0:
38,33,28250,1,8,0:0:0:0:
122,117,28429,2,0,P|136:71|153:33,1,90,0|0,0:0|1:0,0:0:0:0:
18,173,28786,2,0,P|63:187|79:240,1,90,10|0,0:0|0:0,0:0:0:0:
262,211,29143,5,0,1:0:0:0:
223,98,29321,1,0,0:0:0:0:
357,24,29500,5,10,0:0:0:0:
325,127,29679,1,0,0:0:0:0:
454,203,29857,5,0,1:0:0:0:
419,100,30036,1,0,1:0:0:0:
299,275,30214,2,0,P|257:222|294:190,1,90,10|0,0:0|0:0,0:0:0:0:
357,24,30571,6,0,P|310:65|325:129,1,135,0|0,1:0|0:0,0:0:0:0:
454,203,30929,1,10,0:0:0:0:
419,100,31107,1,8,0:0:0:0:
261,210,31286,1,2,0:0:0:0:
431,93,31464,1,0,1:0:0:0:
379,300,31643,2,0,P|368:256|355:213,1,90,10|0,0:0|0:0,0:0:0:0:
453,0,32000,5,0,1:0:0:0:
431,93,32179,1,0,0:0:0:0:
352,12,32357,5,10,0:0:0:0:
324,126,32536,1,0,0:0:0:0:
135,24,32714,6,0,P|198:36|285:60,1,135,0|0,1:0|0:0,0:0:0:0:
324,126,33071,2,0,P|300:172|254:160,1,90,10|0,0:0|0:0,0:0:0:0:
75,149,33429,5,0,1:0:0:0:
40,247,33607,1,0,0:0:0:0:
188,353,33786,5,10,0:0:0:0:
149,228,33964,1,8,0:0:0:0:
324,126,34143,6,0,P|340:165|305:209,1,90,0|0,0:0|1:0,0:0:0:0:
149,228,34500,2,0,P|207:238|279:299,1,135,10|0,0:0|0:0,0:0:0:0:
321,353,34857,6,0,P|362:320|355:274,1,90,0|0,1:2|0:0,0:0:0:0:
231,129,35214,1,10,0:0:0:0:
429,164,35393,1,0,0:0:0:0:
267,282,35571,1,0,1:0:0:0:
441,161,35750,1,0,1:0:0:0:
306,34,35929,2,0,P|320:94|338:175,1,135,10|0,0:0|0:0,0:0:0:0:
441,161,36286,6,0,P|431:195|421:241,1,72,4|0,1:2|0:0,0:0:0:0:
421,241,36554,1,8,0:0:0:0:
419,251,36643,1,8,0:0:0:0:
466,346,36821,1,0,1:0:0:0:
267,282,37000,2,0,P|254:256|283:210,1,72,8|0,0:0|1:0,0:0:0:0:
344,94,37357,1,8,1:2:0:0:
356,107,37446,1,0,1:0:0:0:
349,123,37536,2,0,P|324:130|289:141,1,36,0|0,1:0|0:0,0:0:0:0:
62,50,37714,6,0,B|78:102|78:102|77:105|77:105|95:161,1,108,4|0,1:2|0:0,0:0:0:0:
0,177,38071,5,0,1:0:0:0:
268,218,38250,1,0,1:0:0:0:
27,342,38429,1,4,1:3:0:0:
27,342,38786,6,0,B|38:312|74:303|101:327|101:327|101:329|101:329|126:351|166:338|173:308,1,180,12|0,0:2|0:0,0:0:0:0:
146,219,39321,5,0,1:0:0:0:
291,172,39499,1,8,0:0:0:0:
146,125,39678,1,0,1:0:0:0:
236,248,39857,1,0,1:0:0:0:
236,96,40036,1,0,1:0:0:0:
54,225,40214,2,0,P|46:186|26:146,1,72,8|0,1:2|1:0,0:0:0:0:
258,28,40571,6,0,P|236:88|238:124,1,72,4|0,1:2|0:0,0:0:0:0:
421,172,40929,1,8,0:0:0:0:
449,47,41107,1,0,1:0:0:0:
325,91,41286,1,0,1:0:0:0:
452,35,41464,1,0,1:0:0:0:
417,183,41643,6,0,B|386:164|350:183|345:214|345:214|346:216|346:216|338:248|299:262|275:243,1,180,12|0,0:0|0:0,0:0:0:0:
239,168,42179,5,8,0:0:0:0:
310,350,42357,1,8,0:0:0:0:
477,265,42536,1,0,1:0:0:0:
425,155,42714,5,8,0:0:0:0:
423,162,42804,1,8,0:0:0:0:
421,169,42893,1,8,0:0:0:0:
419,176,42982,1,0,0:0:0:0:
417,183,43071,2,0,P|396:188|374:194,1,36,8|0,1:2|0:0,0:0:0:0:
353,114,43250,2,0,P|332:119|310:125,1,36,0|0,1:0|0:0,0:0:0:0:
127,207,43429,5,4,1:2:0:0:
127,207,43607,1,0,0:0:0:0:
127,207,43786,1,2,1:2:0:0:
163,131,43964,5,0,0:0:0:0:
88,94,44143,5,0,1:0:0:0:
88,94,44321,1,0,0:0:0:0:
88,94,44500,1,2,1:2:0:0:
163,131,44679,5,0,0:0:0:0:
200,56,44857,5,0,1:0:0:0:
200,56,45036,1,0,0:0:0:0:
200,56,45214,1,2,1:2:0:0:
163,131,45393,5,0,0:0:0:0:
239,168,45571,5,0,1:0:0:0:
239,168,45750,1,0,0:0:0:0:
239,168,45929,1,2,1:2:0:0:
163,131,46107,5,0,0:0:0:0:
127,207,46286,5,2,1:2:0:0:
88,94,46464,1,0,1:0:0:0:
200,56,46643,1,2,1:2:0:0:
239,168,46821,1,0,1:0:0:0:
40,174,47000,5,2,1:2:0:0:
121,8,47178,1,0,1:0:0:0:
285,88,47357,1,2,1:2:0:0:
205,253,47535,1,2,1:2:0:0:
121,8,47714,6,0,B|160:9|177:50|156:79|156:79|154:81|154:81|132:109|145:154|171:160|171:160|157:132|171:103,1,252,6|0,1:2|0:0,0:0:0:0:
285,88,48429,5,8,0:0:0:0:
40,174,48607,1,8,0:0:0:0:
456,207,49143,6,0,B|445:176|408:169|384:188|384:188|362:209|325:197|314:168,1,161.999995056153,4|0,1:2|0:0,0:0:0:0:
285,88,49500,1,10,0:0:0:0:
357,302,49679,1,0,0:0:0:0:
280,76,49857,1,0,1:0:0:0:
455,206,50036,2,0,P|470:151|488:103,1,107.999996704102,0|10,1:0|0:0,0:0:0:0:
414,26,50393,1,0,0:0:0:0:
205,166,50571,6,0,B|200:197|173:220|173:220|324:175,1,215.999993408203,0|10,1:0|0:0,0:0:0:0:
285,88,51107,1,0,0:0:0:0:
327,266,51286,5,0,1:0:0:0:
376,112,51464,1,0,1:0:0:0:
294,361,51643,5,10,0:0:0:0:
205,166,51821,1,2,1:2:0:0:
402,340,52000,6,0,P|414:290|318:277,1,161.999995056153,0|0,1:2|0:0,0:0:0:0:
294,361,52357,1,10,0:0:0:0:
318,176,52536,1,0,0:0:0:0:
462,269,52714,1,0,1:0:0:0:
286,366,52893,2,0,P|238:363|215:304,1,107.999996704102,0|10,1:0|0:0,0:0:0:0:
128,67,53250,6,0,P|144:119|161:181,2,107.999996704102,0|0|0,0:0|1:0|0:0,0:0:0:0:
59,148,53786,1,10,0:0:0:0:
234,97,53964,1,8,0:0:0:0:
143,269,54143,2,0,P|92:252|39:244,1,107.999996704102,0|0,1:0|1:0,0:0:0:0:
244,101,54500,2,0,P|295:118|349:127,1,107.999996704102,10|2,0:0|1:2,0:0:0:0:
286,366,54857,6,0,P|262:288|240:210,1,161.999995056153,4|0,1:2|0:0,0:0:0:0:
234,97,55214,5,10,0:0:0:0:
143,269,55393,1,0,0:0:0:0:
90,1,55571,5,0,1:0:0:0:
155,174,55750,1,0,1:0:0:0:
292,9,55929,5,10,0:0:0:0:
67,97,56107,1,0,0:0:0:0:
332,200,56286,6,0,B|373:46|373:46|360:85|319:90,1,215.999993408203,0|10,1:0|0:0,0:0:0:0:
177,35,56821,1,0,0:0:0:0:
186,33,57000,2,0,P|237:22|291:8,1,107.999996704102,0|0,1:0|1:0,0:0:0:0:
332,200,57357,1,10,0:0:0:0:
420,15,57536,1,2,1:2:0:0:
489,135,57714,6,0,P|408:105|335:85,1,161.999995056153,4|0,1:2|0:0,0:0:0:0:
252,123,58071,1,10,0:0:0:0:
291,8,58250,1,0,0:0:0:0:
281,247,58429,1,0,1:0:0:0:
335,85,58608,1,0,1:0:0:0:
124,67,58786,2,0,B|153:45|188:60|196:87|196:87|196:89|196:89|205:120|241:134|268:115,1,161.999995056153,10|0,0:0|0:0,0:0:0:0:
335,85,59143,5,0,1:0:0:0:
407,150,59321,1,8,1:2:0:0:
400,181,59410,1,8,1:2:0:0:
393,213,59499,1,10,1:2:0:0:
385,244,59588,1,0,0:0:0:0:
378,276,59679,2,0,P|372:308|362:348,1,53.9999983520508,0|0,1:2|1:2,0:0:0:0:
210,336,59857,6,0,B|197:303|171:308|119:291|144:201|205:200|228:239|228:239,1,188.999994232178,12|0,1:2|0:0,0:0:0:0:
220,337,60214,2,0,B|240:309|264:321|318:318|320:225|262:208|228:239|228:239,1,188.999994232178,12|0,1:2|0:0,0:0:0:0:
84,353,60571,6,0,P|73:293|60:237,1,107.999996704102,4|0,1:2|0:0,0:0:0:0:
276,109,60929,5,10,0:0:0:0:
227,239,61107,1,0,0:0:0:0:
393,205,61286,5,0,1:0:0:0:
182,137,61464,1,0,1:0:0:0:
288,318,61643,5,10,0:0:0:0:
374,86,61821,1,0,0:0:0:0:
478,336,62000,6,0,B|481:312|504:300|504:300|477:290|441:308|434:334|434:334|434:336|434:336|424:365|389:384|357:359,1,215.999993408203,0|10,1:0|0:0,0:0:0:0:
257,222,62536,1,0,0:0:0:0:
288,318,62714,5,0,1:0:0:0:
351,178,62893,1,0,1:0:0:0:
257,222,63071,5,10,0:0:0:0:
205,38,63250,1,2,1:2:0:0:
345,166,63429,6,0,P|276:123|197:138,1,161.999995056153,0|0,1:2|0:0,0:0:0:0:
174,235,63786,2,0,P|237:250|256:200,1,107.999996704102,10|0,0:0|0:0,0:0:0:0:
285,86,64143,1,0,1:0:0:0:
87,54,64321,2,0,P|104:102|116:157,1,107.999996704102,0|10,1:0|0:0,0:0:0:0:
226,324,64679,6,0,P|238:271|256:221,2,107.999996704102,0|0|0,1:0|1:0|0:0,0:0:0:0:
350,284,65214,5,10,0:0:0:0:
332,152,65393,1,0,0:0:0:0:
444,322,65571,5,0,1:0:0:0:
412,83,65750,1,0,1:0:0:0:
268,225,65929,5,10,0:0:0:0:
512,185,66107,1,2,1:2:0:0:
296,50,66286,6,0,P|317:98|333:156,1,107.999996704102,4|0,1:2|0:0,0:0:0:0:
289,42,66643,1,0,1:0:0:0:
420,44,66821,1,0,1:0:0:0:
423,65,66911,1,0,1:0:0:0:
412,83,67000,1,8,1:3:0:0:
235,138,67179,1,0,1:0:0:0:
428,217,67357,1,8,0:0:0:0:
224,135,67536,1,0,1:0:0:0:
418,215,67714,6,0,B|391:200|367:223|367:226|367:228|346:254|307:236,1,107.999996704102,8|0,1:3|1:0,0:0:0:0:
224,135,68071,1,0,1:0:0:0:
223,304,68250,1,0,1:0:0:0:
228,283,68339,1,0,1:0:0:0:
233,262,68429,1,8,1:3:0:0:
305,366,68607,1,0,1:0:0:0:
127,313,68786,2,0,P|139:256|157:185,1,107.999996704102,8|0,0:0|1:0,0:0:0:0:
0,64,69143,6,0,P|11:120|74:79,1,107.999996704102,4|0,1:2|0:0,0:0:0:0:
96,43,69411,1,0,0:0:0:0:
97,34,69500,2,0,P|116:12|174:61,1,107.999996704102,8|0,0:0|1:0,0:0:0:0:
150,124,69768,1,0,1:0:0:0:
154,132,69857,2,0,P|162:157|177:217,1,53.9999983520508,4|0,1:2|0:0,0:0:0:0:
267,58,70036,2,0,P|259:33|244:-27,1,53.9999983520508,0|0,1:0|0:0,0:0:0:0:
53,121,70214,1,8,0:0:0:0:
266,152,70393,1,0,0:0:0:0:
31,318,70571,5,4,1:2:0:0:
125,267,70750,1,8,0:0:0:0:
214,344,70929,1,8,0:0:0:0:
214,344,71018,1,8,0:0:0:0:
214,344,71107,1,8,0:0:0:0:
266,152,71286,5,8,0:0:0:0:
457,101,71464,1,0,1:0:0:0:
508,292,71642,1,8,0:0:0:0:
317,343,71821,1,0,1:0:0:0:
386,222,72000,5,4,1:2:0:0:
480,85,73964,5,0,1:2:0:0:
480,85,74054,1,0,1:2:0:0:
480,85,74143,1,8,1:2:0:0:
394,14,74321,1,8,0:3:0:0:
313,120,74500,2,0,P|315:146|358:174,1,67.5,12|0,0:3|0:0,0:0:0:0:
458,185,74857,6,0,B|415:193|411:233|413:235|414:237|415:283|360:285,1,144,0|2,1:0|0:0,0:0:0:0:
356,282,75393,1,2,0:0:0:0:
277,196,75571,2,0,P|312:179|354:171,1,72,0|0,0:0|1:0,0:0:0:0:
417,104,75929,1,2,0:0:0:0:
409,99,76107,6,0,P|374:82|332:74,1,72,0|0,0:0|1:0,0:0:0:0:
257,107,76464,1,0,0:0:0:0:
277,196,76643,2,0,P|243:200|199:169,1,72,2|2,0:0|0:0,0:0:0:0:
254,98,77000,2,0,P|245:63|237:27,1,72,0|0,0:0|1:0,0:0:0:0:
141,0,77357,2,0,P|152:45|165:106,1,108,2|0,0:0|0:0,0:0:0:0:
210,184,77714,5,0,1:0:0:0:
207,197,77893,1,0,0:0:0:0:
285,253,78071,5,2,0:0:0:0:
282,266,78250,1,2,0:0:0:0:
299,144,78429,6,0,P|244:147|205:198,1,108
171,270,78786,2,0,P|140:269|114:237,1,72,2|0,0:0|0:0,0:0:0:0:
8,151,79143,6,0,P|21:189|29:230,1,72,0|0,1:0|0:0,0:0:0:0:
54,311,79500,1,2,0:0:0:0:
111,228,79678,1,2,0:0:0:0:
165,366,79857,2,0,P|172:330|184:296,1,72,2|0,0:0|1:0,0:0:0:0:
111,228,80214,1,2,0:0:0:0:
54,311,80393,1,2,1:2:0:0:
116,100,80571,6,0,B|143:66|185:97|183:99|181:101|211:143|253:107,1,144,4|0,1:0|1:0,0:0:0:0:
273,27,81107,1,8,0:0:0:0:
318,178,81286,1,0,0:0:0:0:
374,22,81464,2,0,P|358:61|347:99,1,72,0|0,1:0|0:0,0:0:0:0:
119,111,81821,6,0,P|135:150|146:188,1,72,8|0,1:2|0:0,0:0:0:0:
244,113,82179,1,0,1:0:0:0:
314,188,82357,2,0,P|298:227|287:265,1,72,8|0,0:0|1:0,0:0:0:0:
288,262,82625,1,8,0:0:0:0:
286,268,82714,1,0,1:0:0:0:
41,360,82893,6,0,P|30:337|34:299,1,36,0|0,1:0|0:0,0:0:0:0:
21,245,83071,6,0,P|35:223|70:208,1,36,8|0,0:0|0:0,0:0:0:0:
110,170,83250,6,0,P|135:171|166:194,1,36,0|0,1:0|1:0,0:0:0:0:
315,362,83429,6,0,P|280:219|244:76,1,288,8|0,1:2|0:0,0:0:0:0:
434,338,84857,5,4,1:2:0:0:
479,165,85036,1,0,1:0:0:0:
246,202,85214,5,0,1:0:0:0:
285,291,85393,1,0,1:0:0:0:
500,266,85571,5,8,1:3:0:0:
409,59,85750,1,8,1:3:0:0:
246,202,85929,6,0,P|260:146|269:92,1,108,8|0,0:0|0:0,0:0:0:0:
156,38,86286,6,0,P|168:82|177:133,1,90,4|0,1:2|0:0,0:0:0:0:
82,164,86643,1,10,0:0:0:0:
246,202,86821,1,0,0:0:0:0:
65,77,87000,1,0,1:0:0:0:
251,20,87179,2,0,P|276:46|265:99,1,90,0|10,1:0|0:0,0:0:0:0:
100,252,87536,6,0,P|92:207|75:142,1,90,0|0,0:0|1:0,0:0:0:0:
246,202,87893,1,0,0:0:0:0:
175,125,88071,1,10,0:0:0:0:
103,261,88250,1,8,0:0:0:0:
264,290,88429,2,0,P|253:246|245:201,1,90,0|0,0:0|1:0,0:0:0:0:
156,36,88786,2,0,P|166:79|174:124,1,90,10|0,0:0|0:0,0:0:0:0:
404,124,89143,5,0,1:0:0:0:
363,242,89321,1,0,0:0:0:0:
245,201,89500,1,10,0:0:0:0:
286,83,89679,1,0,0:0:0:0:
461,217,89857,2,0,P|418:227|373:240,1,90,0|0,1:0|1:0,0:0:0:0:
331,347,90214,2,0,P|374:337|419:324,1,90,10|0,0:0|0:0,0:0:0:0:
404,124,90571,6,0,P|394:78|377:14,1,90,0|0,1:0|0:0,0:0:0:0:
375,41,90839,1,0,0:0:0:0:
366,44,90929,1,10,0:0:0:0:
319,213,91107,1,8,0:0:0:0:
328,210,91197,1,0,0:0:0:0:
336,208,91286,2,0,P|326:162|309:98,1,90,2|0,0:0|1:0,0:0:0:0:
259,43,91643,1,10,0:0:0:0:
123,136,91821,1,0,0:0:0:0:
120,127,91911,1,0,0:0:0:0:
124,119,92000,6,0,B|164:108|184:146|182:148|180:151|206:185|252:161,1,135,0|0,1:0|0:0,0:0:0:0:
259,43,92357,5,10,0:0:0:0:
336,208,92536,1,0,0:0:0:0:
360,17,92714,5,8,0:0:0:0:
254,260,92893,1,0,1:0:0:0:
254,260,93250,6,0,P|209:268|166:280,1,90,8|0,0:0|0:0,0:0:0:0:
0,226,93607,1,0,0:0:0:0:
8,225,93786,2,0,P|53:217|96:205,1,90,10|8,0:0|0:0,0:0:0:0:
212,87,94143,1,0,1:0:0:0:
257,269,94321,1,0,1:0:0:0:
205,91,94500,2,0,P|181:131|203:171,1,90,10|0,0:0|0:0,0:0:0:0:
492,105,94857,5,0,1:2:0:0:
376,37,95036,1,0,0:0:0:0:
376,173,95214,1,10,0:0:0:0:
500,101,95393,1,0,0:0:0:0:
367,177,95571,2,0,P|383:221|405:274,1,90,0|0,1:0|1:0,0:0:0:0:
509,301,95929,2,0,P|493:257|471:204,1,90,10|0,0:0|0:0,0:0:0:0:
376,37,96286,6,0,B|329:27|316:68|317:69|319:70|303:120|252:99,1,144,4|8,1:2|0:0,0:0:0:0:
190,45,96821,1,0,1:0:0:0:
215,193,97000,2,0,P|260:198|312:213,1,72,8|0,0:0|1:0,0:0:0:0:
180,44,97357,2,0,P|135:39|83:24,1,72,8|0,1:2|1:0,0:0:0:0:
391,127,97714,6,0,B|441:113|441:113|444:115|444:115|496:100,1,108,4|0,1:2|0:0,0:0:0:0:
506,97,98071,5,0,1:0:0:0:
338,33,98250,1,0,1:0:0:0:
464,239,98429,1,4,1:3:0:0:
464,239,98786,6,0,B|433:226|400:241|394:277|394:277|394:280|394:280|387:315|346:331|317:305,1,180,12|0,0:2|0:0,0:0:0:0:
324,303,99321,1,0,1:0:0:0:
276,228,99500,1,8,0:0:0:0:
201,276,99679,1,0,1:0:0:0:
120,180,99857,5,0,1:0:0:0:
221,41,100036,1,0,1:0:0:0:
373,119,100214,1,8,1:2:0:0:
283,235,100393,1,0,1:0:0:0:
283,235,100482,1,0,0:0:0:0:
283,235,100571,6,0,P|275:198|258:147,1,72,4|0,1:2|0:0,0:0:0:0:
261,155,100929,1,8,0:0:0:0:
219,345,101107,2,0,P|211:308|194:257,1,72,0|0,1:0|1:0,0:0:0:0:
197,265,101465,1,0,1:0:0:0:
19,132,101643,6,0,B|65:117|83:158|82:160|81:161|100:201|154:185,1,144,12|0,0:0|0:0,0:0:0:0:
241,76,102179,1,8,0:0:0:0:
172,6,102357,1,8,0:0:0:0:
150,102,102536,1,0,1:0:0:0:
315,30,102714,1,8,0:0:0:0:
321,38,102804,1,8,0:0:0:0:
326,47,102893,1,8,0:0:0:0:
329,57,102982,1,0,0:0:0:0:
328,67,103071,1,8,1:2:0:0:
241,76,103250,1,0,1:0:0:0:
367,180,103429,5,0,1:0:0:0:
367,180,103607,1,0,0:0:0:0:
367,180,103786,1,2,1:2:0:0:
403,104,103964,5,0,0:0:0:0:
328,67,104143,5,0,1:0:0:0:
328,67,104321,1,0,0:0:0:0:
328,67,104500,1,2,1:2:0:0:
403,104,104679,5,0,0:0:0:0:
440,29,104857,5,0,1:0:0:0:
440,29,105036,1,0,0:0:0:0:
440,29,105214,1,2,1:2:0:0:
403,104,105393,5,0,0:0:0:0:
479,141,105571,5,0,1:0:0:0:
479,141,105750,1,0,0:0:0:0:
479,141,105929,1,2,1:2:0:0:
403,104,106107,5,0,0:0:0:0:
367,180,106286,6,0,L|376:218,5,36,2|0|0|0|2|0,1:2|0:0|1:0|0:0|1:2|1:2,0:0:0:0:
292,232,106821,2,0,L|301:270,1,36,0|0,1:0|1:2,0:0:0:0:
146,342,107000,5,2,1:2:0:0:
138,322,107089,1,0,1:2:0:0:
140,300,107178,1,0,1:2:0:0:
151,282,107267,1,0,1:2:0:0:
170,272,107357,1,2,1:2:0:0:
191,271,107446,1,0,1:2:0:0:
211,280,107536,2,0,L|220:318,1,36,2|0,1:2|1:2,0:0:0:0:
48,242,107714,6,0,B|61:192|61:192|64:189|64:189|77:134,1,108,6|0,1:2|0:0,0:0:0:0:
37,53,108071,1,8,0:0:0:0:
135,63,108250,5,8,0:0:0:0:
145,61,108339,1,8,0:0:0:0:
155,58,108429,2,0,L|210:45,1,36,8|0,0:0|0:0,0:0:0:0:
449,0,108607,1,8,0:0:0:0:
449,0,109143,6,0,B|417:7|406:43|422:69|422:69|437:93|425:129|395:137,1,161.999995056153,4|0,1:2|0:0,0:0:0:0:
330,81,109500,1,10,0:0:0:0:
492,178,109679,1,0,0:0:0:0:
328,271,109857,1,0,1:0:0:0:
475,85,110036,1,0,1:0:0:0:
286,179,110214,1,10,0:0:0:0:
458,313,110393,1,0,0:0:0:0:
329,81,110571,6,0,B|293:60|253:78|250:120|250:120|252:121|252:121|250:162|199:183|165:152,1,215.999993408203,0|10,1:0|0:0,0:0:0:0:
148,45,111107,1,0,0:0:0:0:
148,45,111196,1,0,0:0:0:0:
148,45,111286,5,0,1:0:0:0:
69,206,111464,1,0,1:0:0:0:
207,316,111643,5,10,0:0:0:0:
172,157,111821,1,2,1:2:0:0:
56,357,112000,6,0,P|134:355|214:308,1,161.999995056153,0|0,1:2|0:0,0:0:0:0:
263,241,112357,1,10,0:0:0:0:
386,364,112536,1,0,0:0:0:0:
418,190,112714,1,0,1:0:0:0:
375,361,112893,2,0,P|344:312|367:252,1,107.999996704102,0|10,1:0|0:0,0:0:0:0:
512,50,113250,6,0,P|463:28|410:20,2,107.999996704102,0|0|0,0:0|1:0|0:0,0:0:0:0:
314,29,113786,1,10,0:0:0:0:
418,190,113964,1,0,0:0:0:0:
418,190,114054,1,8,0:0:0:0:
418,190,114143,2,0,P|458:161|436:103,1,107.999996704102,0|0,1:0|1:0,0:0:0:0:
238,151,114500,2,0,P|287:129|340:120,1,107.999996704102,10|2,0:0|1:2,0:0:0:0:
496,341,114857,6,0,P|444:287|321:298,1,161.999995056153,4|0,1:2|0:0,0:0:0:0:
272,328,115214,5,10,0:0:0:0:
336,129,115393,1,0,0:0:0:0:
199,241,115571,5,0,1:0:0:0:
146,118,115750,1,0,1:0:0:0:
360,278,115929,5,10,0:0:0:0:
116,337,116107,1,0,0:0:0:0:
45,145,116286,6,0,B|81:120|131:147|128:194|125:194|123:194|119:238|166:268|207:235,1,215.999993408203,0|10,1:0|0:0,0:0:0:0:
257,34,116821,1,0,0:0:0:0:
253,43,116911,1,0,0:0:0:0:
249,52,117000,2,0,P|232:100|209:173,1,107.999996704102,0|0,1:0|1:0,0:0:0:0:
323,119,117357,1,10,0:0:0:0:
149,55,117536,1,2,1:2:0:0:
363,291,117714,6,0,P|345:211|326:133,1,161.999995056153,4|0,1:2|0:0,0:0:0:0:
378,55,118071,1,10,0:0:0:0:
214,154,118250,1,0,0:0:0:0:
431,207,118429,1,0,1:0:0:0:
203,151,118608,1,0,1:0:0:0:
363,291,118786,2,0,B|336:269|301:281|293:315|293:315|294:317|294:317|284:351|249:364|221:343,1,161.999995056153,10|0,0:0|0:0,0:0:0:0:
158,314,119143,5,0,1:0:0:0:
111,123,119321,1,8,1:2:0:0:
141,132,119410,1,8,1:2:0:0:
172,141,119499,1,10,1:2:0:0:
203,151,119588,1,0,0:0:0:0:
234,160,119679,2,0,L|309:183,1,53.9999983520508,0|0,1:2|1:2,0:0:0:0:
429,134,119857,6,0,B|442:101|468:106|520:89|495:-1|434:-2|411:37|411:37,1,188.999994232178,12|0,1:2|0:0,0:0:0:0:
419,135,120214,2,0,B|399:107|375:119|321:116|319:23|377:6|411:37|411:37,1,188.999994232178,12|0,1:2|0:0,0:0:0:0:
509,188,120571,6,0,P|491:237|469:295,1,107.999996704102,4|0,1:2|0:0,0:0:0:0:
285,175,120929,5,10,0:0:0:0:
471,289,121108,1,0,0:0:0:0:
419,135,121286,5,0,1:0:0:0:
324,330,121465,1,0,1:0:0:0:
336,100,121643,5,10,0:0:0:0:
409,353,121821,1,0,0:0:0:0:
285,175,122000,6,0,B|254:141|202:157|193:199|195:201|197:204|187:248|140:262|105:232,1,215.999993408203,0|10,1:0|0:0,0:0:0:0:
61,169,122536,1,0,0:0:0:0:
52,309,122714,5,0,1:0:0:0:
131,113,122893,1,0,1:0:0:0:
121,365,123071,5,10,0:0:0:0:
61,169,123250,1,2,1:2:0:0:
274,181,123429,6,0,B|221:195|203:147|205:146|208:144|190:96|137:111,1,161.999995056153,0|0,1:2|0:0,0:0:0:0:
61,169,123786,2,0,P|45:103|23:47,1,107.999996704102,10|0,0:0|0:0,0:0:0:0:
262,51,124143,1,0,1:0:0:0:
173,5,124321,2,0,P|155:55|143:108,1,107.999996704102,0|10,1:0|0:0,0:0:0:0:
41,326,124679,6,0,P|3:309|15:241,2,107.999996704102,0|0|0,1:0|1:0|0:0,0:0:0:0:
31,65,125214,5,10,0:0:0:0:
99,250,125393,1,0,0:0:0:0:
147,120,125571,5,0,1:0:0:0:
47,333,125750,1,0,1:0:0:0:
273,281,125929,5,10,0:0:0:0:
59,161,126107,1,2,1:2:0:0:
161,317,126286,6,0,P|212:299|263:283,1,107.999996704102,4|0,1:2|0:0,0:0:0:0:
360,364,126643,1,0,1:0:0:0:
309,206,126821,1,0,1:0:0:0:
291,194,126910,1,0,1:0:0:0:
272,198,127000,1,8,1:3:0:0:
161,317,127179,1,0,1:0:0:0:
168,133,127357,1,8,0:0:0:0:
273,281,127536,1,0,1:0:0:0:
335,96,127714,6,0,P|283:78|232:62,1,107.999996704102,8|0,1:3|1:0,0:0:0:0:
291,194,128071,1,0,1:0:0:0:
412,140,128250,1,0,1:0:0:0:
426,117,128339,1,0,1:0:0:0:
422,91,128428,1,8,1:3:0:0:
325,0,128607,1,0,1:0:0:0:
512,80,128786,2,0,P|512:133|495:188,1,107.999996704102,8|0,0:0|1:0,0:0:0:0:
291,194,129143,6,0,P|302:250|374:231,1,107.999996704102,0|0,1:2|0:0,0:0:0:0:
437,251,129411,1,0,0:0:0:0:
448,260,129500,2,0,P|450:332|405:347,1,107.999996704102,8|0,0:0|1:0,0:0:0:0:
326,333,129768,1,0,1:0:0:0:
328,322,129857,2,0,P|333:302|348:242,1,53.9999983520508,0|0,1:0|0:0,0:0:0:0:
291,194,130036,2,0,P|296:174|311:114,1,53.9999983520508,0|0,1:0|0:0,0:0:0:0:
364,0,130214,1,8,0:0:0:0:
496,185,130393,1,0,0:0:0:0:
465,15,130571,5,4,1:2:0:0:
388,105,130750,1,8,0:0:0:0:
284,57,130929,1,8,0:0:0:0:
284,57,131018,1,8,0:0:0:0:
284,57,131107,1,8,0:0:0:0:
113,192,131286,5,12,0:0:0:0:
304,141,131464,1,0,1:0:0:0:
164,383,131642,1,8,0:0:0:0:
355,332,131821,1,0,1:0:0:0:
233,262,132000,5,4,0:0:0:0:
373,11,137714,6,0,P|361:45|356:84,1,72,0|0,1:0|0:0,0:0:0:0:
468,169,138071,2,0,P|461:117|436:54,1,108,8|0,0:0|0:0,0:0:0:0:
358,92,138429,1,0,1:0:0:0:
286,28,138607,2,0,P|252:28|218:63,1,72,0|0,1:0|0:0,0:0:0:0:
257,131,138964,1,0,1:0:0:0:
200,195,139143,6,0,P|166:195|132:160,1,72,0|0,1:0|0:0,0:0:0:0:
112,79,139500,1,0,1:0:0:0:
36,151,139679,2,0,P|22:103|4:42,1,108,8|0,0:0|0:0,0:0:0:0:
3,37,140036,1,0,1:0:0:0:
114,91,140214,2,0,P|122:121|134:159,1,72,8|0,1:3|0:0,0:0:0:0:
27,291,140571,5,0,1:0:0:0:
77,366,140750,1,8,0:3:0:0:
160,323,140929,1,0,1:0:0:0:
160,323,141018,1,0,0:0:0:0:
160,323,141107,6,0,L|214:308,1,36,8|0,0:3|0:0,0:0:0:0:
374,309,141286,6,0,L|364:274,1,36,0|0,1:0|0:0,0:0:0:0:
361,95,141464,6,0,L|326:104,1,36,8|0,0:3|0:0,0:0:0:0:
146,108,141643,6,0,L|155:142,1,36,0|0,1:0|0:0,0:0:0:0:
198,225,141821,6,0,B|237:243|263:210|263:210|263:208|263:208|289:179|326:197,1,144,12|2,0:2|0:0,0:0:0:0:
408,216,142268,1,2,0:0:0:0:
409,228,142357,2,0,P|396:261|362:274,1,72,2|0,0:0|0:0,0:0:0:0:
288,348,142625,1,0,0:0:0:0:
286,340,142714,2,0,L|276:280,1,36,2|0,0:0|0:0,0:0:0:0:
408,216,142893,2,0,L|398:156,1,36,2|0,1:2|0:0,0:0:0:0:
319,24,143071,6,0,P|368:54|343:109,1,108,4|0,3:0|0:0,0:0:0:0:
348,107,143429,6,0,B|304:91|290:128|291:129|292:130|271:169|224:149,1,135,4|0,1:2|0:0,0:0:0:0:
172,87,143786,2,0,P|191:48|239:42,1,90,10|0,0:0|0:0,0:0:0:0:
359,96,144143,1,2,1:2:0:0:
257,238,144321,2,0,P|241:195|232:151,1,90,2|8,1:2|0:0,0:0:0:0:
78,69,144679,2,0,P|93:111|102:155,1,90,0|0,0:0|1:2,0:0:0:0:
171,331,145036,5,0,0:0:0:0:
257,238,145214,1,10,0:0:0:0:
294,358,145393,1,0,0:0:0:0:
232,151,145571,5,2,1:2:0:0:
357,293,145750,1,2,1:2:0:0:
171,331,145929,1,8,0:0:0:0:
174,318,146018,1,0,0:0:0:0:
177,305,146107,1,0,0:0:0:0:
39,201,146286,6,0,P|53:244|63:295,1,90,2|0,1:2|0:0,0:0:0:0:
232,151,146643,1,10,0:0:0:0:
254,237,146821,1,0,0:0:0:0:
137,90,147000,6,0,P|151:47|161:-4,1,90,0|0,1:2|1:0,0:0:0:0:
330,140,147357,1,10,0:0:0:0:
352,54,147535,1,0,0:0:0:0:
159,176,147714,5,0,1:0:0:0:
137,90,147893,1,0,0:0:0:0:
262,245,148071,1,10,0:0:0:0:
262,245,148160,1,0,0:0:0:0:
262,245,148250,2,0,L|275:187,1,45,0|0,0:0|0:0,0:0:0:0:
352,54,148429,5,0,1:0:0:0:
379,199,148607,1,0,1:0:0:0:
446,75,148786,2,0,B|435:58|437:38|437:38|387:9|349:56,1,135,10|0,0:0|0:0,0:0:0:0:
312,133,149143,5,4,1:2:0:0:
465,181,149321,2,0,P|418:182|365:208,1,90,0|8,1:0|1:3,0:0:0:0:
314,321,149679,1,0,1:0:0:0:
302,327,149768,1,0,1:0:0:0:
289,332,149857,2,0,P|242:331|189:305,2,90,8|0|8,1:3|1:0|0:0,0:0:0:0:
378,198,150393,5,0,0:0:0:0:
299,139,150571,1,0,1:0:0:0:
256,228,150750,1,0,1:0:0:0:
157,40,150929,5,8,1:3:0:0:
62,110,151107,1,0,1:0:0:0:
62,110,151196,1,0,1:0:0:0:
62,110,151286,1,8,1:3:0:0:
208,146,151464,1,0,1:0:0:0:
65,296,151643,6,0,P|57:246|36:196,1,90,8|0,0:0|1:0,0:0:0:0:
157,40,152000,5,4,1:2:0:0:
256,228,152179,1,0,0:0:0:0:
286,19,152357,1,8,1:3:0:0:
138,171,152536,1,0,1:0:0:0:
138,171,152625,1,0,1:0:0:0:
138,171,152714,1,8,1:3:0:0:
347,134,152893,1,0,1:0:0:0:
157,40,153071,6,0,B|109:24|93:63|93:64|93:65|70:101|26:82,1,135,8|0,0:0|0:0,0:0:0:0:
15,3,153429,5,4,1:2:0:0:
222,107,153607,1,0,1:0:0:0:
0,187,153786,1,8,1:3:0:0:
239,0,153964,5,0,1:0:0:0:
239,0,154054,1,0,1:0:0:0:
239,0,154143,1,8,1:3:0:0:
26,86,154321,1,0,1:0:0:0:
246,193,154500,2,0,P|238:147|212:87,1,90,8|0,0:0|1:0,0:0:0:0:
208,293,154857,5,12,0:0:0:0:
320,84,155036,1,0,1:0:0:0:
332,368,155214,5,8,0:0:0:0:
222,106,155393,1,0,1:0:0:0:
208,293,155571,5,8,1:2:0:0:
225,298,155660,1,8,0:0:0:0:
243,303,155749,1,8,0:0:0:0:
320,84,155929,5,8,0:0:0:0:
338,80,156018,1,8,0:0:0:0:
355,75,156107,2,0,P|361:102|369:140,1,45,8|0,0:0|0:0,0:0:0:0:
435,201,156286,6,0,P|444:166|456:117,1,72,4|0,1:2|0:0,0:0:0:0:
207,43,156643,2,0,P|204:78|240:115,1,72,2|0,1:2|0:0,0:0:0:0:
382,49,157000,2,0,P|373:84|361:133,1,72,0|0,1:0|0:0,0:0:0:0:
312,275,157357,2,0,P|302:207|274:145,1,108,2|0,1:2|0:0,0:0:0:0:
224,108,157714,6,0,P|204:134|197:178,1,72,0|0,1:0|0:0,0:0:0:0:
234,262,158071,1,2,1:2:0:0:
288,170,158250,1,2,0:0:0:0:
244,257,158429,2,0,P|279:258|317:279,1,72,0|0,1:0|0:0,0:0:0:0:
431,189,158786,2,0,P|396:190|358:211,1,72,2|0,1:2|0:0,0:0:0:0:
171,341,159143,6,0,B|214:300|183:254|181:255|179:256|150:208|194:173,1,180,0|0,1:2|0:0,0:0:0:0:
203,170,159679,1,0,0:0:0:0:
193,66,159857,2,0,P|121:63|139:132,1,144,0|2,1:0|1:2,0:0:0:0:
203,170,160393,1,0,0:0:0:0:
344,148,160571,6,0,P|318:122|285:114,1,72,0|0,1:0|0:0,0:0:0:0:
234,262,160929,2,0,P|269:250|312:244,1,72,2|2,1:2|0:0,0:0:0:0:
376,316,161286,1,0,1:0:0:0:
386,313,161464,1,0,0:0:0:0:
434,220,161643,1,2,1:2:0:0:
424,217,161821,1,0,0:0:0:0:
344,148,162000,6,0,P|328:105|379:55,1,108,4|0,1:2|0:0,0:0:0:0:
438,19,162357,2,0,P|462:52|451:88,1,72,2|0,1:2|0:0,0:0:0:0:
334,140,162714,2,0,P|267:107|198:95,1,144,0|2,1:0|1:2,0:0:0:0:
43,30,163250,6,0,P|59:62|66:98,1,72,0|0,0:0|1:0,0:0:0:0:
159,250,163607,2,0,P|165:214|181:182,1,72,0|2,0:0|1:2,0:0:0:0:
205,10,163964,2,0,P|169:10|141:31,1,72,2|0,0:0|1:0,0:0:0:0:
181,182,164321,1,0,0:0:0:0:
199,95,164500,1,2,1:2:0:0:
286,113,164679,1,2,0:0:0:0:
268,200,164857,6,0,P|276:232|288:282,1,72,0|0,1:2|0:0,0:0:0:0:
390,326,165214,2,0,P|382:294|370:244,1,72,2|0,1:2|0:0,0:0:0:0:
431,129,165571,1,0,1:0:0:0:
432,138,165750,2,0,P|440:170|452:220,1,72,0|2,0:0|1:2,0:0:0:0:
268,200,166107,6,0,P|276:168|288:118,1,72,0|0,0:0|1:0,0:0:0:0:
372,256,166464,2,0,P|364:288|352:338,1,72,0|2,0:0|1:2,0:0:0:0:
168,337,166821,1,10,0:0:0:0:
268,200,167000,1,0,1:0:0:0:
107,253,167179,1,0,1:0:0:0:
267,306,167357,1,4,1:3:0:0:
168,168,167536,1,2,0:0:0:0:
168,168,167625,1,2,0:0:0:0:
168,168,167714,6,0,P|143:132|150:84,1,80.9999975280763,6|0,1:2|0:0,0:0:0:0:
250,34,168071,2,0,P|254:78|222:115,1,80.9999975280763,8|2,0:0|0:0,0:0:0:0:
144,96,168339,1,0,0:0:0:0:
142,105,168429,2,0,P|105:130|57:121,1,80.9999975280763,0|2,1:0|0:0,0:0:0:0:
0,73,168786,1,8,0:0:0:0:
82,38,168965,1,2,0:0:0:0:
70,127,169143,6,0,P|64:167|54:209,1,80.9999975280763,0|2,1:0|0:0,0:0:0:0:
124,324,169500,2,0,P|130:284|140:242,1,80.9999975280763,8|2,0:0|0:0,0:0:0:0:
234,197,169857,1,0,1:0:0:0:
143,234,170036,1,2,0:0:0:0:
210,353,170214,2,0,P|251:357|286:317,1,80.9999975280763,8|2,0:0|0:0,0:0:0:0:
364,236,170571,6,0,P|302:214|232:197,1,121.499996292114,4|0,1:2|0:0,0:0:0:0:
234,197,170929,1,8,0:0:0:0:
368,141,171107,1,2,0:0:0:0:
368,141,171286,2,0,P|329:127|290:117,1,80.9999975280763,0|2,1:0|0:0,0:0:0:0:
346,42,171643,1,8,0:0:0:0:
442,80,171821,1,2,0:0:0:0:
442,80,171911,1,2,0:0:0:0:
442,80,172000,6,0,P|465:112|457:157,1,80.9999975280763,4|2,1:2|0:0,0:0:0:0:
343,230,172357,1,8,0:0:0:0:
437,279,172536,1,2,0:0:0:0:
346,219,172714,2,0,P|357:175|369:137,1,80.9999975280763,0|2,1:0|0:0,0:0:0:0:
225,40,173071,5,8,0:0:0:0:
168,114,173250,1,2,0:0:0:0:
242,171,173429,2,0,P|234:193|224:227,2,45,4|0|8,1:2|0:0|0:0,0:0:0:0:
168,114,173964,5,0,0:0:0:0:
225,40,174143,2,0,P|247:48|281:58,2,45,0|0|8,1:0|1:0|0:0,0:0:0:0:
168,114,174679,5,0,0:0:0:0:
94,57,174857,2,0,P|102:35|112:1,2,45,0|0|12,1:2|0:0|0:0,0:0:0:0:
168,114,175393,5,0,0:0:0:0:
111,188,175571,2,0,P|89:180|55:170,2,45,0|0|12,1:0|1:0|0:0,0:0:0:0:
168,114,176107,5,0,0:0:0:0:
244,171,176286,5,0,1:0:0:0:
244,171,176464,1,0,1:0:0:0:
230,40,176643,5,12,0:0:0:0:
168,114,176821,1,0,0:0:0:0:
94,57,177000,5,0,1:0:0:0:
94,57,177179,1,0,1:0:0:0:
111,188,177357,5,12,0:0:0:0:
168,114,177536,1,0,0:0:0:0:
94,57,177714,5,8,0:0:0:0:
244,171,177893,1,8,0:0:0:0:
225,40,178250,5,0,1:0:0:0:
111,188,178429,2,0,P|89:180|55:170,1,45,8|8,0:0|0:0,0:0:0:0:
94,57,178607,2,0,P|102:35|112:1,1,45,8|8,0:0|0:0,0:0:0:0:
225,40,178786,2,0,P|247:48|281:58,1,45,8|8,0:0|0:0,0:0:0:0:
242,171,178964,2,0,P|234:193|224:227,1,45,8|8,0:0|0:0,0:0:0:0:
227,213,179500,6,0,B|271:180|307:223|306:224|305:225|331:262|380:235,1,161.999995056153,4|0,1:2|0:0,0:0:0:0:
408,154,179857,1,0,1:0:0:0:
251,318,180036,2,0,P|240:266|223:201,1,107.999996704102,8|0,0:0|1:0,0:0:0:0:
488,76,180393,1,0,1:0:0:0:
488,76,180482,1,0,1:0:0:0:
488,76,180571,6,0,P|499:128|516:193,1,107.999996704102,4|0,1:2|0:0,0:0:0:0:
373,238,180929,1,8,0:0:0:0:
408,154,181107,1,8,0:0:0:0:
481,272,181286,5,8,1:2:0:0:
474,286,181375,1,8,0:0:0:0:
467,300,181464,1,8,0:0:0:0:
460,314,181554,1,0,0:0:0:0:
453,328,181643,2,0,L|374:355,1,53.9999983520508,8|0,1:2|0:0,0:0:0:0:
174,229,181821,1,8,0:0:0:0:
200,220,181910,1,8,0:0:0:0:
226,212,182000,6,0,B|253:96|253:96|242:117|218:123,1,161.999995056153,4|0,1:2|0:0,0:0:0:0:
180,40,182357,1,10,0:0:0:0:
344,116,182536,1,0,0:0:0:0:
125,164,182714,1,0,1:0:0:0:
344,116,182893,2,0,P|330:57|317:5,1,107.999996704102,0|10,1:0|0:0,0:0:0:0:
98,68,183250,6,0,P|125:30|186:47,2,107.999996704102,0|0|0,0:0|1:0|0:0,0:0:0:0:
220,122,183786,1,10,0:0:0:0:
99,268,183964,1,0,0:0:0:0:
99,268,184054,1,8,0:0:0:0:
99,268,184143,2,0,P|112:214|126:158,1,107.999996704102,0|0,1:0|1:0,0:0:0:0:
25,1,184500,2,0,P|12:55|-2:111,1,107.999996704102,10|2,0:0|1:2,0:0:0:0:
31,317,184857,6,0,B|75:286|107:325|106:326|105:326|137:363|180:331,1,161.999995056153,4|0,1:2|0:0,0:0:0:0:
265,290,185214,5,10,0:0:0:0:
124,163,185393,1,0,0:0:0:0:
289,130,185571,5,0,1:0:0:0:
48,217,185750,1,0,1:0:0:0:
335,219,185929,5,10,0:0:0:0:
56,101,186107,1,0,0:0:0:0:
258,52,186286,6,0,P|236:118|212:228,1,161.999995056153,0|0,1:0|0:0,0:0:0:0:
245,290,186643,1,10,0:0:0:0:
330,206,186821,1,0,0:0:0:0:
362,321,187000,2,0,P|350:268|334:216,1,107.999996704102,0|0,1:0|1:0,0:0:0:0:
439,106,187357,1,10,0:0:0:0:
468,255,187536,1,2,1:2:0:0:
289,130,187714,6,0,B|235:111|213:151|214:152|215:153|194:193|143:171,1,161.999995056153,0|0,1:2|0:0,0:0:0:0:
92,87,188071,1,10,0:0:0:0:
223,252,188250,1,0,0:0:0:0:
26,193,188429,1,0,1:0:0:0:
289,130,188608,1,0,1:0:0:0:
95,100,188786,2,0,P|112:176|131:275,1,161.999995056153,10|0,0:0|0:0,0:0:0:0:
75,330,189143,6,0,P|103:339|133:352,1,53.9999983520508,4|8,1:2|1:2,0:0:0:0:
323,335,189321,1,8,1:2:0:0:
333,304,189410,1,8,1:2:0:0:
327,273,189499,1,10,1:2:0:0:
307,248,189588,1,0,1:0:0:0:
277,237,189679,2,0,P|249:246|219:259,1,53.9999983520508,0|0,1:2|1:2,0:0:0:0:
61,196,189857,6,0,B|48:163|22:168|-30:151|-5:61|56:60|79:99|79:99,1,188.999994232178,12|0,1:2|0:0,0:0:0:0:
71,197,190214,2,0,B|91:169|115:181|169:178|171:85|113:68|79:99|79:99,1,188.999994232178,12|0,1:2|0:0,0:0:0:0:
7,274,190571,6,0,P|58:287|114:312,1,107.999996704102,4|0,1:2|0:0,0:0:0:0:
277,237,190929,5,10,0:0:0:0:
120,315,191107,1,0,0:0:0:0:
298,347,191286,5,0,1:0:0:0:
71,197,191464,1,0,1:0:0:0:
354,289,191643,5,10,0:0:0:0:
36,370,191821,1,0,0:0:0:0:
271,109,192000,6,0,B|282:136|311:147|311:147|226:154|158:195,1,215.999993408203,0|10,1:0|0:0,0:0:0:0:
152,200,192536,1,0,0:0:0:0:
344,69,192714,5,0,1:0:0:0:
277,237,192893,1,0,1:0:0:0:
190,78,193071,5,10,0:0:0:0:
275,331,193250,1,2,1:2:0:0:
367,192,193429,6,0,P|298:142|221:159,1,161.999995056153,0|0,1:2|0:0,0:0:0:0:
152,200,193786,2,0,P|97:200|73:158,1,107.999996704102,10|0,0:0|0:0,0:0:0:0:
190,78,194143,1,0,1:0:0:0:
185,312,194321,2,0,P|173:259|155:208,1,107.999996704102,0|10,1:0|0:0,0:0:0:0:
397,88,194679,6,0,P|378:138|366:191,2,107.999996704102,0|0|0,1:0|1:0|0:0,0:0:0:0:
481,31,195125,1,8,0:0:0:0:
481,31,195214,1,10,0:0:0:0:
512,124,195393,1,8,0:0:0:0:
325,250,195571,1,0,1:0:0:0:
336,215,195661,1,8,0:0:0:0:
365,191,195750,1,0,1:0:0:0:
402,188,195839,1,8,0:0:0:0:
435,207,195929,2,0,P|441:232|448:269,1,53.9999983520508,10|0,0:0|0:0,0:0:0:0:
462,354,196107,1,10,1:2:0:0:
511,123,196286,6,0,P|460:107|408:94,1,107.999996704102,4|0,1:2|0:0,0:0:0:0:
257,40,196643,2,0,P|308:24|360:10,1,107.999996704102,10|0,0:0|1:0,0:0:0:0:
325,250,197000,5,10,0:0:0:0:
408,94,197179,1,0,1:0:0:0:
325,250,197357,1,10,0:0:0:0:
408,94,197536,1,0,1:0:0:0:
182,142,197714,6,0,P|236:137|282:166,1,107.999996704102,10|0,0:0|1:0,0:0:0:0:
466,352,198071,2,0,P|412:357|366:328,1,107.999996704102,10|0,0:0|1:0,0:0:0:0:
414,198,198429,1,10,0:0:0:0:
236,302,198607,1,0,1:0:0:0:
236,302,198696,1,0,1:0:0:0:
236,302,198786,1,10,1:2:0:0:
325,250,198964,1,0,1:0:0:0:
113,163,199143,5,4,1:3:0:0:
220,193,199411,1,4,1:3:0:0:
190,300,199679,1,0,1:0:0:0:
113,163,199857,5,4,1:3:0:0:
83,270,200125,1,4,1:3:0:0:
190,300,200393,1,0,1:0:0:0:
29,197,200571,5,8,2:0:0:0:
185,109,200750,1,8,2:0:0:0:
273,265,200929,1,8,2:0:0:0:
117,353,201108,1,8,2:0:0:0:
81,82,201286,6,0,P|130:93|187:110,1,107.999996704102,0|0,1:0|1:3,0:0:0:0:
291,58,201554,1,0,1:3:0:0:
293,46,201643,2,0,P|244:35|187:18,1,107.999996704102,8|0,2:0|0:0,0:0:0:0:
179,255,202000,5,14,1:2:0:0:
192,115,202179,1,0,1:0:0:0:
179,255,202357,5,10,0:0:0:0:
192,115,202536,1,0,1:0:0:0:
319,268,202714,5,10,0:0:0:0:
332,128,202893,1,0,1:0:0:0:
319,268,203071,5,10,0:0:0:0:
332,128,203250,1,0,1:0:0:0:
179,250,203429,5,10,1:2:0:0:
192,115,203607,1,0,1:0:0:0:
319,268,203786,1,10,0:0:0:0:
332,128,203964,1,0,1:0:0:0:
179,250,204143,5,10,0:0:0:0:
319,268,204321,1,0,1:0:0:0:
192,115,204500,1,10,0:0:0:0:
332,128,204678,1,0,1:0:0:0:
341,123,204768,1,0,0:0:0:0:
350,118,204857,6,0,P|341:71|331:28,1,90,14|0,1:2|1:0,0:0:0:0:
330,286,205214,2,0,P|377:277|420:267,1,90,10|0,0:0|1:0,0:0:0:0:
162,266,205571,2,0,P|171:313|181:356,1,90,10|0,0:0|1:0,0:0:0:0:
182,98,205929,2,0,P|135:107|92:117,1,90,10|0,0:0|1:0,0:0:0:0:
347,111,206286,5,10,1:2:0:0:
330,286,206464,1,0,1:0:0:0:
162,266,206643,1,10,0:0:0:0:
182,98,206821,1,0,1:0:0:0:
469,178,207000,6,0,P|434:212|379:195,1,90,10|0,0:0|1:0,0:0:0:0:
347,111,207268,1,0,1:0:0:0:
350,100,207357,1,10,0:0:0:0:
353,89,207446,1,0,1:0:0:0:
356,78,207536,2,0,P|383:72|414:65,1,45,0|0,1:0|0:0,0:0:0:0:
385,202,207714,5,14,1:2:0:0:
266,60,207893,1,0,1:0:0:0:
385,202,208071,5,10,0:0:0:0:
266,60,208250,1,0,1:0:0:0:
243,319,208429,5,10,0:0:0:0:
125,179,208607,1,0,1:0:0:0:
243,319,208786,5,10,0:0:0:0:
125,179,208964,1,0,1:0:0:0:
385,202,209143,5,10,1:2:0:0:
266,60,209322,1,0,1:0:0:0:
243,319,209500,1,10,0:0:0:0:
125,179,209678,1,0,1:0:0:0:
347,111,209857,5,10,0:0:0:0:
182,98,210036,1,0,1:2:0:0:
330,286,210214,1,10,1:2:0:0:
162,266,210393,1,0,1:2:0:0:
162,266,210482,1,0,0:0:0:0:
162,266,210571,6,0,B|107:249|93:298|94:298|96:300|68:350|23:324,1,161.999995056153,4|0,1:2|0:0,0:0:0:0:
0,203,211286,1,0,1:0:0:0:
2,195,211375,1,0,1:0:0:0:
4,187,211464,2,0,L|15:139,1,26.9999991760254,0|0,1:2|1:0,0:0:0:0:
33,66,211643,1,0,1:0:0:0:
174,178,211821,6,0,P|195:256|219:342,1,161.999995056153,4|0,1:2|0:0,0:0:0:0:
329,286,212536,5,0,1:0:0:0:
329,286,212625,1,0,1:0:0:0:
329,286,212714,1,0,1:0:0:0:
350,118,212893,1,8,1:3:0:0:
182,97,213072,1,0,1:0:0:0:
161,265,213250,1,4,1:3:0:0:
256,192,213429,5,4,1:2:0:0:
256,192,213518,12,0,217714,0:0:0:0:
