osu file format v14

[General]
AudioFilename: audio.mp3
AudioLeadIn: 0
PreviewTime: 571
Countdown: 0
SampleSet: Normal
StackLeniency: 0.7
Mode: 1
LetterboxInBreaks: 0
WidescreenStoryboard: 1

[Editor]
DistanceSpacing: 0.1
BeatDivisor: 4
GridSize: 4
TimelineZoom: 1

[Metadata]
Title:Sakura Remix
TitleUnicode:Sakura Remix
Artist:Tsuchiya Shohei
ArtistUnicode:土屋 昇平
Creator:POCARI SWEAT
Version:Futsuu
Source:GROOVE COASTER
Tags:Instrumental Electronic Video Rhythm Game TAITO Extended Play3 Zero AC タイトー グルーヴコースター ZUNTATA Variety Shouhei
BeatmapID:2452267
BeatmapSetID:1175737

[Difficulty]
HPDrainRate:8
CircleSize:5
OverallDifficulty:3
ApproachRate:5
SliderMultiplier:1.4
SliderTickRate:1

[Events]
//Background and Video events
0,0,"sakura-2686483_1920.jpg",0,0
//Break Periods
//Storyboard Layer 0 (Background)
//Storyboard Layer 1 (Fail)
//Storyboard Layer 2 (Pass)
//Storyboard Layer 3 (Foreground)
//Storyboard Layer 4 (Overlay)
//Storyboard Sound Samples

[TimingPoints]
571,750,4,1,0,50,1,0
571,-111.111111111111,4,1,0,50,0,0
29071,-111.111111111111,4,1,0,75,0,0
30571,-100,4,1,0,75,0,1
42571,-100,4,1,0,75,0,0
48571,-100,4,1,0,75,0,1
53821,-90.9090909090909,4,1,0,75,0,0
54196,-90.9090909090909,4,1,0,75,0,1
60571,-100,4,1,0,40,0,0
81946,-90.9090909090909,4,1,0,30,0,0
82696,-100,4,1,0,60,0,0
83071,-90.9090909090909,4,1,0,75,0,0
83164,-50,4,1,0,25,0,0
84547,-111.111111111111,4,1,0,50,0,0
94696,-100,4,1,0,50,0,0

[HitObjects]
246,216,571,5,0,0:0:0:0:
246,216,1321,1,0,0:0:0:0:
160,154,2071,1,8,0:0:0:0:
259,119,2446,1,8,0:0:0:0:
246,216,3571,1,0,0:0:0:0:
246,216,4321,1,0,0:0:0:0:
160,154,5071,1,8,0:0:0:0:
326,133,5446,1,8,0:0:0:0:
197,113,6633,1,8,0:0:0:0:
203,112,7383,1,0,0:0:0:0:
149,93,8133,1,8,0:0:0:0:
203,112,8883,1,0,0:0:0:0:
203,112,9633,1,0,0:0:0:0:
207,103,10383,1,8,0:0:0:0:
204,105,10758,1,8,0:0:0:0:
201,106,11133,1,0,0:0:0:0:
36,132,12196,1,0,0:0:0:0:
239,144,12571,1,8,0:0:0:0:
248,151,13321,1,0,0:0:0:0:
239,144,14071,1,8,0:0:0:0:
248,151,14821,1,8,0:0:0:0:
248,151,15571,1,8,0:0:0:0:
352,108,16321,1,8,0:0:0:0:
172,111,16696,1,0,0:0:0:0:
239,127,17071,1,0,0:0:0:0:
243,122,18571,1,0,0:0:0:0:
243,122,19321,1,0,0:0:0:0:
310,189,20071,1,8,0:0:0:0:
290,82,20446,1,8,0:0:0:0:
243,122,21571,1,0,0:0:0:0:
243,122,22321,1,0,0:0:0:0:
310,189,23071,1,8,0:0:0:0:
258,73,23446,1,8,0:0:0:0:
185,109,24196,1,8,0:0:0:0:
186,104,24633,1,0,0:0:0:0:
186,104,25383,1,8,0:0:0:0:
186,104,26133,1,8,0:0:0:0:
186,104,26508,1,0,0:0:0:0:
410,128,26883,1,0,0:0:0:0:
409,126,27571,1,0,0:0:0:0:
409,126,29446,1,0,0:0:0:0:
409,126,30196,1,0,0:0:0:0:
230,56,30571,1,0,0:0:0:0:
230,55,31321,1,8,0:0:0:0:
211,105,31696,1,0,0:0:0:0:
211,105,32071,1,0,0:0:0:0:
209,105,32821,1,8,0:0:0:0:
209,105,33571,1,0,0:0:0:0:
209,105,34321,1,8,0:0:0:0:
144,152,35071,1,8,0:0:0:0:
309,170,35446,1,8,0:0:0:0:
311,270,35821,1,8,0:0:0:0:
144,152,36196,1,8,0:0:0:0:
303,82,36571,1,8,0:0:0:0:
173,150,37321,1,8,0:0:0:0:
173,150,37696,1,0,0:0:0:0:
167,92,38071,1,0,0:0:0:0:
318,95,38821,1,8,0:0:0:0:
318,95,39571,1,0,0:0:0:0:
203,180,39946,1,0,0:0:0:0:
318,94,40321,1,8,0:0:0:0:
318,94,41071,1,0,0:0:0:0:
318,94,41821,1,8,0:0:0:0:
91,130,42196,1,0,0:0:0:0:
91,130,42571,1,0,0:0:0:0:
90,129,43321,1,8,0:0:0:0:
93,106,44071,1,0,0:0:0:0:
93,106,44446,1,0,0:0:0:0:
91,103,44821,1,8,0:0:0:0:
91,103,45196,1,8,0:0:0:0:
176,97,45571,1,0,0:0:0:0:
133,90,46321,1,8,0:0:0:0:
117,102,46696,1,0,0:0:0:0:
133,90,47071,1,0,0:0:0:0:
218,165,47446,1,0,0:0:0:0:
231,104,48196,1,8,0:0:0:0:
231,104,48571,1,0,0:0:0:0:
169,122,49321,1,8,0:0:0:0:
169,122,50071,1,8,0:0:0:0:
169,122,50446,1,0,0:0:0:0:
171,121,50821,1,8,0:0:0:0:
171,121,51196,1,0,0:0:0:0:
171,121,51571,1,0,0:0:0:0:
171,121,51946,1,8,0:0:0:0:
171,121,52321,1,8,0:0:0:0:
172,119,53071,1,8,0:0:0:0:
172,119,53446,1,0,0:0:0:0:
197,160,54196,1,0,0:0:0:0:
177,68,54571,1,0,0:0:0:0:
177,68,55321,1,8,0:0:0:0:
115,33,56071,1,0,0:0:0:0:
178,65,56446,1,0,0:0:0:0:
178,65,56821,1,8,0:0:0:0:
442,36,57571,1,0,0:0:0:0:
143,194,58321,1,8,0:0:0:0:
144,193,58696,1,0,0:0:0:0:
264,153,59446,1,0,0:0:0:0:
331,126,59821,1,8,0:0:0:0:
390,75,60571,1,0,0:0:0:0:
265,187,61321,1,0,0:0:0:0:
148,105,61696,1,0,0:0:0:0:
265,187,62071,1,8,0:0:0:0:
265,187,63571,1,0,0:0:0:0:
265,186,64321,1,0,0:0:0:0:
148,105,64696,1,0,0:0:0:0:
265,186,65071,1,8,0:0:0:0:
265,186,66633,1,0,0:0:0:0:
265,186,67383,1,0,0:0:0:0:
265,186,68133,1,8,0:0:0:0:
265,186,68883,1,8,0:0:0:0:
265,186,69571,1,12,0:0:0:0:
136,104,70321,1,8,0:0:0:0:
148,104,70696,1,0,0:0:0:0:
136,104,71071,1,4,0:0:0:0:
88,82,72196,1,4,0:0:0:0:
89,80,72571,1,8,0:0:0:0:
89,80,73321,1,0,0:0:0:0:
89,80,74071,1,0,0:0:0:0:
207,139,74446,1,12,0:0:0:0:
89,80,74821,1,0,0:0:0:0:
105,114,75946,1,8,0:0:0:0:
105,114,76321,1,0,0:0:0:0:
105,114,77071,1,0,0:0:0:0:
105,114,78196,1,8,0:0:0:0:
105,114,78571,1,0,0:0:0:0:
105,114,78946,1,8,0:0:0:0:
105,114,80446,1,8,0:0:0:0:
24,117,81946,2,0,L|110:133,1,77.0000023498536
304,102,83071,1,0,0:0:0:0:
296,99,84571,1,0,0:0:0:0:
185,80,85321,1,0,0:0:0:0:
180,77,86071,1,8,0:0:0:0:
186,144,86446,1,8,0:0:0:0:
169,83,87571,1,0,0:0:0:0:
169,83,88321,1,0,0:0:0:0:
157,146,89071,1,8,0:0:0:0:
157,144,89446,1,8,0:0:0:0:
199,104,90571,1,0,0:0:0:0:
200,104,91321,1,8,0:0:0:0:
198,104,92071,1,8,0:0:0:0:
198,104,92446,1,8,0:0:0:0:
198,104,92821,1,0,0:0:0:0:
238,194,93196,1,0,0:0:0:0:
198,104,93571,1,0,0:0:0:0:
20,83,94696,1,0,0:0:0:0:
