osu file format v14

[General]
AudioFilename: Tomoshibi no Manimani (TV Size).mp3
AudioLeadIn: 0
PreviewTime: 59966
Countdown: 0
SampleSet: Soft
StackLeniency: 0.7
Mode: 3
LetterboxInBreaks: 0
SpecialStyle: 0
WidescreenStoryboard: 1

[Editor]
Bookmarks: 370
DistanceSpacing: 1.7
BeatDivisor: 4
GridSize: 32
TimelineZoom: 1.4

[Metadata]
Title:Tomoshibi no Manimani (TV Size)
TitleUnicode:灯火のまにまに (TV Size)
Artist:Tsubaki Aoi (CV: Touyama Nao)
ArtistUnicode:津場木葵 (CV: 東山奈央)
Creator:bima fajar
Version:Hard
Source:かくりよの宿飯
Tags:kakuriyo no yadomeshi dudehacker
BeatmapID:2247888
BeatmapSetID:1074098

[Difficulty]
HPDrainRate:7.5
CircleSize:4
OverallDifficulty:7.5
ApproachRate:5
SliderMultiplier:1.4
SliderTickRate:1

[Events]
//Background and Video events
0,0,"BG3.jpg",0,0
//Break Periods
//Storyboard Layer 0 (Background)
//Storyboard Layer 1 (Fail)
//Storyboard Layer 2 (Pass)
//Storyboard Layer 3 (Foreground)
//Storyboard Layer 4 (Overlay)
//Storyboard Sound Samples

[TimingPoints]
6558,375,4,2,1,50,1,0
60558,-100,4,2,1,70,0,1
72464,-100,4,2,1,70,0,0
72558,-100,4,2,1,70,0,1
84464,-100,4,2,1,70,0,0

[HitObjects]
448,192,558,5,0,0:0:0:0:
64,192,933,1,0,0:0:0:0:
192,192,1120,1,0,0:0:0:0:
320,192,1308,1,0,0:0:0:0:
448,192,1495,1,0,0:0:0:0:
64,192,1683,128,0,2058:0:0:0:0:
192,192,2058,1,0,0:0:0:0:
448,192,2433,1,0,0:0:0:0:
320,192,2620,1,0,0:0:0:0:
192,192,2808,1,0,0:0:0:0:
64,192,2995,1,0,0:0:0:0:
192,192,3183,1,0,0:0:0:0:
320,192,3370,1,0,0:0:0:0:
64,192,3558,1,0,0:0:0:0:
448,192,3558,128,0,4683:0:0:0:0:
192,192,4120,1,0,0:0:0:0:
320,192,4683,1,0,0:0:0:0:
64,192,5058,128,0,6558:0:0:0:0:
448,192,5058,1,0,0:0:0:0:
320,192,5995,1,2,0:0:0:0:
192,192,6183,128,8,6558:0:0:0:0:
448,192,6183,1,4,0:0:0:0:
320,192,6370,128,0,6558:0:0:0:0:
448,192,6558,1,6,0:0:0:0:
64,192,6933,1,8,0:0:0:0:
320,192,6933,1,0,0:0:0:0:
192,192,7120,1,0,0:0:0:0:
64,192,7308,1,2,0:0:0:0:
320,192,7495,1,2,0:0:0:0:
448,192,7495,1,0,0:0:0:0:
192,192,7683,1,8,0:0:0:0:
64,192,7870,1,2,0:0:0:0:
320,192,7870,1,0,0:0:0:0:
192,192,8245,1,2,0:0:0:0:
320,192,8339,1,0,0:0:0:0:
448,192,8433,1,8,0:0:0:0:
192,192,8620,1,0,0:0:0:0:
64,192,8808,1,2,0:0:0:0:
448,192,8995,1,2,0:0:0:0:
320,192,9183,1,8,0:0:0:0:
192,192,9370,1,0,0:0:0:0:
64,192,9558,1,2,0:0:0:0:
320,192,9558,1,0,0:0:0:0:
192,192,9933,1,8,0:0:0:0:
448,192,9933,1,0,0:0:0:0:
320,192,10214,1,8,0:0:0:0:
192,192,10308,1,2,0:0:0:0:
64,192,10495,1,2,0:0:0:0:
192,192,10683,1,8,0:0:0:0:
320,192,10870,1,2,0:0:0:0:
64,192,10870,1,0,0:0:0:0:
448,192,11245,1,2,0:0:0:0:
320,192,11339,1,0,0:0:0:0:
192,192,11433,1,8,0:0:0:0:
64,192,11620,1,0,0:0:0:0:
192,192,11808,128,2,12558:0:0:0:0:
320,192,12183,1,8,0:0:0:0:
448,192,12183,1,4,0:0:0:0:
64,192,12558,1,2,0:0:0:0:
320,192,12558,1,4,0:0:0:0:
192,192,12933,1,8,0:0:0:0:
320,192,12933,1,0,0:0:0:0:
448,192,13214,1,8,0:0:0:0:
64,192,13308,1,2,0:0:0:0:
192,192,13495,1,2,0:0:0:0:
320,192,13683,1,8,0:0:0:0:
448,192,13870,1,2,0:0:0:0:
64,192,14058,1,0,0:0:0:0:
192,192,14433,1,8,0:0:0:0:
320,192,14433,1,0,0:0:0:0:
64,192,14714,1,8,0:0:0:0:
192,192,14808,1,2,0:0:0:0:
448,192,14995,1,2,0:0:0:0:
320,192,15183,1,8,0:0:0:0:
192,192,15370,1,0,0:0:0:0:
64,192,15558,1,6,0:0:0:0:
448,192,15558,1,0,0:0:0:70:LR_J Hit.wav
64,192,15745,1,2,0:0:0:0:
320,192,15933,1,8,0:0:0:0:
320,192,16120,1,0,0:0:0:70:LR_J Hit.wav
192,192,16308,1,2,0:0:0:0:
192,192,16495,1,2,0:0:0:0:
320,192,16589,1,0,0:0:0:0:
448,192,16683,1,8,0:0:0:0:
64,192,16870,1,6,0:0:0:0:
320,192,16870,1,0,0:0:0:70:LR_J Hit.wav
448,192,17245,1,2,0:0:0:0:
64,192,17433,128,8,18558:0:0:0:0:
320,192,17433,1,0,0:0:0:70:LR_J Hit.wav
448,192,17808,1,0,0:0:0:70:Tom1.wav
320,192,18183,1,0,0:0:0:70:Tom3.wav
448,192,18370,1,0,0:0:0:70:Tom3.wav
192,192,18558,1,2,0:0:0:0:
320,192,18933,1,0,0:0:0:0:
192,192,19120,1,0,0:0:0:0:
448,192,19495,128,0,19870:0:0:0:0:
64,192,19870,1,0,0:0:0:0:
192,192,20058,1,0,0:0:0:0:
320,192,20058,1,0,0:0:0:0:
320,192,20433,1,0,0:0:0:0:
448,192,20620,1,0,0:0:0:0:
64,192,20808,1,0,0:0:0:0:
192,192,20808,1,0,0:0:0:0:
320,192,20995,1,0,0:0:0:0:
192,192,21370,1,0,0:0:0:0:
64,192,21558,1,0,0:0:0:0:
320,192,21558,1,0,0:0:0:0:
448,192,21933,1,0,0:0:0:0:
320,192,22120,1,0,0:0:0:0:
192,192,22495,128,0,22870:0:0:0:0:
64,192,22870,1,0,0:0:0:0:
320,192,23058,1,0,0:0:0:0:
448,192,23058,1,0,0:0:0:0:
64,192,23808,1,0,0:0:0:0:
192,192,24183,1,0,0:0:0:0:
448,192,24464,1,0,0:0:0:0:
64,192,24558,1,0,0:0:0:0:
320,192,24558,1,0,0:0:0:0:
192,192,24933,1,0,0:0:0:0:
448,192,25308,1,0,0:0:0:0:
320,192,25683,1,0,0:0:0:0:
64,192,25964,1,0,0:0:0:0:
192,192,26058,1,0,0:0:0:0:
320,192,26058,1,0,0:0:0:0:
448,192,26808,1,0,0:0:0:0:
320,192,27183,1,0,0:0:0:0:
192,192,27558,1,0,0:0:0:0:
448,192,27558,1,0,0:0:0:0:
320,192,27745,1,0,0:0:0:0:
192,192,27933,1,0,0:0:0:0:
64,192,28120,1,0,0:0:0:0:
448,192,28308,1,0,0:0:0:0:
320,192,28495,1,0,0:0:0:0:
192,192,28683,1,0,0:0:0:0:
64,192,28870,1,0,0:0:0:0:
192,192,29058,1,0,0:0:0:0:
448,192,29058,1,0,0:0:0:0:
320,192,29245,1,0,0:0:0:0:
448,192,29433,1,0,0:0:0:0:
64,192,29620,1,0,0:0:0:0:
192,192,29808,1,0,0:0:0:0:
448,192,29808,1,0,0:0:0:0:
320,192,29995,1,0,0:0:0:0:
64,192,30183,1,0,0:0:0:0:
192,192,30370,1,0,0:0:0:0:
320,192,30558,1,2,0:0:0:0:
448,192,30558,1,0,0:0:0:0:
64,192,30745,1,0,0:0:0:0:
192,192,30933,1,8,0:0:0:0:
448,192,30933,1,0,0:0:0:0:
320,192,31120,1,2,0:0:0:0:
448,192,31308,1,0,0:0:0:0:
64,192,31495,1,2,0:0:0:0:
192,192,31495,1,0,0:0:0:0:
320,192,31683,1,0,0:0:0:0:
192,192,31870,1,8,0:0:0:0:
448,192,31870,1,0,0:0:0:0:
320,192,32058,1,2,0:0:0:0:
192,192,32245,1,0,0:0:0:0:
64,192,32433,1,8,0:0:0:0:
320,192,32433,1,0,0:0:0:0:
448,192,32620,1,2,0:0:0:0:
64,192,32808,1,0,0:0:0:0:
192,192,32995,1,2,0:0:0:0:
320,192,32995,1,0,0:0:0:0:
448,192,33183,1,0,0:0:0:0:
64,192,33370,1,8,0:0:0:0:
320,192,33370,1,0,0:0:0:0:
192,192,33558,1,2,0:0:0:0:
448,192,33745,1,0,0:0:0:0:
64,192,33933,1,8,0:0:0:0:
320,192,33933,1,0,0:0:0:0:
448,192,34120,1,2,0:0:0:0:
64,192,34308,1,0,0:0:0:0:
192,192,34495,1,2,0:0:0:0:
320,192,34495,1,0,0:0:0:0:
448,192,34683,1,0,0:0:0:0:
64,192,34870,1,8,0:0:0:0:
320,192,34870,1,0,0:0:0:0:
192,192,35058,1,0,0:0:0:0:
320,192,35245,1,0,0:0:0:0:
64,192,35433,1,8,0:0:0:0:
448,192,35433,1,0,0:0:0:0:
192,192,35620,1,2,0:0:0:0:
320,192,35808,1,0,0:0:0:0:
64,192,35995,1,0,0:0:0:0:
320,192,36183,1,8,0:0:0:0:
448,192,36183,1,0,0:0:0:0:
192,192,36276,1,0,0:0:0:0:
320,192,36370,1,8,0:0:0:0:
192,192,36464,1,8,0:0:0:0:
320,192,36558,1,2,0:0:0:0:
448,192,36558,1,0,0:0:0:70:Splash.wav
192,192,36745,1,0,0:0:0:0:
64,192,36933,1,8,0:0:0:0:
448,192,36933,1,0,0:0:0:0:
192,192,37120,1,2,0:0:0:0:
320,192,37308,1,0,0:0:0:0:
64,192,37495,1,2,0:0:0:0:
192,192,37495,1,0,0:0:0:0:
320,192,37683,1,0,0:0:0:0:
192,192,37870,1,8,0:0:0:0:
448,192,37870,1,0,0:0:0:0:
320,192,38058,1,0,0:0:0:0:
64,192,38245,1,0,0:0:0:0:
192,192,38433,1,8,0:0:0:0:
448,192,38433,1,0,0:0:0:0:
64,192,38620,1,2,0:0:0:0:
192,192,38808,1,0,0:0:0:0:
320,192,38995,1,2,0:0:0:0:
448,192,38995,1,0,0:0:0:0:
192,192,39183,1,0,0:0:0:0:
64,192,39370,1,8,0:0:0:0:
320,192,39370,1,0,0:0:0:0:
192,192,39558,1,0,0:0:0:0:
448,192,39745,1,0,0:0:0:0:
64,192,39933,1,8,0:0:0:0:
320,192,39933,1,0,0:0:0:0:
192,192,40120,1,0,0:0:0:0:
64,192,40308,1,0,0:0:0:0:
320,192,40495,1,2,0:0:0:0:
448,192,40495,1,0,0:0:0:0:
192,192,40683,1,0,0:0:0:0:
64,192,40870,1,8,0:0:0:0:
320,192,40870,1,0,0:0:0:0:
192,192,41058,1,0,0:0:0:0:
320,192,41245,1,2,0:0:0:0:
448,192,41245,1,0,0:0:0:0:
64,192,41433,1,8,0:0:0:0:
320,192,41433,1,0,0:0:0:0:
448,192,41620,1,8,0:0:0:0:
320,192,41714,1,8,0:0:0:0:
64,192,41808,1,8,0:0:0:0:
192,192,41808,1,0,0:0:0:0:
320,192,41995,1,0,0:0:0:70:Tom1.wav
448,192,41995,1,0,0:0:0:0:
64,192,42183,1,0,0:0:0:70:Tom2.wav
192,192,42183,1,0,0:0:0:0:
320,192,42370,1,0,0:0:0:70:Tom3.wav
448,192,42370,1,0,0:0:0:0:
64,192,42558,1,2,0:0:0:0:
448,192,42558,1,0,0:0:0:70:Splash.wav
192,192,43308,1,0,0:0:0:0:
320,192,43683,1,0,0:0:0:0:
448,192,44058,1,0,0:0:0:0:
192,192,44808,128,0,45558:0:0:0:0:
448,192,45183,1,0,0:0:0:0:
448,192,45370,1,0,0:0:0:0:
64,192,45558,1,0,0:0:0:20:LR_Drum Hit Hard Long Drop.wav
320,192,45558,1,0,0:0:0:0:
320,192,45933,1,0,0:0:0:0:
192,192,46308,1,0,0:0:0:0:
64,192,46683,128,0,47058:0:0:0:0:
192,192,47058,1,0,0:0:0:0:
448,192,47058,1,0,0:0:0:0:
64,192,47808,1,0,0:0:0:20:LR_Drum Hit Hard Long Drop.wav
192,192,47808,1,0,0:0:0:0:
320,192,48183,1,0,0:0:0:0:
192,192,48558,1,0,0:0:0:20:LR_Drum Hit Hard Long Drop.wav
448,192,48558,1,0,0:0:0:0:
64,192,49167,1,0,0:0:0:0:
320,192,49683,1,0,0:0:0:0:
192,192,50058,1,0,0:0:0:0:
448,192,50058,1,0,0:0:0:0:
64,192,50808,1,0,0:0:0:20:LR_Drum Hit Hard Long Drop.wav
320,192,50808,128,0,51558:0:0:0:0:
192,192,51183,1,0,0:0:0:0:
192,192,51370,1,0,0:0:0:0:
64,192,51558,1,0,0:0:0:20:LR_Drum Hit Hard Long Drop.wav
448,192,51558,1,0,0:0:0:0:
64,192,51933,128,0,53808:0:0:0:0:
320,192,52308,1,0,0:0:0:0:
448,192,52683,1,0,0:0:0:0:
192,192,53058,1,8,0:0:0:0:
320,192,53058,1,0,0:0:0:0:
448,192,53433,1,0,0:0:0:0:
320,192,53808,1,0,0:0:0:0:
192,192,54183,1,0,0:0:0:70:Tom3.wav
320,192,54370,1,0,0:0:0:70:Tom3.wav
448,192,54558,1,4,0:0:0:0:
192,192,54558,1,2,0:0:0:0:
320,192,54933,1,2,0:0:0:0:
448,192,54933,1,0,0:0:0:0:
64,192,55120,1,0,0:0:0:70:Tom1.wav
192,192,55120,1,0,0:0:0:0:
320,192,55308,1,0,0:0:0:70:Tom2.wav
448,192,55308,1,0,0:0:0:0:
192,192,55495,1,0,0:0:0:70:Tom2.wav
320,192,55495,1,0,0:0:0:0:
64,192,55683,1,0,0:0:0:70:Tom3.wav
192,192,55683,1,0,0:0:0:0:
448,192,55870,1,0,0:0:0:0:
192,192,56058,1,0,0:0:0:70:Tom3.wav
320,192,56058,1,0,0:0:0:0:
64,192,56245,1,0,0:0:0:0:
320,192,56433,1,0,0:0:0:70:Tom3.wav
448,192,56433,1,0,0:0:0:0:
64,192,56620,1,0,0:0:0:70:Tom1.wav
192,192,56620,1,0,0:0:0:0:
320,192,56808,1,0,0:0:0:70:Tom3.wav
448,192,56808,1,0,0:0:0:0:
192,192,56901,1,0,0:0:0:0:
64,192,56995,1,0,0:0:0:0:
192,192,57183,1,0,0:0:0:70:Tom3.wav
448,192,57183,1,0,0:0:0:0:
64,192,57370,1,0,0:0:0:70:Tom2.wav
320,192,57370,1,0,0:0:0:0:
192,192,57558,1,4,0:0:0:0:
320,192,57558,1,2,0:0:0:0:
448,192,57558,1,0,0:0:0:0:
64,192,57745,1,0,0:0:0:0:
320,192,57933,1,8,0:0:0:0:
448,192,57933,1,0,0:0:0:0:
192,192,58120,1,2,0:0:0:0:
64,192,58308,1,8,0:0:0:0:
320,192,58308,1,0,0:0:0:0:
448,192,58495,1,2,0:0:0:0:
192,192,58683,1,8,0:0:0:0:
320,192,58683,1,0,0:0:0:0:
64,192,58870,1,2,0:0:0:0:
320,192,59058,1,8,0:0:0:0:
448,192,59058,1,0,0:0:0:70:Tom1.wav
320,192,59245,1,8,0:0:0:0:
64,192,59245,1,0,0:0:0:70:Tom1.wav
64,192,59433,1,8,0:0:0:0:
192,192,59433,1,0,0:0:0:70:Tom1.wav
320,192,59620,1,8,0:0:0:0:
192,192,59620,1,0,0:0:0:70:Tom1.wav
448,192,59620,1,0,0:0:0:0:
64,192,60183,1,0,0:0:0:0:
192,192,60370,1,0,0:0:0:0:
64,192,60558,1,4,0:0:0:0:
320,192,60558,1,2,0:0:0:0:
448,192,60558,1,0,0:0:0:0:
64,192,60933,1,8,0:0:0:0:
320,192,60933,1,0,0:0:0:0:
448,192,61120,1,0,0:0:0:0:
192,192,61308,1,2,0:0:0:0:
320,192,61308,1,0,0:0:0:0:
64,192,61683,1,8,0:0:0:0:
320,192,61683,1,0,0:0:0:50:LR_J Hit Pong.wav
448,192,61870,1,0,0:0:0:0:
64,192,62058,1,2,0:0:0:0:
192,192,62058,1,0,0:0:0:0:
448,192,62245,1,0,0:0:0:0:
320,192,62339,1,0,0:0:0:0:
192,192,62433,1,8,0:0:0:0:
448,192,62433,1,0,0:0:0:0:
320,192,62620,1,0,0:0:0:0:
64,192,62808,1,2,0:0:0:0:
192,192,62808,1,0,0:0:0:0:
320,192,62995,1,0,0:0:0:50:LR_J Hit Pong.wav
192,192,63183,1,8,0:0:0:0:
448,192,63183,1,0,0:0:0:50:LR_J Hit Pong.wav
64,192,63370,1,0,0:0:0:0:
320,192,63558,1,2,0:0:0:0:
448,192,63558,1,0,0:0:0:0:
64,192,63933,1,8,0:0:0:0:
320,192,63933,1,0,0:0:0:0:
448,192,64120,1,0,0:0:0:0:
320,192,64214,1,0,0:0:0:0:
64,192,64308,1,2,0:0:0:0:
192,192,64308,1,0,0:0:0:0:
448,192,64495,1,0,0:0:0:0:
64,192,64683,1,8,0:0:0:0:
320,192,64683,1,0,0:0:0:50:LR_J Hit Pong.wav
448,192,64870,1,0,0:0:0:0:
64,192,65058,1,2,0:0:0:0:
192,192,65058,1,0,0:0:0:0:
320,192,65245,1,0,0:0:0:0:
192,192,65339,1,0,0:0:0:0:
64,192,65433,1,8,0:0:0:0:
448,192,65433,1,0,0:0:0:0:
192,192,65620,1,0,0:0:0:0:
320,192,65808,1,2,0:0:0:0:
448,192,65808,1,0,0:0:0:0:
192,192,65901,1,0,0:0:0:0:
64,192,65995,1,0,0:0:0:50:LR_J Hit Pong.wav
64,192,66183,1,8,0:0:0:0:
320,192,66558,1,4,0:0:0:0:
448,192,66558,1,2,0:0:0:0:
64,192,66745,1,0,0:0:0:0:
192,192,66839,1,0,0:0:0:0:
64,192,66933,1,8,0:0:0:0:
320,192,66933,1,0,0:0:0:0:
448,192,67120,1,0,0:0:0:0:
64,192,67308,1,2,0:0:0:0:
192,192,67308,1,0,0:0:0:0:
320,192,67495,1,0,0:0:0:0:
192,192,67683,1,8,0:0:0:0:
448,192,67683,1,0,0:0:0:0:
320,192,67870,1,0,0:0:0:0:
64,192,68058,1,2,0:0:0:0:
192,192,68058,1,0,0:0:0:0:
64,192,68433,1,8,0:0:0:0:
448,192,68433,1,0,0:0:0:0:
192,192,68620,1,0,0:0:0:0:
320,192,68808,1,2,0:0:0:0:
448,192,68808,1,0,0:0:0:0:
192,192,68995,1,0,0:0:0:0:
320,192,69089,1,0,0:0:0:0:
192,192,69183,1,8,0:0:0:0:
448,192,69183,1,0,0:0:0:0:
64,192,69370,1,0,0:0:0:0:
192,192,69558,1,4,0:0:0:0:
448,192,69558,1,2,0:0:0:0:
64,192,69745,1,0,0:0:0:50:LR_J Hit Pong.wav
192,192,69745,1,0,0:0:0:0:
320,192,69933,1,2,0:0:0:0:
192,192,70120,1,0,0:0:0:50:LR_J Hit Pong.wav
448,192,70120,1,0,0:0:0:0:
320,192,70308,1,2,0:0:0:0:
64,192,70495,1,0,0:0:0:50:LR_J Hit Pong.wav
192,192,70495,1,0,0:0:0:0:
320,192,70683,1,2,0:0:0:0:
192,192,70870,1,0,0:0:0:50:LR_J Hit Pong.wav
448,192,70870,1,0,0:0:0:0:
64,192,71058,1,2,0:0:0:0:
320,192,71245,1,8,0:0:0:0:
448,192,71245,1,0,0:0:0:0:
192,192,71433,1,2,0:0:0:0:
64,192,71620,1,8,0:0:0:0:
448,192,71620,1,0,0:0:0:0:
192,192,71808,1,2,0:0:0:0:
64,192,71995,1,8,0:0:0:0:
448,192,71995,1,0,0:0:0:0:
320,192,72183,1,2,0:0:0:0:
448,192,72183,1,0,0:0:0:0:
192,192,72276,1,8,0:0:0:0:
320,192,72370,1,8,0:0:0:0:
192,192,72464,1,8,0:0:0:0:
320,192,72558,1,4,0:0:0:0:
448,192,72558,1,2,0:0:0:0:
192,192,72933,1,8,0:0:0:0:
448,192,72933,1,0,0:0:0:0:
64,192,73120,1,0,0:0:0:0:
192,192,73308,1,2,0:0:0:0:
320,192,73308,1,0,0:0:0:0:
64,192,73683,1,8,0:0:0:0:
320,192,73683,1,0,0:0:0:50:LR_J Hit Pong.wav
448,192,73870,1,0,0:0:0:0:
64,192,74058,1,2,0:0:0:0:
192,192,74058,1,0,0:0:0:0:
448,192,74245,1,0,0:0:0:0:
320,192,74339,1,0,0:0:0:0:
192,192,74433,1,8,0:0:0:0:
448,192,74433,1,0,0:0:0:0:
64,192,74620,1,0,0:0:0:0:
320,192,74808,1,2,0:0:0:0:
448,192,74808,1,0,0:0:0:0:
192,192,74995,1,0,0:0:0:50:LR_J Hit Pong.wav
64,192,75183,1,8,0:0:0:0:
320,192,75183,1,0,0:0:0:50:LR_J Hit Pong.wav
192,192,75370,1,0,0:0:0:0:
320,192,75558,1,2,0:0:0:0:
448,192,75558,1,0,0:0:0:0:
64,192,75933,1,8,0:0:0:0:
320,192,75933,1,0,0:0:0:0:
448,192,76120,1,0,0:0:0:0:
320,192,76214,1,0,0:0:0:0:
64,192,76308,1,2,0:0:0:0:
192,192,76308,1,0,0:0:0:0:
448,192,76495,1,0,0:0:0:0:
64,192,76683,1,8,0:0:0:0:
320,192,76683,1,0,0:0:0:50:LR_J Hit Pong.wav
192,192,76870,1,0,0:0:0:0:
320,192,77058,1,2,0:0:0:0:
448,192,77058,1,0,0:0:0:0:
192,192,77245,1,0,0:0:0:0:
320,192,77339,1,0,0:0:0:0:
64,192,77433,1,8,0:0:0:0:
448,192,77433,1,0,0:0:0:0:
192,192,77620,1,0,0:0:0:0:
320,192,77808,1,2,0:0:0:0:
448,192,77808,1,0,0:0:0:0:
64,192,77995,1,0,0:0:0:50:LR_J Hit Pong.wav
192,192,77995,1,0,0:0:0:0:
64,192,78183,1,8,0:0:0:0:
192,192,78183,1,0,0:0:0:50:LR_J Hit Pong.wav
320,192,78276,1,0,0:0:0:70:Tom1.wav
448,192,78370,1,0,0:0:0:70:Tom2.wav
320,192,78464,1,0,0:0:0:70:Tom3.wav
192,192,78558,1,4,0:0:0:0:
448,192,78558,1,2,0:0:0:0:
64,192,78839,1,0,0:0:0:0:
192,192,78933,1,2,0:0:0:0:
320,192,78933,1,0,0:0:0:0:
192,192,79120,1,0,0:0:0:70:Tom1.wav
448,192,79120,1,0,0:0:0:0:
64,192,79308,1,0,0:0:0:70:Tom2.wav
448,192,79495,1,0,0:0:0:0:
192,192,79683,1,2,0:0:0:0:
320,192,79683,1,0,0:0:0:0:
64,192,79870,1,4,0:0:0:0:
448,192,79870,1,8,0:0:0:0:
320,192,80058,1,2,0:0:0:0:
448,192,80058,1,0,0:0:0:0:
192,192,80245,1,0,0:0:0:70:Tom1.wav
64,192,80433,1,0,0:0:0:70:Tom3.wav
448,192,80620,1,0,0:0:0:70:Tom1.wav
320,192,80714,1,0,0:0:0:0:
192,192,80808,1,0,0:0:0:70:Tom3.wav
64,192,80995,1,0,0:0:0:0:
192,192,81089,1,0,0:0:0:0:
320,192,81183,1,0,0:0:0:70:Tom2.wav
192,192,81370,1,0,0:0:0:70:Tom2.wav
64,192,81558,1,4,0:0:0:0:
448,192,81558,1,2,0:0:0:0:
320,192,81745,1,0,0:0:0:0:
192,192,81933,1,8,0:0:0:0:
448,192,81933,1,0,0:0:0:0:
320,192,82120,1,2,0:0:0:0:
64,192,82308,1,8,0:0:0:0:
192,192,82308,1,0,0:0:0:0:
320,192,82495,1,2,0:0:0:0:
64,192,82683,1,8,0:0:0:0:
448,192,82683,1,0,0:0:0:0:
192,192,82870,1,4,0:0:0:0:
320,192,82870,1,2,0:0:0:0:
64,192,83245,1,8,0:0:0:0:
192,192,83433,1,8,0:0:0:0:
320,192,83620,1,8,0:0:0:0:
448,192,83808,1,8,0:0:0:0:
320,192,83995,1,2,0:0:0:0:
192,192,84089,1,8,0:0:0:0:
64,192,84183,1,8,0:0:0:0:
320,192,84370,1,8,0:0:0:0:
192,192,84558,1,2,0:0:0:0:
448,192,84558,1,4,0:0:0:0:
64,192,84933,1,8,0:0:0:0:
192,192,84933,1,0,0:0:0:0:
448,192,85120,1,2,0:0:0:0:
320,192,85214,1,8,0:0:0:0:
192,192,85308,1,2,0:0:0:0:
64,192,85683,1,8,0:0:0:0:
320,192,85870,1,4,0:0:0:0:
448,192,85870,1,2,0:0:0:0:
64,192,86245,1,2,0:0:0:0:
192,192,86339,1,0,0:0:0:0:
320,192,86433,1,8,0:0:0:0:
64,192,86620,1,2,0:0:0:0:
320,192,86808,1,8,0:0:0:0:
448,192,86808,1,0,0:0:0:70:Tom1.wav
320,192,86995,1,8,0:0:0:0:
64,192,86995,1,0,0:0:0:70:Tom1.wav
64,192,87183,1,8,0:0:0:0:
192,192,87183,1,0,0:0:0:70:Tom1.wav
320,192,87370,1,8,0:0:0:0:
192,192,87370,1,0,0:0:0:70:Tom1.wav
448,192,87370,1,0,0:0:0:0:
448,192,87745,1,0,0:0:0:0:
320,192,87839,1,0,0:0:0:0:
192,192,87933,1,0,0:0:0:0:
64,192,88026,1,0,0:0:0:0:
192,192,88120,1,0,0:0:0:0:
320,192,88214,1,0,0:0:0:0:
