osu file format v14

[General]
AudioFilename: audio.mp3
AudioLeadIn: 0
PreviewTime: 58435
Countdown: 0
SampleSet: Soft
StackLeniency: 0.7
Mode: 3
LetterboxInBreaks: 0
SpecialStyle: 0
WidescreenStoryboard: 1

[Editor]
Bookmarks: 1350,12321,23292,28778,34264,39750,45235,50721,53464,58950,69921,80892,86378
DistanceSpacing: 0.8
BeatDivisor: 4
GridSize: 16
TimelineZoom: 2.4

[Metadata]
Title:Honto Da Yo
TitleUnicode:Honto Da Yo
Artist:TrySail
ArtistUnicode:TrySail
Creator:Eucarius
Version:MX
Source:
Tags:Sail Canvas momo asakura amamiya sora natsukawa shiina dudehacker
BeatmapID:1787351
BeatmapSetID:855399

[Difficulty]
HPDrainRate:8
CircleSize:4
OverallDifficulty:9
ApproachRate:5
SliderMultiplier:1.4
SliderTickRate:1

[Events]
//Background and Video events
0,0,"707485.jpg",0,0
//Break Periods
//Storyboard Layer 0 (Background)
//Storyboard Layer 1 (Fail)
//Storyboard Layer 2 (Pass)
//Storyboard Layer 3 (Foreground)
//Storyboard Sound Samples

[TimingPoints]
1350,342.857142857143,4,2,1,100,1,0
58950,-100,4,2,1,100,0,1
64264,-100,4,2,1,100,0,0
67178,-100,4,2,1,100,0,1
69750,-100,4,2,1,100,0,0
69921,-100,4,2,1,100,0,1
75235,-100,4,2,1,100,0,0
78150,-100,4,2,1,100,0,1
80892,-100,4,2,1,100,0,0

[HitObjects]
64,192,835,5,0,0:0:0:0:
192,192,835,1,0,0:0:0:0:
192,192,1007,1,0,0:0:0:0:
320,192,1007,1,0,0:0:0:0:
320,192,1178,1,0,0:0:0:0:
448,192,1178,1,0,0:0:0:0:
64,192,1350,128,2,1521:0:0:0:0:
320,192,1350,1,0,0:0:0:0:
448,192,1350,128,0,1521:0:0:0:0:
192,192,1692,1,0,0:0:0:0:
320,192,1692,1,0,0:0:0:0:
64,192,1864,1,0,0:0:0:0:
448,192,1864,1,0,0:0:0:0:
64,192,2035,1,0,0:0:0:0:
320,192,2035,1,0,0:0:0:0:
192,192,2207,1,0,0:0:0:0:
448,192,2207,1,0,0:0:0:0:
64,192,2378,1,0,0:0:0:0:
448,192,2378,1,0,0:0:0:0:
192,192,2550,1,0,0:0:0:0:
320,192,2550,1,0,0:0:0:0:
64,192,2721,1,2,0:0:0:0:
320,192,2721,1,0,0:0:0:0:
448,192,2721,1,0,0:0:0:0:
64,192,2892,1,0,0:0:0:0:
192,192,2892,1,0,0:0:0:0:
320,192,3064,1,0,0:0:0:0:
448,192,3064,1,0,0:0:0:0:
64,192,3235,128,2,3407:0:0:0:0:
192,192,3235,1,0,0:0:0:0:
320,192,3235,128,0,3407:0:0:0:0:
192,192,3578,1,0,0:0:0:0:
448,192,3578,1,0,0:0:0:0:
64,192,3750,1,0,0:0:0:0:
320,192,3750,1,0,0:0:0:0:
64,192,3921,1,0,0:0:0:0:
192,192,3921,1,0,0:0:0:0:
64,192,4092,1,2,0:0:0:0:
192,192,4092,128,0,4264:0:0:0:0:
448,192,4092,128,0,4264:0:0:0:0:
320,192,4435,1,0,0:0:0:0:
448,192,4435,1,0,0:0:0:0:
192,192,4607,1,0,0:0:0:0:
448,192,4607,1,0,0:0:0:0:
192,192,4778,1,0,0:0:0:0:
320,192,4778,1,0,0:0:0:0:
64,192,4950,1,0,0:0:0:0:
320,192,4950,1,0,0:0:0:0:
64,192,5121,1,0,0:0:0:0:
192,192,5121,1,0,0:0:0:0:
192,192,5292,1,0,0:0:0:0:
448,192,5292,1,0,0:0:0:0:
64,192,5464,1,2,0:0:0:0:
320,192,5464,1,0,0:0:0:0:
448,192,5464,1,0,0:0:0:0:
192,192,5635,1,0,0:0:0:0:
448,192,5635,1,0,0:0:0:0:
192,192,5807,1,0,0:0:0:0:
320,192,5807,1,0,0:0:0:0:
64,192,5978,128,2,6150:0:0:0:0:
320,192,5978,1,0,0:0:0:0:
448,192,5978,128,0,6150:0:0:0:0:
192,192,6321,1,0,0:0:0:0:
192,192,6492,1,0,0:0:0:0:
320,192,6664,128,0,7007:0:0:0:0:
448,192,6664,1,0,0:0:0:0:
192,192,6664,1,0,0:0:0:0:
64,192,7007,1,0,0:0:0:0:
64,192,7178,1,0,0:0:0:0:
64,192,7350,1,2,0:0:0:0:
192,192,7350,128,0,7692:0:0:0:0:
448,192,7350,1,0,0:0:0:0:
320,192,7692,1,0,0:0:0:0:
320,192,7864,1,0,0:0:0:0:
64,192,8035,128,2,8378:0:0:0:0:
320,192,8035,1,0,0:0:0:0:
448,192,8035,1,0,0:0:0:0:
448,192,8378,1,0,0:0:0:0:
448,192,8550,1,0,0:0:0:0:
64,192,8721,1,2,0:0:0:0:
320,192,8721,128,0,9064:0:0:0:0:
448,192,8721,1,0,0:0:0:0:
64,192,9064,1,0,0:0:0:0:
192,192,9064,1,0,0:0:0:0:
192,192,9235,1,0,0:0:0:0:
448,192,9235,1,0,0:0:0:0:
64,192,9407,1,0,0:0:0:0:
320,192,9407,1,0,0:0:0:0:
192,192,9578,128,2,9750:0:0:0:0:
448,192,9578,128,0,9750:0:0:0:0:
64,192,9750,1,0,0:0:0:0:
320,192,9750,1,0,0:0:0:0:
64,192,9921,128,2,10092:0:0:0:0:
320,192,9921,128,0,10092:0:0:0:0:
192,192,10092,1,0,0:0:0:0:
448,192,10092,1,0,0:0:0:0:
192,192,10264,128,2,10435:0:0:0:0:
320,192,10264,128,0,10435:0:0:0:0:
64,192,10435,1,0,0:0:0:0:
448,192,10435,1,0,0:0:0:0:
64,192,10607,128,2,10778:0:0:0:0:
448,192,10607,128,0,10778:0:0:0:0:
192,192,10778,1,0,0:0:0:0:
320,192,10778,1,0,0:0:0:0:
64,192,10950,1,2,0:0:0:0:
448,192,10950,1,0,0:0:0:0:
192,192,11121,1,2,0:0:0:0:
448,192,11121,1,0,0:0:0:0:
64,192,11292,1,2,0:0:0:0:
448,192,11292,1,0,0:0:0:0:
64,192,11464,1,0,0:0:0:0:
192,192,11464,128,0,11635:0:0:0:0:
320,192,11464,128,0,11635:0:0:0:0:
448,192,11464,1,0,0:0:0:0:
64,192,11807,128,0,11978:0:0:0:0:
320,192,11807,128,0,11978:0:0:0:0:
448,192,11807,128,0,11978:0:0:0:0:
448,192,12150,1,0,0:0:0:0:
192,192,12150,1,0,0:0:0:0:
448,192,12321,1,0,0:0:0:0:
64,192,12321,1,0,0:0:0:0:
320,192,12407,1,0,0:0:0:0:
192,192,12492,1,0,0:0:0:0:
64,192,12578,1,0,0:0:0:0:
192,192,12664,1,0,0:0:0:70:LR_Clap Drum hit.wav
448,192,12750,1,0,0:0:0:0:
64,192,12835,1,2,0:0:0:0:
192,192,12835,1,0,0:0:0:0:
448,192,12921,1,0,0:0:0:0:
64,192,13007,1,2,0:0:0:0:
192,192,13007,1,0,0:0:0:0:
320,192,13092,1,0,0:0:0:0:
64,192,13178,1,0,0:0:0:0:
448,192,13264,1,0,0:0:0:0:
320,192,13350,1,0,0:0:0:70:LR_Clap Drum hit.wav
64,192,13435,1,0,0:0:0:0:
320,192,13521,1,0,0:0:0:0:
192,192,13607,1,0,0:0:0:0:
320,192,13692,1,2,0:0:0:0:
448,192,13692,1,0,0:0:0:0:
192,192,13778,1,0,0:0:0:0:
64,192,13864,1,0,0:0:0:0:
192,192,13950,1,0,0:0:0:0:
320,192,14035,1,0,0:0:0:70:LR_Clap Drum hit.wav
448,192,14121,1,0,0:0:0:0:
64,192,14207,1,2,0:0:0:0:
192,192,14207,1,0,0:0:0:0:
320,192,14292,1,0,0:0:0:0:
64,192,14378,1,2,0:0:0:0:
192,192,14378,1,0,0:0:0:0:
320,192,14464,1,0,0:0:0:0:
448,192,14550,1,0,0:0:0:0:
192,192,14635,1,0,0:0:0:0:
64,192,14721,1,0,0:0:0:0:
192,192,14807,1,0,0:0:0:0:
448,192,14892,1,0,0:0:0:0:
64,192,14978,1,0,0:0:0:0:
192,192,15064,1,2,0:0:0:0:
320,192,15064,1,4,0:0:0:0:
64,192,15150,1,0,0:0:0:0:
320,192,15235,1,0,0:0:0:0:
448,192,15321,1,0,0:0:0:0:
192,192,15407,1,2,0:0:0:0:
320,192,15407,1,0,0:0:0:0:
64,192,15492,1,0,0:0:0:0:
192,192,15578,1,0,0:0:0:0:
64,192,15664,1,0,0:0:0:0:
192,192,15750,1,2,0:0:0:0:
320,192,15750,1,0,0:0:0:0:
448,192,15835,1,0,0:0:0:0:
64,192,15921,1,0,0:0:0:0:
448,192,16007,1,0,0:0:0:0:
192,192,16092,1,2,0:0:0:0:
320,192,16092,1,0,0:0:0:0:
64,192,16178,1,0,0:0:0:0:
320,192,16264,1,0,0:0:0:0:
448,192,16350,1,0,0:0:0:0:
192,192,16435,1,2,0:0:0:0:
320,192,16435,1,0,0:0:0:0:
64,192,16521,1,0,0:0:0:0:
192,192,16607,1,2,0:0:0:0:
320,192,16607,1,0,0:0:0:0:
448,192,16692,1,0,0:0:0:0:
192,192,16778,1,2,0:0:0:0:
320,192,16778,1,0,0:0:0:0:
64,192,16864,1,0,0:0:0:0:
192,192,16950,1,2,0:0:0:0:
320,192,16950,1,0,0:0:0:0:
448,192,17035,1,0,0:0:0:0:
192,192,17121,1,2,0:0:0:0:
320,192,17121,1,0,0:0:0:0:
448,192,17207,1,0,0:0:0:0:
192,192,17292,1,2,0:0:0:0:
320,192,17292,1,0,0:0:0:0:
64,192,17378,1,0,0:0:0:0:
192,192,17464,1,2,0:0:0:0:
320,192,17464,1,0,0:0:0:0:
64,192,17550,1,0,0:0:0:0:
192,192,17635,1,2,0:0:0:0:
320,192,17635,1,0,0:0:0:0:
64,192,17807,1,0,0:0:0:0:
192,192,17807,1,0,0:0:0:0:
448,192,17807,1,0,0:0:0:0:
192,192,17978,1,0,0:0:0:0:
448,192,17978,1,0,0:0:0:0:
64,192,18150,1,2,0:0:0:0:
192,192,18150,1,0,0:0:0:0:
448,192,18150,1,0,0:0:0:0:
192,192,18321,1,0,0:0:0:0:
320,192,18321,1,0,0:0:0:0:
64,192,18492,1,2,0:0:0:0:
192,192,18492,1,0,0:0:0:0:
448,192,18492,1,0,0:0:0:0:
192,192,18664,1,0,0:0:0:0:
448,192,18664,1,0,0:0:0:0:
192,192,18835,1,2,0:0:0:0:
320,192,18835,1,0,0:0:0:0:
448,192,18835,1,0,0:0:0:0:
64,192,19007,1,0,0:0:0:0:
320,192,19007,1,0,0:0:0:0:
64,192,19178,1,2,0:0:0:0:
192,192,19178,1,0,0:0:0:0:
320,192,19178,1,0,0:0:0:0:
64,192,19350,1,0,0:0:0:0:
320,192,19350,1,0,0:0:0:0:
64,192,19521,1,2,0:0:0:0:
320,192,19521,1,0,0:0:0:0:
448,192,19521,1,0,0:0:0:0:
64,192,19692,1,0,0:0:0:0:
192,192,19692,1,0,0:0:0:0:
64,192,19864,1,2,0:0:0:0:
192,192,19864,1,0,0:0:0:0:
448,192,19864,1,0,0:0:0:0:
320,192,20035,1,0,0:0:0:0:
448,192,20035,1,0,0:0:0:0:
192,192,20207,1,2,0:0:0:0:
320,192,20207,1,0,0:0:0:0:
448,192,20207,1,0,0:0:0:0:
64,192,20378,1,0,0:0:0:0:
192,192,20378,128,0,20550:0:0:0:0:
320,192,20378,128,0,20550:0:0:0:0:
448,192,20550,1,0,0:0:0:0:
192,192,20721,1,0,0:0:0:0:
448,192,20721,1,0,0:0:0:0:
64,192,20892,1,2,0:0:0:0:
192,192,20892,1,0,0:0:0:0:
448,192,20892,1,0,0:0:0:0:
192,192,21064,1,0,0:0:0:0:
320,192,21064,1,0,0:0:0:0:
64,192,21235,1,2,0:0:0:0:
320,192,21235,1,0,0:0:0:0:
448,192,21235,1,0,0:0:0:0:
64,192,21407,1,0,0:0:0:0:
192,192,21407,1,0,0:0:0:0:
64,192,21578,1,2,0:0:0:0:
192,192,21578,1,0,0:0:0:0:
320,192,21578,1,0,0:0:0:0:
320,192,21750,1,0,0:0:0:0:
448,192,21750,1,0,0:0:0:0:
192,192,21921,1,2,0:0:0:0:
320,192,21921,1,0,0:0:0:0:
448,192,21921,1,0,0:0:0:0:
64,192,22092,1,2,0:0:0:0:
320,192,22092,1,0,0:0:0:0:
448,192,22092,1,0,0:0:0:0:
192,192,22264,1,2,0:0:0:0:
320,192,22264,1,0,0:0:0:0:
448,192,22264,1,0,0:0:0:0:
64,192,22435,1,2,0:0:0:0:
192,192,22435,1,0,0:0:0:0:
448,192,22435,1,0,0:0:0:0:
192,192,22607,1,2,0:0:0:0:
320,192,22607,1,0,0:0:0:0:
448,192,22607,1,0,0:0:0:0:
64,192,22778,1,2,0:0:0:0:
192,192,22778,1,0,0:0:0:0:
320,192,22778,1,0,0:0:0:0:
64,192,22950,1,2,0:0:0:0:
320,192,22950,1,0,0:0:0:0:
448,192,22950,1,0,0:0:0:0:
64,192,23121,1,2,0:0:0:0:
448,192,23121,1,0,0:0:0:0:
320,192,23121,1,0,0:0:0:0:
64,192,23292,128,4,23807:0:0:0:0:
448,192,23292,1,0,0:0:0:0:
320,192,23292,1,0,0:0:0:0:
192,192,23292,1,0,0:0:0:0:
192,192,23464,1,0,0:0:0:0:
320,192,23635,1,2,0:0:0:0:
192,192,23807,1,0,0:0:0:0:
192,192,23978,1,2,0:0:0:0:
448,192,23978,128,0,24492:0:0:0:0:
320,192,24150,1,0,0:0:0:0:
64,192,24321,1,2,0:0:0:0:
320,192,24492,1,0,0:0:0:0:
192,192,24664,128,2,25178:0:0:0:0:
448,192,24664,1,0,0:0:0:0:
64,192,24835,1,0,0:0:0:0:
320,192,25007,1,2,0:0:0:0:
64,192,25178,1,0,0:0:0:0:
64,192,25350,1,2,0:0:0:0:
320,192,25350,128,0,25864:0:0:0:0:
192,192,25521,1,0,0:0:0:0:
448,192,25692,1,2,0:0:0:0:
192,192,25864,1,0,0:0:0:0:
64,192,26035,128,2,26550:0:0:0:0:
192,192,26035,1,0,0:0:0:0:
448,192,26207,1,0,0:0:0:0:
320,192,26378,1,2,0:0:0:0:
192,192,26550,1,0,0:0:0:0:
64,192,26721,1,2,0:0:0:0:
448,192,26721,128,0,27235:0:0:0:0:
192,192,26892,1,0,0:0:0:0:
64,192,27064,1,2,0:0:0:0:
320,192,27235,1,0,0:0:0:0:
192,192,27407,1,2,0:0:0:0:
320,192,27407,1,0,0:0:0:0:
448,192,27407,1,0,0:0:0:0:
64,192,27578,1,0,0:0:0:0:
192,192,27578,1,0,0:0:0:0:
448,192,27578,1,0,0:0:0:0:
64,192,27750,1,2,0:0:0:0:
320,192,27750,1,0,0:0:0:0:
448,192,27750,1,0,0:0:0:0:
64,192,27921,128,0,28092:0:0:0:0:
192,192,27921,128,0,28092:0:0:0:0:
320,192,27921,128,0,28092:0:0:0:0:
192,192,28264,1,0,0:0:0:0:
448,192,28264,1,0,0:0:0:0:
64,192,28435,1,2,0:0:0:0:
320,192,28435,1,0,0:0:0:0:
192,192,28607,1,0,0:0:0:0:
320,192,28607,1,0,0:0:0:0:
64,192,28778,128,2,28950:0:0:0:0:
448,192,28778,1,4,0:0:0:0:
192,192,28950,1,0,0:0:0:0:
64,192,29121,1,2,0:0:0:0:
448,192,29121,128,0,29292:0:0:0:0:
320,192,29292,1,0,0:0:0:0:
64,192,29464,128,2,29635:0:0:0:0:
192,192,29464,1,0,0:0:0:0:
448,192,29635,1,0,0:0:0:0:
320,192,29807,1,2,0:0:0:0:
448,192,29807,128,0,29978:0:0:0:0:
64,192,29978,1,0,0:0:0:0:
192,192,30150,128,2,30321:0:0:0:0:
448,192,30150,1,4,0:0:0:0:
64,192,30321,1,0,0:0:0:0:
64,192,30492,1,2,0:0:0:0:
320,192,30492,128,0,30664:0:0:0:0:
448,192,30664,1,0,0:0:0:0:
192,192,30835,128,2,31007:0:0:0:0:
320,192,30835,1,0,0:0:0:0:
448,192,31007,1,0,0:0:0:0:
192,192,31178,1,2,0:0:0:0:
320,192,31178,128,0,31350:0:0:0:0:
64,192,31350,1,0,0:0:0:0:
64,192,31521,1,2,0:0:0:0:
192,192,31521,128,4,31692:0:0:0:0:
448,192,31692,1,0,0:0:0:0:
320,192,31864,1,2,0:0:0:0:
448,192,31864,128,0,32035:0:0:0:0:
64,192,32035,1,0,0:0:0:0:
320,192,32207,128,2,32378:0:0:0:0:
448,192,32207,1,0,0:0:0:0:
64,192,32378,1,0,0:0:0:0:
64,192,32550,128,2,32721:0:0:0:0:
192,192,32550,1,0,0:0:0:0:
448,192,32721,1,0,0:0:0:0:
64,192,32892,1,2,0:0:0:0:
320,192,32892,1,4,0:0:0:0:
448,192,32892,1,0,0:0:0:0:
192,192,33064,1,0,0:0:0:0:
320,192,33064,1,0,0:0:0:0:
448,192,33064,1,0,0:0:0:0:
64,192,33235,128,2,33407:0:0:0:0:
192,192,33235,1,0,0:0:0:0:
320,192,33235,1,0,0:0:0:0:
192,192,33407,1,0,0:0:0:0:
320,192,33407,1,0,0:0:0:0:
448,192,33407,128,0,33578:0:0:0:0:
64,192,33750,1,0,0:0:0:0:
192,192,33750,1,0,0:0:0:0:
320,192,33750,1,0,0:0:0:0:
192,192,33921,1,2,0:0:0:0:
320,192,33921,1,0,0:0:0:0:
448,192,33921,1,0,0:0:0:0:
192,192,34092,128,0,34264:0:0:0:0:
320,192,34092,1,0,0:0:0:0:
448,192,34092,128,0,34264:0:0:0:0:
64,192,34264,128,6,35464:0:0:0:0:
320,192,34264,1,0,0:0:0:0:
192,192,34435,1,0,0:0:0:0:
448,192,34435,1,0,0:0:0:0:
320,192,34607,1,2,0:0:0:0:
448,192,34607,1,0,0:0:0:0:
192,192,34778,1,0,0:0:0:0:
448,192,34778,1,0,0:0:0:0:
192,192,34950,1,2,0:0:0:0:
448,192,34950,1,0,0:0:0:0:
192,192,35121,1,0,0:0:0:0:
320,192,35121,1,0,0:0:0:0:
192,192,35292,1,2,0:0:0:0:
448,192,35292,1,8,0:0:0:0:
320,192,35464,1,0,0:0:0:0:
192,192,35635,128,2,36150:0:0:0:0:
320,192,35635,1,0,0:0:0:0:
448,192,35635,1,0,0:0:0:0:
64,192,35807,1,0,0:0:0:0:
448,192,35807,1,0,0:0:0:0:
64,192,35978,1,2,0:0:0:0:
448,192,35978,1,0,0:0:0:0:
320,192,36150,1,0,0:0:0:0:
448,192,36150,1,0,0:0:0:0:
64,192,36321,128,2,36835:0:0:0:0:
320,192,36321,1,0,0:0:0:0:
448,192,36321,1,0,0:0:0:0:
192,192,36492,1,0,0:0:0:0:
448,192,36492,1,0,0:0:0:0:
192,192,36664,1,2,0:0:0:0:
320,192,36664,1,8,0:0:0:0:
192,192,36835,1,0,0:0:0:0:
448,192,36835,1,0,0:0:0:0:
64,192,37007,1,2,0:0:0:0:
320,192,37007,128,0,38378:0:0:0:0:
448,192,37007,1,0,0:0:0:0:
192,192,37178,1,0,0:0:0:0:
448,192,37178,1,0,0:0:0:0:
64,192,37350,1,2,0:0:0:0:
448,192,37350,1,0,0:0:0:0:
192,192,37521,1,0,0:0:0:0:
448,192,37521,1,0,0:0:0:0:
64,192,37692,1,2,0:0:0:0:
192,192,37692,1,0,0:0:0:0:
192,192,37864,1,0,0:0:0:0:
448,192,37864,1,0,0:0:0:0:
64,192,38035,1,8,0:0:0:0:
192,192,38035,1,2,0:0:0:0:
192,192,38207,1,0,0:0:0:0:
448,192,38207,1,0,0:0:0:0:
64,192,38378,1,2,0:0:0:0:
192,192,38378,1,0,0:0:0:0:
64,192,38550,1,0,0:0:0:0:
320,192,38550,1,0,0:0:0:0:
448,192,38550,1,0,0:0:0:0:
64,192,38721,1,2,0:0:0:0:
192,192,38721,1,0,0:0:0:0:
320,192,38721,1,0,0:0:0:0:
192,192,38892,128,0,39064:0:0:0:0:
320,192,38892,128,0,39064:0:0:0:0:
448,192,38892,128,0,39064:0:0:0:0:
64,192,39235,1,0,0:0:0:0:
192,192,39235,1,0,0:0:0:0:
192,192,39407,1,2,0:0:0:0:
320,192,39407,1,0,0:0:0:0:
320,192,39578,1,0,0:0:0:0:
448,192,39578,1,0,0:0:0:0:
64,192,39750,128,2,39921:0:0:0:0:
448,192,39750,1,4,0:0:0:0:
192,192,39921,1,0,0:0:0:0:
64,192,40092,1,2,0:0:0:0:
448,192,40092,128,0,40264:0:0:0:0:
320,192,40264,1,0,0:0:0:0:
192,192,40435,128,2,40607:0:0:0:0:
320,192,40435,1,0,0:0:0:0:
64,192,40607,1,0,0:0:0:0:
192,192,40778,1,2,0:0:0:0:
320,192,40778,128,0,40950:0:0:0:0:
448,192,40950,1,0,0:0:0:0:
64,192,41121,1,4,0:0:0:0:
448,192,41121,128,2,41292:0:0:0:0:
192,192,41292,1,0,0:0:0:0:
64,192,41464,128,2,41635:0:0:0:0:
448,192,41464,1,0,0:0:0:0:
320,192,41635,1,0,0:0:0:0:
192,192,41807,1,2,0:0:0:0:
320,192,41807,128,0,41978:0:0:0:0:
64,192,41978,1,0,0:0:0:0:
192,192,42150,128,2,42321:0:0:0:0:
320,192,42150,1,0,0:0:0:0:
448,192,42321,1,0,0:0:0:0:
64,192,42492,128,4,42664:0:0:0:0:
192,192,42492,1,2,0:0:0:0:
192,192,42664,1,0,0:0:0:0:
192,192,42835,128,2,43007:0:0:0:0:
448,192,42835,1,0,0:0:0:0:
448,192,43007,1,0,0:0:0:0:
320,192,43178,1,2,0:0:0:0:
448,192,43178,128,0,43350:0:0:0:0:
320,192,43350,1,0,0:0:0:0:
64,192,43521,1,2,0:0:0:0:
320,192,43521,128,0,43692:0:0:0:0:
64,192,43692,1,0,0:0:0:0:
64,192,43864,128,2,44035:0:0:0:0:
448,192,43864,1,0,0:0:0:0:
192,192,44035,1,0,0:0:0:0:
192,192,44207,1,2,0:0:0:0:
320,192,44207,128,0,44378:0:0:0:0:
64,192,44378,128,0,44550:0:0:0:0:
192,192,44378,128,0,44550:0:0:0:0:
448,192,44378,128,0,44550:0:0:0:0:
64,192,44892,128,2,45064:0:0:0:0:
320,192,44892,128,0,45064:0:0:0:0:
448,192,44892,128,0,45064:0:0:0:0:
64,192,45235,128,4,45407:0:0:0:0:
192,192,45235,128,2,45407:0:0:0:0:
448,192,45235,128,0,45407:0:0:0:0:
64,192,45750,1,2,0:0:0:0:
320,192,45750,1,0,0:0:0:0:
64,192,45921,1,2,0:0:0:0:
320,192,45921,1,0,0:0:0:0:
320,192,46264,1,0,0:0:0:70:LR_Clap Drum hit.wav
448,192,46264,1,0,0:0:0:0:
192,192,46607,1,2,0:0:0:0:
448,192,46607,1,0,0:0:0:0:
320,192,46778,1,0,0:0:0:0:
448,192,46778,1,0,0:0:0:0:
192,192,46950,1,0,0:0:0:0:
448,192,46950,1,0,0:0:0:0:
64,192,47121,128,2,47292:0:0:0:0:
192,192,47121,128,0,47292:0:0:0:0:
64,192,47464,1,0,0:0:0:0:
192,192,47464,1,0,0:0:0:0:
320,192,47635,1,0,0:0:0:70:LR_Clap Drum hit.wav
448,192,47635,1,0,0:0:0:0:
64,192,47807,1,0,0:0:0:0:
192,192,47807,1,0,0:0:0:0:
64,192,47978,128,2,48150:0:0:0:0:
320,192,47978,128,0,48150:0:0:0:0:
448,192,47978,128,0,48150:0:0:0:0:
192,192,48492,1,2,0:0:0:0:
448,192,48492,1,0,0:0:0:0:
192,192,48664,1,2,0:0:0:0:
448,192,48664,1,0,0:0:0:0:
192,192,49007,1,0,0:0:0:70:LR_Clap Drum hit.wav
320,192,49007,1,0,0:0:0:0:
64,192,49350,1,2,0:0:0:0:
192,192,49350,1,0,0:0:0:0:
192,192,49521,1,0,0:0:0:0:
320,192,49521,1,0,0:0:0:0:
320,192,49692,1,0,0:0:0:0:
448,192,49692,1,0,0:0:0:0:
192,192,49864,128,2,50035:0:0:0:0:
320,192,49864,128,0,50035:0:0:0:0:
64,192,50207,1,0,0:0:0:0:
320,192,50207,1,0,0:0:0:0:
448,192,50207,128,0,50550:0:0:0:0:
192,192,50550,1,0,0:0:0:0:
320,192,50550,1,0,0:0:0:0:
64,192,50721,1,2,0:0:0:0:
192,192,50721,128,0,51407:0:0:0:0:
320,192,50807,1,0,0:0:0:0:
448,192,50892,1,0,0:0:0:0:
320,192,50978,1,0,0:0:0:0:
64,192,51064,1,0,0:0:0:0:
448,192,51150,1,0,0:0:0:0:
64,192,51235,1,0,0:0:0:0:
320,192,51321,1,0,0:0:0:0:
64,192,51407,1,0,0:0:0:0:
448,192,51492,1,0,0:0:0:0:
64,192,51578,1,0,0:0:0:0:
448,192,51664,1,0,0:0:0:0:
192,192,51750,1,0,0:0:0:0:
320,192,51750,128,0,52264:0:0:0:0:
64,192,51835,1,0,0:0:0:0:
192,192,51921,1,0,0:0:0:0:
448,192,52007,1,0,0:0:0:0:
64,192,52092,1,0,0:0:0:0:
448,192,52178,1,0,0:0:0:0:
192,192,52264,1,0,0:0:0:0:
64,192,52350,1,0,0:0:0:0:
192,192,52435,1,0,0:0:0:0:
320,192,52521,1,0,0:0:0:0:
448,192,52607,1,0,0:0:0:0:
320,192,52692,1,0,0:0:0:0:
64,192,52778,1,0,0:0:0:0:
192,192,52778,128,0,52864:0:0:0:0:
448,192,52778,128,0,52864:0:0:0:0:
64,192,52950,128,0,53121:0:0:0:0:
320,192,52950,1,0,0:0:0:0:
448,192,52950,128,0,53121:0:0:0:0:
192,192,53121,1,0,0:0:0:0:
64,192,53292,1,0,0:0:0:0:
192,192,53292,128,0,53464:0:0:0:0:
448,192,53292,128,0,53464:0:0:0:0:
64,192,53635,1,0,0:0:0:0:
192,192,53635,128,0,53721:0:0:0:0:
448,192,53635,128,0,53721:0:0:0:0:
64,192,53807,1,2,0:0:0:0:
320,192,53807,128,0,53978:0:0:0:0:
448,192,53807,128,0,53978:0:0:0:0:
192,192,54150,128,2,54235:0:0:0:0:
320,192,54150,1,0,0:0:0:0:
448,192,54150,128,0,54235:0:0:0:0:
192,192,54321,1,0,0:0:0:0:
320,192,54321,128,0,54492:0:0:0:0:
64,192,54321,128,0,54492:0:0:0:0:
64,192,54664,1,0,0:0:0:0:
320,192,54664,128,0,54835:0:0:0:0:
448,192,54664,128,0,54835:0:0:0:0:
64,192,55007,128,2,55092:0:0:0:0:
320,192,55007,1,0,0:0:0:0:
448,192,55007,128,0,55092:0:0:0:0:
192,192,55178,128,0,55350:0:0:0:0:
320,192,55178,128,0,55350:0:0:0:0:
448,192,55178,1,0,0:0:0:0:
64,192,55521,128,2,55607:0:0:0:0:
320,192,55521,1,0,0:0:0:0:
448,192,55521,128,0,55607:0:0:0:0:
320,192,55692,1,0,0:0:0:0:
64,192,55692,128,0,55864:0:0:0:0:
192,192,55692,128,0,55864:0:0:0:0:
64,192,56035,128,2,57235:0:0:0:0:
448,192,56035,128,0,56121:0:0:0:0:
192,192,56121,128,0,56207:0:0:0:0:
320,192,56207,128,0,56292:0:0:0:0:
448,192,56292,128,0,56378:0:0:0:0:
192,192,56378,128,0,56464:0:0:0:0:
448,192,56464,128,0,56550:0:0:0:0:
320,192,56550,128,0,56635:0:0:0:0:
192,192,56635,128,0,56721:0:0:0:0:
448,192,56721,128,0,56807:0:0:0:0:
192,192,56807,128,0,56892:0:0:0:0:
320,192,56892,128,0,56978:0:0:0:0:
448,192,56978,128,0,57064:0:0:0:0:
320,192,57064,128,0,57150:0:0:0:0:
192,192,57150,128,0,57235:0:0:0:0:
448,192,57150,128,0,57235:0:0:0:0:
320,192,57235,1,0,0:0:0:0:
64,192,57407,128,2,57578:0:0:0:0:
192,192,57407,1,0,0:0:0:0:
320,192,57407,128,0,57578:0:0:0:0:
448,192,57407,1,0,0:0:0:0:
64,192,57750,128,2,57835:0:0:0:0:
192,192,57750,128,0,57835:0:0:0:0:
320,192,57750,1,0,0:0:0:0:
448,192,57750,128,0,57835:0:0:0:0:
64,192,57921,1,2,0:0:0:0:
192,192,57921,128,0,58007:0:0:0:0:
320,192,57921,128,0,58007:0:0:0:0:
448,192,57921,128,0,58007:0:0:0:0:
64,192,58092,128,2,58264:0:0:0:0:
192,192,58092,128,0,58264:0:0:0:0:
320,192,58092,128,0,58264:0:0:0:0:
448,192,58092,1,0,0:0:0:0:
64,192,58435,1,0,0:0:0:0:
320,192,58521,1,0,0:0:0:0:
192,192,58607,1,0,0:0:0:0:
448,192,58692,1,0,0:0:0:0:
64,192,58778,1,0,0:0:0:0:
448,192,58864,1,0,0:0:0:0:
192,192,58950,1,2,0:0:0:0:
448,192,59035,1,0,0:0:0:0:
320,192,59121,1,0,0:0:0:0:
192,192,59207,1,0,0:0:0:0:
64,192,59292,128,2,59635:0:0:0:0:
448,192,59292,1,0,0:0:0:0:
192,192,59378,1,0,0:0:0:0:
448,192,59464,1,0,0:0:0:0:
192,192,59550,1,0,0:0:0:0:
320,192,59635,1,2,0:0:0:0:
448,192,59721,1,0,0:0:0:0:
64,192,59807,128,0,60150:0:0:0:0:
192,192,59807,1,0,0:0:0:0:
320,192,59892,1,0,0:0:0:0:
448,192,59978,1,2,0:0:0:0:
192,192,60064,1,0,0:0:0:0:
448,192,60150,1,0,0:0:0:0:
192,192,60235,1,0,0:0:0:0:
64,192,60321,1,2,0:0:0:0:
320,192,60407,1,0,0:0:0:0:
192,192,60492,1,0,0:0:0:0:
448,192,60578,1,0,0:0:0:0:
192,192,60664,128,2,61007:0:0:0:0:
320,192,60664,1,0,0:0:0:0:
64,192,60750,1,0,0:0:0:0:
448,192,60835,1,0,0:0:0:0:
320,192,60921,1,0,0:0:0:0:
64,192,61007,1,2,0:0:0:0:
320,192,61092,1,0,0:0:0:0:
192,192,61178,128,0,61521:0:0:0:0:
448,192,61178,1,0,0:0:0:0:
64,192,61264,1,0,0:0:0:0:
320,192,61350,1,2,0:0:0:0:
64,192,61435,1,0,0:0:0:0:
448,192,61521,1,0,0:0:0:0:
320,192,61607,1,0,0:0:0:0:
64,192,61692,1,2,0:0:0:0:
448,192,61778,1,0,0:0:0:0:
192,192,61864,1,0,0:0:0:0:
448,192,61950,1,0,0:0:0:0:
64,192,62035,1,2,0:0:0:0:
320,192,62035,128,0,62378:0:0:0:0:
448,192,62121,1,0,0:0:0:0:
192,192,62207,1,0,0:0:0:0:
448,192,62292,1,0,0:0:0:0:
64,192,62378,1,2,0:0:0:0:
192,192,62464,1,0,0:0:0:0:
320,192,62550,128,0,62892:0:0:0:0:
448,192,62550,1,0,0:0:0:0:
64,192,62635,1,0,0:0:0:0:
192,192,62721,1,2,0:0:0:0:
448,192,62807,1,0,0:0:0:0:
64,192,62892,1,0,0:0:0:0:
192,192,62978,1,0,0:0:0:0:
320,192,63064,1,2,0:0:0:0:
448,192,63150,1,0,0:0:0:0:
320,192,63235,1,0,0:0:0:0:
192,192,63321,1,0,0:0:0:0:
320,192,63407,1,2,0:0:0:0:
448,192,63407,128,0,63750:0:0:0:0:
192,192,63492,1,0,0:0:0:0:
64,192,63578,1,0,0:0:0:0:
320,192,63664,1,0,0:0:0:0:
64,192,63750,1,2,0:0:0:0:
320,192,63835,1,0,0:0:0:0:
64,192,63921,1,0,0:0:0:0:
448,192,63921,128,0,64264:0:0:0:0:
192,192,64007,1,0,0:0:0:0:
320,192,64092,1,2,0:0:0:0:
192,192,64178,1,0,0:0:0:0:
64,192,64264,128,2,64607:0:0:0:0:
320,192,64264,128,0,64607:0:0:0:0:
192,192,64607,1,0,0:0:0:0:
448,192,64607,1,0,0:0:0:0:
320,192,64778,1,0,0:0:0:0:
448,192,64778,1,0,0:0:0:0:
64,192,64950,128,2,65292:0:0:0:0:
192,192,64950,128,0,65292:0:0:0:0:
448,192,64950,1,0,0:0:0:0:
320,192,65292,1,0,0:0:0:0:
192,192,65464,1,0,0:0:0:0:
320,192,65464,1,0,0:0:0:0:
64,192,65635,1,2,0:0:0:0:
192,192,65635,128,0,65978:0:0:0:0:
448,192,65635,128,0,65978:0:0:0:0:
320,192,65978,1,0,0:0:0:0:
64,192,66150,1,0,0:0:0:0:
192,192,66150,1,0,0:0:0:0:
192,192,66321,128,2,66664:0:0:0:0:
320,192,66321,1,0,0:0:0:0:
448,192,66321,128,0,66664:0:0:0:0:
64,192,66664,1,0,0:0:0:0:
320,192,66664,1,0,0:0:0:0:
64,192,66835,1,2,0:0:0:0:
192,192,66835,1,0,0:0:0:0:
320,192,66835,1,0,0:0:0:0:
192,192,67007,1,0,0:0:0:0:
320,192,67007,1,0,0:0:0:0:
448,192,67007,1,0,0:0:0:0:
64,192,67178,1,2,0:0:0:0:
192,192,67178,1,0,0:0:0:0:
320,192,67178,1,0,0:0:0:0:
448,192,67264,1,0,0:0:0:0:
64,192,67350,1,0,0:0:0:0:
320,192,67435,1,0,0:0:0:0:
64,192,67521,1,2,0:0:0:0:
192,192,67521,1,0,0:0:0:0:
448,192,67521,1,0,0:0:0:0:
320,192,67607,1,0,0:0:0:0:
448,192,67692,1,0,0:0:0:0:
192,192,67778,1,0,0:0:0:0:
64,192,67864,1,2,0:0:0:0:
320,192,67864,1,0,0:0:0:0:
448,192,67864,1,0,0:0:0:0:
192,192,67950,1,0,0:0:0:0:
320,192,68035,1,0,0:0:0:0:
448,192,68121,1,0,0:0:0:0:
64,192,68207,1,2,0:0:0:0:
192,192,68207,1,0,0:0:0:0:
320,192,68207,1,0,0:0:0:0:
448,192,68292,1,0,0:0:0:0:
320,192,68378,1,0,0:0:0:0:
64,192,68464,1,0,0:0:0:0:
192,192,68550,1,2,0:0:0:0:
320,192,68550,1,0,0:0:0:0:
448,192,68550,1,0,0:0:0:0:
64,192,68721,1,2,0:0:0:0:
192,192,68721,1,0,0:0:0:0:
320,192,68721,1,0,0:0:0:0:
64,192,68892,128,0,68978:0:0:0:0:
320,192,68892,128,0,68978:0:0:0:0:
448,192,68892,128,0,68978:0:0:0:0:
64,192,69064,128,2,69150:0:0:0:0:
192,192,69064,128,0,69321:0:0:0:0:
320,192,69064,128,0,69321:0:0:0:0:
448,192,69064,128,0,69150:0:0:0:0:
320,192,69407,128,2,69492:0:0:0:0:
448,192,69492,128,0,69578:0:0:0:0:
320,192,69578,128,0,69664:0:0:0:0:
64,192,69664,128,0,69750:0:0:0:0:
192,192,69750,128,2,69835:0:0:0:0:
448,192,69835,128,0,69921:0:0:0:0:
320,192,69921,128,2,70007:0:0:0:0:
192,192,70007,128,0,70092:0:0:0:0:
64,192,70092,128,0,70178:0:0:0:0:
320,192,70178,128,0,70264:0:0:0:0:
64,192,70264,128,2,70607:0:0:0:0:
448,192,70264,128,0,70350:0:0:0:0:
192,192,70350,128,0,70435:0:0:0:0:
320,192,70435,128,0,70521:0:0:0:0:
192,192,70521,128,0,70607:0:0:0:0:
448,192,70607,128,2,70692:0:0:0:0:
192,192,70692,128,0,70778:0:0:0:0:
64,192,70778,128,0,70864:0:0:0:0:
448,192,70778,128,0,71121:0:0:0:0:
320,192,70864,128,0,70950:0:0:0:0:
192,192,70950,128,2,71035:0:0:0:0:
64,192,71035,128,0,71121:0:0:0:0:
320,192,71121,128,0,71207:0:0:0:0:
192,192,71207,128,0,71292:0:0:0:0:
64,192,71292,128,2,71378:0:0:0:0:
320,192,71378,128,0,71464:0:0:0:0:
192,192,71464,128,0,71550:0:0:0:0:
448,192,71550,128,0,71635:0:0:0:0:
192,192,71635,128,2,71978:0:0:0:0:
320,192,71635,128,0,71721:0:0:0:0:
64,192,71721,128,0,71807:0:0:0:0:
320,192,71807,128,0,71892:0:0:0:0:
64,192,71892,128,0,71978:0:0:0:0:
448,192,71978,128,2,72064:0:0:0:0:
320,192,72064,128,0,72150:0:0:0:0:
64,192,72150,128,0,72235:0:0:0:0:
448,192,72150,128,0,72492:0:0:0:0:
320,192,72235,128,0,72321:0:0:0:0:
64,192,72321,128,2,72407:0:0:0:0:
192,192,72407,128,0,72492:0:0:0:0:
320,192,72492,128,0,72578:0:0:0:0:
64,192,72578,128,0,72664:0:0:0:0:
448,192,72664,128,2,72750:0:0:0:0:
64,192,72750,128,0,72835:0:0:0:0:
320,192,72835,128,0,72921:0:0:0:0:
448,192,72921,128,0,73007:0:0:0:0:
64,192,73007,128,2,73092:0:0:0:0:
320,192,73007,128,0,73350:0:0:0:0:
448,192,73092,128,0,73178:0:0:0:0:
64,192,73178,128,0,73264:0:0:0:0:
192,192,73264,128,0,73350:0:0:0:0:
448,192,73350,128,2,73435:0:0:0:0:
64,192,73435,128,0,73521:0:0:0:0:
192,192,73521,128,0,73607:0:0:0:0:
448,192,73521,128,0,73864:0:0:0:0:
64,192,73607,128,0,73692:0:0:0:0:
320,192,73692,128,2,73778:0:0:0:0:
64,192,73778,128,0,73864:0:0:0:0:
192,192,73864,128,0,73950:0:0:0:0:
320,192,73950,128,0,74035:0:0:0:0:
64,192,74035,128,2,74121:0:0:0:0:
320,192,74121,128,0,74207:0:0:0:0:
448,192,74207,128,0,74292:0:0:0:0:
192,192,74292,128,0,74378:0:0:0:0:
64,192,74378,128,2,74464:0:0:0:0:
448,192,74378,128,0,74721:0:0:0:0:
320,192,74464,128,0,74550:0:0:0:0:
192,192,74550,128,0,74635:0:0:0:0:
320,192,74635,128,0,74721:0:0:0:0:
64,192,74721,128,2,74807:0:0:0:0:
192,192,74807,128,0,74892:0:0:0:0:
64,192,74892,128,0,75235:0:0:0:0:
448,192,74892,128,0,74978:0:0:0:0:
192,192,74978,128,0,75064:0:0:0:0:
320,192,75064,128,2,75150:0:0:0:0:
448,192,75150,128,0,75235:0:0:0:0:
192,192,75235,128,2,75578:0:0:0:0:
320,192,75235,128,0,75578:0:0:0:0:
64,192,75578,1,0,0:0:0:0:
448,192,75578,1,0,0:0:0:0:
192,192,75750,1,0,0:0:0:0:
320,192,75750,1,0,0:0:0:0:
64,192,75921,128,2,76435:0:0:0:0:
448,192,75921,128,0,76264:0:0:0:0:
320,192,76264,1,0,0:0:0:0:
192,192,76435,1,0,0:0:0:70:LR_Clap Drum hit.wav
448,192,76435,1,0,0:0:0:0:
64,192,76607,128,2,76950:0:0:0:0:
320,192,76607,128,0,77121:0:0:0:0:
448,192,76950,1,0,0:0:0:0:
64,192,77121,1,0,0:0:0:0:
192,192,77121,1,0,0:0:0:0:
320,192,77292,128,2,77635:0:0:0:0:
448,192,77292,128,0,77635:0:0:0:0:
64,192,77635,128,0,77807:0:0:0:0:
192,192,77635,128,0,77978:0:0:0:0:
320,192,77807,128,2,78150:0:0:0:0:
448,192,77807,1,0,0:0:0:0:
64,192,77978,1,0,0:0:0:0:
448,192,77978,128,0,78150:0:0:0:0:
64,192,78150,1,2,0:0:0:0:
192,192,78150,1,0,0:0:0:0:
64,192,78321,1,0,0:0:0:0:
320,192,78321,1,0,0:0:0:0:
192,192,78492,1,2,0:0:0:0:
448,192,78492,1,0,0:0:0:0:
192,192,78664,1,0,0:0:0:0:
448,192,78664,1,0,0:0:0:0:
64,192,78835,1,2,0:0:0:0:
320,192,78835,1,0,0:0:0:0:
320,192,79007,1,0,0:0:0:0:
448,192,79007,1,0,0:0:0:0:
192,192,79178,1,2,0:0:0:0:
448,192,79178,1,0,0:0:0:0:
64,192,79350,1,0,0:0:0:0:
448,192,79350,1,0,0:0:0:0:
64,192,79521,1,2,0:0:0:0:
192,192,79521,1,0,0:0:0:0:
320,192,79521,1,0,0:0:0:0:
448,192,79521,1,0,0:0:0:0:
64,192,79692,1,0,0:0:0:0:
192,192,79692,1,0,0:0:0:0:
320,192,79692,1,0,0:0:0:0:
448,192,79692,1,0,0:0:0:0:
64,192,79864,1,2,0:0:0:0:
192,192,79864,1,0,0:0:0:0:
320,192,79864,1,0,0:0:0:0:
448,192,79864,1,0,0:0:0:0:
64,192,80035,128,0,80207:0:0:0:0:
320,192,80035,128,0,80207:0:0:0:0:
448,192,80035,128,0,80207:0:0:0:0:
192,192,80378,1,0,0:0:0:0:
320,192,80378,1,0,0:0:0:0:
448,192,80378,1,0,0:0:0:0:
64,192,80721,1,0,0:0:0:0:
192,192,80721,1,0,0:0:0:0:
448,192,80721,1,0,0:0:0:0:
64,192,80892,1,2,0:0:0:0:
192,192,80892,1,0,0:0:0:0:
320,192,80892,1,0,0:0:0:0:
448,192,80978,1,0,0:0:0:0:
64,192,81064,1,0,0:0:0:0:
192,192,81064,1,0,0:0:0:0:
320,192,81064,1,0,0:0:0:0:
192,192,81235,1,0,0:0:0:0:
320,192,81235,1,0,0:0:0:0:
448,192,81235,1,0,0:0:0:0:
64,192,81321,1,0,0:0:0:0:
192,192,81407,1,2,0:0:0:0:
320,192,81407,1,0,0:0:0:0:
448,192,81407,1,0,0:0:0:0:
64,192,81578,1,2,0:0:0:0:
192,192,81578,1,0,0:0:0:0:
320,192,81578,1,0,0:0:0:0:
448,192,81664,1,0,0:0:0:0:
64,192,81750,1,0,0:0:0:0:
192,192,81750,1,0,0:0:0:0:
320,192,81750,1,0,0:0:0:0:
192,192,81921,1,0,0:0:0:70:LR_Clap Drum hit.wav
320,192,81921,1,0,0:0:0:0:
448,192,81921,1,0,0:0:0:0:
64,192,82007,1,0,0:0:0:0:
192,192,82092,1,0,0:0:0:0:
320,192,82092,1,0,0:0:0:0:
448,192,82092,1,0,0:0:0:0:
64,192,82264,1,2,0:0:0:0:
192,192,82264,1,0,0:0:0:0:
448,192,82264,1,0,0:0:0:0:
320,192,82350,1,0,0:0:0:0:
64,192,82435,1,0,0:0:0:0:
192,192,82435,1,0,0:0:0:0:
448,192,82435,1,0,0:0:0:0:
64,192,82607,1,0,0:0:0:70:LR_Clap Drum hit.wav
320,192,82607,1,0,0:0:0:0:
448,192,82607,1,0,0:0:0:0:
192,192,82692,1,0,0:0:0:0:
64,192,82778,1,2,0:0:0:0:
320,192,82778,1,0,0:0:0:0:
448,192,82778,1,0,0:0:0:0:
64,192,82950,1,2,0:0:0:0:
192,192,82950,1,0,0:0:0:0:
448,192,82950,1,0,0:0:0:0:
320,192,83035,1,0,0:0:0:0:
64,192,83121,1,0,0:0:0:0:
192,192,83121,1,0,0:0:0:0:
448,192,83121,1,0,0:0:0:0:
64,192,83292,1,0,0:0:0:70:LR_Clap Drum hit.wav
320,192,83292,1,0,0:0:0:0:
448,192,83292,1,0,0:0:0:0:
192,192,83378,1,0,0:0:0:0:
64,192,83464,1,0,0:0:0:0:
320,192,83464,1,0,0:0:0:0:
448,192,83464,1,0,0:0:0:0:
64,192,83635,1,2,0:0:0:0:
192,192,83635,128,0,83807:0:0:0:0:
320,192,83635,1,0,0:0:0:0:
64,192,83807,1,0,0:0:0:0:
320,192,83807,1,0,0:0:0:0:
192,192,83978,1,2,0:0:0:0:
320,192,83978,128,0,84150:0:0:0:0:
448,192,83978,1,0,0:0:0:0:
192,192,84150,1,0,0:0:0:0:
448,192,84150,1,0,0:0:0:0:
64,192,84321,1,2,0:0:0:0:
192,192,84321,128,0,84492:0:0:0:0:
448,192,84321,1,0,0:0:0:0:
64,192,84492,1,0,0:0:0:0:
448,192,84492,1,0,0:0:0:0:
64,192,84664,1,2,0:0:0:0:
320,192,84664,128,0,84835:0:0:0:0:
448,192,84664,1,0,0:0:0:0:
64,192,84835,1,0,0:0:0:0:
448,192,84835,1,0,0:0:0:0:
64,192,85007,1,2,0:0:0:0:
320,192,85007,1,0,0:0:0:0:
448,192,85007,1,0,0:0:0:0:
64,192,85178,1,2,0:0:0:0:
192,192,85178,1,0,0:0:0:0:
448,192,85178,1,0,0:0:0:0:
64,192,85350,1,2,0:0:0:0:
320,192,85350,1,0,0:0:0:0:
448,192,85350,1,0,0:0:0:0:
64,192,85521,1,2,0:0:0:0:
192,192,85521,1,0,0:0:0:0:
448,192,85521,1,0,0:0:0:0:
64,192,85692,1,2,0:0:0:0:
448,192,85692,1,0,0:0:0:0:
192,192,85778,1,0,0:0:0:0:
64,192,85864,1,2,0:0:0:0:
448,192,85864,1,0,0:0:0:0:
320,192,85950,1,0,0:0:0:0:
64,192,86035,1,2,0:0:0:0:
192,192,86035,1,0,0:0:0:0:
320,192,86121,1,0,0:0:0:0:
64,192,86207,128,2,86378:0:0:0:0:
192,192,86207,128,0,86378:0:0:0:0:
448,192,86207,128,0,86378:0:0:0:0:
64,192,86550,1,0,0:0:0:0:
192,192,86550,128,0,86721:0:0:0:0:
320,192,86550,128,0,86721:0:0:0:0:
448,192,86721,1,0,0:0:0:0:
64,192,86892,1,2,0:0:0:0:
192,192,86892,1,0,0:0:0:0:
320,192,86892,1,0,0:0:0:0:
192,192,87064,1,2,0:0:0:0:
320,192,87064,1,0,0:0:0:0:
448,192,87064,1,0,0:0:0:0:
64,192,87235,1,0,0:0:0:0:
320,192,87235,1,0,0:0:0:0:
448,192,87235,1,0,0:0:0:0:
64,192,87407,1,2,0:0:0:0:
192,192,87407,128,0,87578:0:0:0:0:
448,192,87407,128,0,87578:0:0:0:0:
320,192,87578,1,0,0:0:0:0:
64,192,87750,1,2,0:0:0:0:
192,192,87750,1,0,0:0:0:0:
320,192,87750,1,0,0:0:0:0:
192,192,87921,1,0,0:0:0:0:
320,192,87921,1,0,0:0:0:0:
448,192,87921,1,0,0:0:0:0:
64,192,88092,128,0,88264:0:0:0:0:
192,192,88092,128,0,88264:0:0:0:0:
320,192,88092,1,0,0:0:0:0:
448,192,88264,1,2,0:0:0:0:
64,192,88435,1,2,0:0:0:0:
192,192,88435,1,0,0:0:0:0:
320,192,88435,1,0,0:0:0:0:
64,192,88607,1,2,0:0:0:0:
320,192,88607,1,0,0:0:0:0:
448,192,88607,1,0,0:0:0:0:
64,192,88778,128,2,88950:0:0:0:0:
192,192,88778,1,0,0:0:0:0:
320,192,88778,1,0,0:0:0:0:
448,192,88778,128,0,88950:0:0:0:0:
192,192,89121,128,2,89207:0:0:0:0:
320,192,89121,128,0,89207:0:0:0:0:
448,192,89121,128,0,89207:0:0:0:0:
64,192,89292,128,2,89378:0:0:0:0:
192,192,89292,128,0,89378:0:0:0:0:
320,192,89292,128,0,89378:0:0:0:0:
192,192,89464,128,2,89550:0:0:0:0:
320,192,89464,128,0,89550:0:0:0:0:
448,192,89464,128,0,89550:0:0:0:0:
64,192,89635,128,2,89721:0:0:0:0:
192,192,89635,128,0,89721:0:0:0:0:
320,192,89635,128,0,89721:0:0:0:0:
64,192,89978,128,2,90064:0:0:0:0:
192,192,89978,128,0,90064:0:0:0:0:
448,192,89978,128,0,90064:0:0:0:0:
64,192,90150,128,2,90235:0:0:0:0:
320,192,90150,128,0,90235:0:0:0:0:
448,192,90150,128,0,90235:0:0:0:0:
64,192,90321,128,2,90407:0:0:0:0:
192,192,90321,128,0,90407:0:0:0:0:
448,192,90321,128,0,90407:0:0:0:0:
64,192,90664,128,2,90750:0:0:0:0:
192,192,90664,128,0,90750:0:0:0:0:
320,192,90664,128,0,90750:0:0:0:0:
448,192,90664,128,0,90750:0:0:0:0:
64,192,90835,128,2,90921:0:0:0:0:
192,192,90835,128,0,90921:0:0:0:0:
320,192,90835,128,0,90921:0:0:0:0:
448,192,90835,128,0,90921:0:0:0:0:
64,192,91007,128,2,91178:0:0:0:0:
192,192,91007,128,0,91178:0:0:0:0:
320,192,91007,128,0,91178:0:0:0:0:
448,192,91007,128,0,91178:0:0:0:0:
