osu file format v14

[General]
AudioFilename: audio.mp3
AudioLeadIn: 0
PreviewTime: 85201
Countdown: 0
SampleSet: Normal
StackLeniency: 0.7
Mode: 1
LetterboxInBreaks: 0
WidescreenStoryboard: 0

[Editor]
Bookmarks: 21868,43701,75201,117868,139701,148784,171201,235201,256534,293701,311201,332534
DistanceSpacing: 1.1
BeatDivisor: 4
GridSize: 16
TimelineZoom: 2.699999

[Metadata]
Title:High Free Spirits (nenpulse bootleg remix)
TitleUnicode:High Free Spirits (nenpulse bootleg remix)
Artist:TrySail
ArtistUnicode:TrySail
Creator:Alwaysyukaz
Version:Yousoro!
Source:ハイスクール・フリート
Tags:high school fleet haifuri drum and bass dnb op opening
BeatmapID:1700181
BeatmapSetID:810326

[Difficulty]
HPDrainRate:4.5
CircleSize:2
OverallDifficulty:6.5
ApproachRate:5
SliderMultiplier:1.4
SliderTickRate:1

[Events]
//Background and Video events
0,0,"BG.png",0,60
//Break Periods
//Storyboard Layer 0 (Background)
//Storyboard Layer 1 (Fail)
//Storyboard Layer 2 (Pass)
//Storyboard Layer 3 (Foreground)
//Storyboard Sound Samples

[TimingPoints]
535,333.333333333333,4,1,0,55,1,0
11201,-66.6666666666667,4,1,0,60,0,0
11701,-100,4,1,0,60,0,0
16534,-95.2380952380952,4,1,0,60,0,0
17868,-90.9090909090909,4,1,0,60,0,0
19201,-86.9565217391304,4,1,0,60,0,0
20534,-83.3333333333333,4,1,0,60,0,0
21868,-100,4,1,0,70,0,0
42701,-90.9090909090909,4,1,0,70,0,0
42868,-83.3333333333333,4,1,0,70,0,0
43201,-76.9230769230769,4,1,0,70,0,0
43701,-100,4,1,0,55,0,0
52534,-90.9090909090909,4,1,0,60,0,0
53534,-83.3333333333333,4,1,0,60,0,0
53868,-76.9230769230769,4,1,0,60,0,0
54201,-100,4,1,0,60,0,0
61868,-90.9090909090909,4,1,0,60,0,0
63868,-91.743119266055,4,1,0,60,0,0
63951,-92.5925925925926,4,1,0,60,0,0
64034,-93.4579439252336,4,1,0,60,0,0
64118,-94.3396226415094,4,1,0,60,0,0
64201,-95.2380952380952,4,1,0,60,0,0
64284,-96.1538461538461,4,1,0,60,0,0
64368,-97.0873786407767,4,1,0,60,0,0
64451,-99.009900990099,4,1,0,60,0,0
64534,-100,4,1,0,60,0,0
74868,-83.3333333333333,4,1,0,60,0,0
75201,-100,4,1,0,60,0,0
83201,-74.0740740740741,4,1,0,60,0,0
85368,-90.9090909090909,4,1,0,60,0,0
85868,-95.2380952380952,4,1,0,65,0,1
116868,-92.5925925925926,4,1,0,65,0,1
117034,-90.9090909090909,4,1,0,65,0,1
117368,-86.9565217391304,4,1,0,65,0,1
117534,-83.3333333333333,4,1,0,65,0,1
117868,-100,4,1,0,70,0,0
138701,-90.9090909090909,4,1,0,70,0,0
138868,-83.3333333333333,4,1,0,70,0,0
139201,-76.9230769230769,4,1,0,70,0,0
139534,-100,4,1,0,60,0,0
148534,-90.9090909090909,4,1,0,60,0,0
149534,-83.3333333333333,4,1,0,60,0,0
149868,-76.9230769230769,4,1,0,60,0,0
150201,-100,4,1,0,60,0,0
157701,-98.0392156862745,4,1,0,60,0,0
157868,-95.2380952380952,4,1,0,60,0,0
158201,-90.9090909090909,4,1,0,60,0,0
159701,-89.2857142857143,4,1,0,60,0,0
159784,-87.719298245614,4,1,0,60,0,0
159868,-86.2068965517241,4,1,0,60,0,0
159951,-84.7457627118644,4,1,0,60,0,0
160034,-83.3333333333333,4,1,0,60,0,0
160118,-81.9672131147541,4,1,0,60,0,0
160201,-80.6451612903226,4,1,0,60,0,0
160284,-79.3650793650794,4,1,0,60,0,0
160368,-78.125,4,1,0,60,0,0
160451,-76.9230769230769,4,1,0,60,0,0
171201,-100,4,1,0,60,0,0
179201,-74.0740740740741,4,1,0,60,0,0
181201,-90.9090909090909,4,1,0,60,0,0
182201,-90.9090909090909,4,1,0,65,0,1
212868,-89.2857142857143,4,1,0,65,0,1
213034,-86.9565217391304,4,1,0,65,0,1
213368,-83.3333333333333,4,1,0,65,0,1
213534,-80,4,1,0,65,0,1
213868,-100,4,1,0,60,0,0
229868,-90.9090909090909,4,1,0,60,0,0
231201,-86.9565217391304,4,1,0,60,0,0
232534,-83.3333333333333,4,1,0,60,0,0
232618,-84.0336134453781,4,1,0,60,0,0
232701,-84.7457627118644,4,1,0,60,0,0
232784,-85.4700854700855,4,1,0,60,0,0
232868,-86.2068965517241,4,1,0,60,0,0
232951,-86.9565217391304,4,1,0,60,0,0
233034,-87.719298245614,4,1,0,60,0,0
233118,-88.4955752212389,4,1,0,60,0,0
233201,-89.2857142857143,4,1,0,60,0,0
233284,-90.0900900900901,4,1,0,60,0,0
233368,-90.9090909090909,4,1,0,60,0,0
233423,-91.743119266055,4,1,0,60,0,0
233479,-92.5925925925926,4,1,0,60,0,0
233534,-93.4579439252336,4,1,0,60,0,0
233618,-94.3396226415094,4,1,0,60,0,0
233701,-95.2380952380952,4,1,0,60,0,0
233757,-96.1538461538461,4,1,0,60,0,0
233812,-97.0873786407767,4,1,0,60,0,0
233868,-98.0392156862745,4,1,0,60,0,0
234034,-99.009900990099,4,1,0,60,0,0
234701,-90.9090909090909,4,1,0,60,0,0
235201,-100,4,1,0,70,0,0
256034,-90.9090909090909,4,1,0,60,0,0
256534,-80,4,1,0,60,0,0
256868,-86.9565217391304,4,1,0,60,0,0
257201,-100,4,1,0,60,0,0
267201,-74.0740740740741,4,1,0,60,0,0
269701,-100,4,1,0,60,0,0
274868,-86.9565217391304,4,1,0,60,0,0
275201,-74.0740740740741,4,1,0,60,0,0
278534,-90.9090909090909,4,1,0,60,0,0
279534,-86.9565217391304,4,1,0,65,0,1
310201,-84.7457627118644,4,1,0,65,0,1
310368,-83.3333333333333,4,1,0,65,0,1
310701,-80,4,1,0,65,0,1
310868,-76.9230769230769,4,1,0,65,0,1
311201,-100,4,1,0,70,0,0
353868,-66.6666666666667,4,1,0,70,0,0

[HitObjects]
255,191,535,5,12,0:0:0:0:
255,191,1701,1,0,0:0:0:0:
255,193,3201,1,0,0:0:0:0:
255,193,4368,1,8,0:0:0:0:
255,193,5868,1,0,0:0:0:0:
254,193,7034,1,8,0:0:0:0:
254,193,8534,1,8,0:0:0:0:
254,193,9701,1,8,0:0:0:0:
254,193,11201,1,4,0:0:0:0:
254,193,11701,1,8,0:0:0:0:
254,193,12201,1,0,0:0:0:0:
254,193,12368,1,8,0:0:0:0:
254,193,12701,1,8,0:0:0:0:
254,193,13201,1,0,0:0:0:0:
254,193,13534,1,0,0:0:0:0:
254,193,13868,1,8,0:0:0:0:
254,193,14368,1,8,0:0:0:0:
254,193,14868,1,0,0:0:0:0:
254,193,15034,1,8,0:0:0:0:
254,193,15368,1,8,0:0:0:0:
254,193,15868,1,0,0:0:0:0:
254,193,16201,1,8,0:0:0:0:
255,195,16534,1,4,0:0:0:0:
254,193,17201,1,0,0:0:0:0:
254,193,17868,1,12,0:0:0:0:
254,193,18534,1,0,0:0:0:0:
258,193,19201,1,4,0:0:0:0:
254,193,19534,1,0,0:0:0:0:
258,193,19868,1,12,0:0:0:0:
258,193,20201,1,0,0:0:0:0:
258,193,20534,1,0,0:0:0:0:
258,193,20701,1,0,0:0:0:0:
258,193,20868,1,8,0:0:0:0:
258,193,20951,1,0,0:0:0:0:
258,193,21034,1,8,0:0:0:0:
258,193,21118,1,8,0:0:0:0:
258,193,21201,1,0,0:0:0:0:
256,192,21257,1,0,0:0:0:0:
258,193,21312,1,0,0:0:0:0:
258,193,21368,1,0,0:0:0:0:
258,193,21451,1,0,0:0:0:0:
258,193,21534,1,8,0:0:0:0:
258,193,21868,1,12,0:0:0:0:
265,193,22034,1,0,0:0:0:0:
258,193,22201,1,0,0:0:0:0:
258,193,22284,1,0,0:0:0:0:
258,193,22368,1,8,0:0:0:0:
265,193,22534,1,8,0:0:0:0:
258,193,22701,1,0,0:0:0:0:
258,193,22868,1,8,0:0:0:0:
265,193,22951,1,0,0:0:0:0:
258,193,23034,1,0,0:0:0:0:
265,193,23118,1,8,0:0:0:0:
265,193,23201,1,8,0:0:0:0:
258,193,23368,1,8,0:0:0:0:
254,190,23534,1,0,0:0:0:0:
258,193,23701,1,8,0:0:0:0:
254,190,23785,1,8,0:0:0:0:
258,193,23868,1,0,0:0:0:0:
258,193,24034,1,0,0:0:0:0:
254,190,24201,1,8,0:0:0:0:
259,189,24534,1,0,0:0:0:0:
258,193,24701,1,8,0:0:0:0:
258,193,24784,1,8,0:0:0:0:
258,193,24868,1,0,0:0:0:0:
258,193,25034,1,0,0:0:0:0:
254,190,25201,1,8,0:0:0:0:
258,193,25368,1,8,0:0:0:0:
259,189,25534,1,0,0:0:0:0:
248,192,25618,1,8,0:0:0:0:
250,192,25701,1,8,0:0:0:0:
250,192,25868,1,8,0:0:0:0:
254,182,26034,1,0,0:0:0:0:
254,184,26201,1,0,0:0:0:0:
256,203,26284,1,0,0:0:0:0:
254,184,26368,1,8,0:0:0:0:
254,184,26534,1,8,0:0:0:0:
256,203,26701,1,0,0:0:0:0:
254,184,26868,1,8,0:0:0:0:
256,203,27201,1,0,0:0:0:0:
256,203,27368,1,8,0:0:0:0:
256,203,27534,1,8,0:0:0:0:
256,203,27701,1,0,0:0:0:0:
254,184,27784,1,0,0:0:0:0:
256,203,27868,1,8,0:0:0:0:
256,203,28034,1,8,0:0:0:0:
256,203,28201,1,8,0:0:0:0:
261,197,28285,1,8,0:0:0:0:
256,203,28368,1,0,0:0:0:0:
256,203,28534,1,0,0:0:0:0:
256,203,28701,1,0,0:0:0:0:
256,203,28784,1,8,0:0:0:0:
256,203,28868,1,8,0:0:0:0:
259,193,28951,1,0,0:0:0:0:
256,203,29034,1,0,0:0:0:0:
256,203,29201,1,8,0:0:0:0:
259,197,29368,1,0,0:0:0:0:
258,195,29534,1,8,0:0:0:0:
256,195,29868,1,8,0:0:0:0:
256,195,30034,1,0,0:0:0:0:
259,195,30118,1,0,0:0:0:0:
254,197,30201,1,8,0:0:0:0:
254,197,30368,1,8,0:0:0:0:
258,195,30534,1,8,0:0:0:0:
258,195,30618,1,0,0:0:0:0:
256,195,30701,1,0,0:0:0:0:
256,195,30868,1,8,0:0:0:0:
256,195,31034,1,0,0:0:0:0:
254,197,31118,1,8,0:0:0:0:
254,197,31201,1,0,0:0:0:0:
258,195,31451,1,0,0:0:0:0:
258,195,31534,1,8,0:0:0:0:
256,195,31701,1,0,0:0:0:0:
256,195,31868,1,8,0:0:0:0:
258,189,31951,1,8,0:0:0:0:
254,197,32034,1,0,0:0:0:0:
254,197,32118,1,0,0:0:0:0:
254,197,32201,1,8,0:0:0:0:
259,195,32284,1,8,0:0:0:0:
259,195,32368,1,8,0:0:0:0:
245,194,32451,1,0,0:0:0:0:
258,193,32534,1,12,0:0:0:0:
265,193,32701,1,0,0:0:0:0:
258,193,32868,1,0,0:0:0:0:
258,193,32951,1,0,0:0:0:0:
258,193,33034,1,8,0:0:0:0:
265,193,33201,1,8,0:0:0:0:
258,193,33368,1,0,0:0:0:0:
258,193,33534,1,8,0:0:0:0:
265,193,33618,1,0,0:0:0:0:
258,193,33701,1,0,0:0:0:0:
265,193,33784,1,8,0:0:0:0:
265,193,33868,1,8,0:0:0:0:
258,193,34034,1,0,0:0:0:0:
258,193,34201,1,8,0:0:0:0:
258,193,34368,1,0,0:0:0:0:
258,193,34451,1,0,0:0:0:0:
258,193,34534,1,8,0:0:0:0:
258,193,34701,1,0,0:0:0:0:
254,190,34868,1,8,0:0:0:0:
259,189,35201,1,8,0:0:0:0:
258,193,35368,1,0,0:0:0:0:
258,193,35451,1,8,0:0:0:0:
258,193,35534,1,8,0:0:0:0:
258,193,35701,1,8,0:0:0:0:
254,190,35868,1,0,0:0:0:0:
258,193,36034,1,8,0:0:0:0:
254,190,36118,1,8,0:0:0:0:
259,189,36201,1,0,0:0:0:0:
250,192,36368,1,0,0:0:0:0:
250,192,36534,1,8,0:0:0:0:
254,184,36701,5,0,0:0:0:0:
256,203,36784,1,0,0:0:0:0:
254,184,36867,1,8,0:0:0:0:
254,182,36951,1,8,0:0:0:0:
254,182,37034,1,0,0:0:0:0:
254,184,37201,1,8,0:0:0:0:
256,203,37368,1,8,0:0:0:0:
250,192,37534,1,0,0:0:0:0:
254,184,37701,1,8,0:0:0:0:
256,203,37784,1,0,0:0:0:0:
261,197,37868,1,0,0:0:0:0:
263,197,37951,5,8,0:0:0:0:
263,197,38034,1,8,0:0:0:0:
263,197,38118,1,0,0:0:0:0:
263,197,38201,1,8,0:0:0:0:
256,203,38284,1,0,0:0:0:0:
263,197,38368,1,0,0:0:0:0:
263,197,38451,1,8,0:0:0:0:
263,197,38534,1,0,0:0:0:0:
261,197,38618,1,0,0:0:0:0:
261,197,38701,1,8,0:0:0:0:
263,197,38784,1,0,0:0:0:0:
263,197,38868,1,8,0:0:0:0:
263,197,38951,1,8,0:0:0:0:
263,197,39034,1,0,0:0:0:0:
263,197,39118,1,0,0:0:0:0:
263,197,39201,1,8,0:0:0:0:
263,197,39284,1,0,0:0:0:0:
263,197,39368,1,8,0:0:0:0:
263,197,39451,1,8,0:0:0:0:
261,197,39534,1,0,0:0:0:0:
263,197,39618,1,0,0:0:0:0:
263,197,39701,1,8,0:0:0:0:
263,197,39784,1,8,0:0:0:0:
263,197,39868,1,8,0:0:0:0:
261,197,39951,1,0,0:0:0:0:
263,197,40034,1,8,0:0:0:0:
263,197,40118,1,8,0:0:0:0:
263,197,40201,1,0,0:0:0:0:
263,197,40284,1,0,0:0:0:0:
242,167,40368,1,8,0:0:0:0:
261,197,40534,1,4,0:0:0:0:
255,190,40701,1,8,0:0:0:0:
255,190,40785,1,8,0:0:0:0:
255,190,40868,1,0,0:0:0:0:
255,190,41034,1,0,0:0:0:0:
255,190,41118,1,0,0:0:0:0:
255,190,41201,1,12,0:0:0:0:
250,190,41368,1,0,0:0:0:0:
250,190,41534,1,8,0:0:0:0:
255,190,41701,1,8,0:0:0:0:
256,192,41868,12,0,42534,0:0:0:0:
255,190,42701,5,0,0:0:0:0:
266,194,42868,1,12,0:0:0:0:
255,190,43201,1,4,0:0:0:0:
255,190,43701,1,0,0:0:0:0:
257,186,43868,1,8,0:0:0:0:
255,190,44034,1,0,0:0:0:0:
255,190,44368,1,0,0:0:0:0:
255,190,44534,1,8,0:0:0:0:
257,186,44868,1,8,0:0:0:0:
261,193,45034,1,0,0:0:0:0:
261,193,45368,1,8,0:0:0:0:
261,193,45701,1,0,0:0:0:0:
261,193,46368,1,0,0:0:0:0:
261,193,46534,1,8,0:0:0:0:
255,198,46701,1,0,0:0:0:0:
261,193,47034,1,0,0:0:0:0:
261,193,47201,1,8,0:0:0:0:
261,193,47534,1,8,0:0:0:0:
261,191,47701,1,0,0:0:0:0:
261,193,48034,1,8,0:0:0:0:
263,186,48368,1,8,0:0:0:0:
260,184,49201,1,0,0:0:0:0:
263,168,49534,1,8,0:0:0:0:
247,164,49868,1,0,0:0:0:0:
254,186,50368,1,8,0:0:0:0:
261,191,51034,1,0,0:0:0:0:
261,191,51201,1,8,0:0:0:0:
261,191,51534,1,0,0:0:0:0:
261,191,51868,1,8,0:0:0:0:
261,191,52201,1,8,0:0:0:0:
261,191,52534,1,4,0:0:0:0:
261,191,52701,1,0,0:0:0:0:
261,191,52784,1,8,0:0:0:0:
261,191,52868,1,0,0:0:0:0:
261,191,52951,1,0,0:0:0:0:
261,191,53034,1,8,0:0:0:0:
261,191,53118,1,8,0:0:0:0:
261,191,53201,1,8,0:0:0:0:
261,191,53284,1,8,0:0:0:0:
261,191,53368,1,0,0:0:0:0:
261,191,53534,1,12,0:0:0:0:
261,191,53868,1,4,0:0:0:0:
262,184,54201,1,8,0:0:0:0:
261,191,54368,1,0,0:0:0:0:
261,191,54451,1,0,0:0:0:0:
261,191,54534,1,8,0:0:0:0:
265,206,54701,1,0,0:0:0:0:
262,184,54868,1,0,0:0:0:0:
262,184,54951,1,0,0:0:0:0:
262,184,55034,1,8,0:0:0:0:
262,184,55118,1,8,0:0:0:0:
262,184,55201,1,0,0:0:0:0:
264,206,55368,1,0,0:0:0:0:
264,206,55534,1,8,0:0:0:0:
265,206,55618,1,8,0:0:0:0:
265,206,55701,1,0,0:0:0:0:
265,206,55868,1,0,0:0:0:0:
263,206,56034,1,0,0:0:0:0:
264,206,56118,1,8,0:0:0:0:
263,206,56201,1,8,0:0:0:0:
264,206,56368,1,0,0:0:0:0:
264,206,56534,1,0,0:0:0:0:
265,206,56868,1,8,0:0:0:0:
257,198,57034,1,0,0:0:0:0:
258,198,57201,1,8,0:0:0:0:
269,196,57284,1,0,0:0:0:0:
269,196,57368,1,8,0:0:0:0:
264,206,57534,1,0,0:0:0:0:
274,196,57701,1,0,0:0:0:0:
274,196,57784,1,0,0:0:0:0:
274,196,57868,1,8,0:0:0:0:
274,198,58034,1,0,0:0:0:0:
266,196,58201,1,0,0:0:0:0:
269,196,58284,1,8,0:0:0:0:
269,196,58368,1,8,0:0:0:0:
266,196,58534,1,8,0:0:0:0:
266,196,58701,1,0,0:0:0:0:
266,196,58784,1,8,0:0:0:0:
266,196,58868,1,0,0:0:0:0:
274,198,59034,1,0,0:0:0:0:
274,198,59201,1,8,0:0:0:0:
270,188,59534,1,0,0:0:0:0:
270,186,59701,1,8,0:0:0:0:
269,186,59784,1,8,0:0:0:0:
269,186,59868,1,0,0:0:0:0:
269,186,60034,1,0,0:0:0:0:
269,186,60201,1,0,0:0:0:0:
270,188,60284,1,8,0:0:0:0:
270,188,60368,1,8,0:0:0:0:
270,188,60451,1,0,0:0:0:0:
270,188,60534,1,8,0:0:0:0:
270,186,60701,1,0,0:0:0:0:
269,186,60868,1,8,0:0:0:0:
269,186,61034,1,0,0:0:0:0:
269,186,61118,1,0,0:0:0:0:
269,186,61201,1,8,0:0:0:0:
270,188,61368,1,0,0:0:0:0:
270,188,61534,1,8,0:0:0:0:
276,188,61868,1,4,0:0:0:0:
263,191,62201,1,0,0:0:0:0:
261,197,62368,1,0,0:0:0:0:
262,195,62534,1,12,0:0:0:0:
261,197,62701,1,0,0:0:0:0:
260,195,62784,1,0,0:0:0:0:
261,195,62868,1,8,0:0:0:0:
263,191,63034,1,8,0:0:0:0:
263,191,63201,1,4,0:0:0:0:
270,192,63368,1,0,0:0:0:0:
270,192,63451,1,0,0:0:0:0:
270,192,63534,1,0,0:0:0:0:
268,190,63701,5,0,0:0:0:0:
260,195,63784,5,0,0:0:0:0:
261,195,63868,1,0,0:0:0:0:
256,194,63951,1,8,0:0:0:0:
256,194,64034,1,8,0:0:0:0:
256,194,64118,1,8,0:0:0:0:
256,194,64201,1,0,0:0:0:0:
256,194,64284,1,8,0:0:0:0:
256,194,64368,1,0,0:0:0:0:
256,194,64451,1,0,0:0:0:0:
256,194,64534,1,12,0:0:0:0:
256,194,64868,1,8,0:0:0:0:
261,195,65034,1,0,0:0:0:0:
256,194,65201,1,8,0:0:0:0:
256,194,65284,1,0,0:0:0:0:
256,194,65368,1,8,0:0:0:0:
261,195,65534,1,8,0:0:0:0:
261,195,65701,1,0,0:0:0:0:
256,194,65784,1,0,0:0:0:0:
256,194,65868,1,8,0:0:0:0:
261,195,66034,1,0,0:0:0:0:
256,194,66201,1,8,0:0:0:0:
261,195,66534,1,8,0:0:0:0:
261,195,66701,1,8,0:0:0:0:
261,195,66784,1,0,0:0:0:0:
256,194,66868,1,8,0:0:0:0:
256,194,67034,1,0,0:0:0:0:
256,194,67201,1,8,0:0:0:0:
256,194,67368,1,8,0:0:0:0:
261,195,67451,1,8,0:0:0:0:
261,195,67534,1,0,0:0:0:0:
261,195,67701,1,0,0:0:0:0:
256,194,67868,1,0,0:0:0:0:
256,194,67951,1,8,0:0:0:0:
256,194,68034,1,8,0:0:0:0:
256,194,68118,1,0,0:0:0:0:
256,194,68201,1,8,0:0:0:0:
261,195,68368,1,8,0:0:0:0:
256,194,68534,1,0,0:0:0:0:
256,194,68868,1,0,0:0:0:0:
256,194,69034,1,8,0:0:0:0:
256,194,69118,1,8,0:0:0:0:
256,194,69201,1,0,0:0:0:0:
256,194,69368,1,8,0:0:0:0:
261,195,69534,1,0,0:0:0:0:
256,194,69701,1,0,0:0:0:0:
256,194,69784,1,8,0:0:0:0:
256,194,69868,1,8,0:0:0:0:
256,194,70034,1,0,0:0:0:0:
248,195,70201,1,8,0:0:0:0:
256,194,70284,1,0,0:0:0:0:
252,196,70368,1,8,0:0:0:0:
256,194,70534,1,0,0:0:0:0:
256,194,70701,1,0,0:0:0:0:
256,194,70784,1,0,0:0:0:0:
256,194,70868,1,8,0:0:0:0:
252,196,71034,1,0,0:0:0:0:
256,194,71201,1,8,0:0:0:0:
265,204,71534,1,8,0:0:0:0:
252,196,71701,1,0,0:0:0:0:
265,203,71868,1,8,0:0:0:0:
265,204,71951,1,0,0:0:0:0:
265,204,72034,1,0,0:0:0:0:
252,196,72201,1,8,0:0:0:0:
252,193,72534,1,8,0:0:0:0:
265,204,72701,1,0,0:0:0:0:
265,204,73034,1,0,0:0:0:0:
259,191,73201,1,8,0:0:0:0:
252,193,73534,1,8,0:0:0:0:
254,192,73701,1,0,0:0:0:0:
254,192,74034,1,0,0:0:0:0:
252,193,74368,1,0,0:0:0:0:
252,193,74534,1,8,0:0:0:0:
254,192,74868,1,12,0:0:0:0:
252,193,75201,1,4,0:0:0:0:
252,193,75368,1,8,0:0:0:0:
254,192,75534,1,0,0:0:0:0:
252,193,75618,1,0,0:0:0:0:
254,192,75701,1,8,0:0:0:0:
254,192,75868,1,8,0:0:0:0:
252,193,76034,1,0,0:0:0:0:
252,193,76201,1,8,0:0:0:0:
252,193,76284,1,8,0:0:0:0:
252,193,76368,1,0,0:0:0:0:
252,193,76451,1,0,0:0:0:0:
252,193,76534,1,8,0:0:0:0:
254,192,76701,1,0,0:0:0:0:
254,192,76868,1,8,0:0:0:0:
252,193,77201,1,0,0:0:0:0:
252,193,77368,1,8,0:0:0:0:
252,193,77534,1,0,0:0:0:0:
252,183,77618,1,0,0:0:0:0:
252,183,77701,1,8,0:0:0:0:
252,183,77868,1,8,0:0:0:0:
255,181,78034,1,8,0:0:0:0:
231,150,78118,1,8,0:0:0:0:
252,183,78201,1,0,0:0:0:0:
255,181,78368,1,0,0:0:0:0:
252,193,78534,1,8,0:0:0:0:
252,183,78701,1,0,0:0:0:0:
257,191,78784,1,0,0:0:0:0:
257,191,78868,1,8,0:0:0:0:
252,183,78951,1,8,0:0:0:0:
252,193,79034,1,0,0:0:0:0:
256,173,79201,1,8,0:0:0:0:
255,181,79368,1,0,0:0:0:0:
257,172,79534,1,0,0:0:0:0:
256,173,79618,1,0,0:0:0:0:
254,181,79701,1,8,0:0:0:0:
257,172,79868,1,8,0:0:0:0:
256,173,80034,1,0,0:0:0:0:
257,160,80201,1,8,0:0:0:0:
256,158,80534,5,8,0:0:0:0:
250,162,80618,1,0,0:0:0:0:
252,165,80701,1,8,0:0:0:0:
257,182,80784,1,8,0:0:0:0:
257,172,80868,1,0,0:0:0:0:
256,158,80951,1,0,0:0:0:0:
250,162,81034,1,8,0:0:0:0:
252,165,81118,1,8,0:0:0:0:
257,182,81201,1,0,0:0:0:0:
257,172,81284,1,0,0:0:0:0:
258,178,81368,1,8,0:0:0:0:
258,178,81451,1,0,0:0:0:0:
259,178,81534,1,8,0:0:0:0:
259,178,81618,1,8,0:0:0:0:
256,158,81701,1,0,0:0:0:0:
264,182,81784,1,0,0:0:0:0:
256,158,81868,1,8,0:0:0:0:
256,158,81951,1,8,0:0:0:0:
250,162,82034,1,0,0:0:0:0:
252,165,82118,1,0,0:0:0:0:
257,182,82201,1,8,0:0:0:0:
257,172,82284,1,8,0:0:0:0:
263,197,82368,1,0,0:0:0:0:
260,197,82451,1,0,0:0:0:0:
256,158,82534,1,8,0:0:0:0:
259,178,82590,1,8,0:0:0:0:
259,178,82646,1,8,0:0:0:0:
257,177,82701,1,0,0:0:0:0:
255,173,82784,1,0,0:0:0:0:
257,177,82868,1,8,0:0:0:0:
257,177,82923,1,0,0:0:0:0:
257,176,82979,1,0,0:0:0:0:
256,158,83034,1,8,0:0:0:0:
252,165,83118,1,0,0:0:0:0:
256,158,83201,1,12,0:0:0:0:
256,158,83368,1,12,0:0:0:0:
256,158,83701,1,4,0:0:0:0:
258,151,83868,1,4,0:0:0:0:
258,151,84201,1,12,0:0:0:0:
258,151,84368,1,12,0:0:0:0:
256,192,84534,12,0,85201,0:0:0:0:
259,197,85368,5,0,0:0:0:0:
259,197,85534,5,12,0:0:0:0:
259,197,85868,1,4,0:0:0:0:
259,197,86034,1,8,0:0:0:0:
259,197,86201,1,0,0:0:0:0:
251,191,86368,1,0,0:0:0:0:
251,189,86451,1,0,0:0:0:0:
251,191,86534,1,8,0:0:0:0:
252,184,86618,1,0,0:0:0:0:
251,189,86701,1,8,0:0:0:0:
251,189,86868,1,0,0:0:0:0:
251,189,87034,1,0,0:0:0:0:
251,189,87118,1,0,0:0:0:0:
251,189,87201,1,8,0:0:0:0:
251,191,87368,1,0,0:0:0:0:
251,191,87534,1,8,0:0:0:0:
251,189,87868,1,8,0:0:0:0:
251,189,88034,1,0,0:0:0:0:
251,189,88118,1,0,0:0:0:0:
251,189,88201,1,8,0:0:0:0:
251,191,88368,1,0,0:0:0:0:
251,191,88534,1,8,0:0:0:0:
260,191,88701,1,8,0:0:0:0:
256,195,88784,1,0,0:0:0:0:
256,195,88868,1,8,0:0:0:0:
253,199,89034,1,0,0:0:0:0:
253,199,89201,1,0,0:0:0:0:
252,199,89284,1,0,0:0:0:0:
251,191,89368,1,8,0:0:0:0:
251,191,89534,1,0,0:0:0:0:
256,195,89701,1,8,0:0:0:0:
253,199,89784,1,8,0:0:0:0:
252,199,89868,1,0,0:0:0:0:
253,199,90034,1,0,0:0:0:0:
253,199,90201,1,8,0:0:0:0:
251,201,90534,1,8,0:0:0:0:
260,205,90701,1,8,0:0:0:0:
260,205,90785,1,8,0:0:0:0:
260,205,90868,1,0,0:0:0:0:
260,205,91034,1,0,0:0:0:0:
260,205,91201,1,8,0:0:0:0:
263,208,91368,1,0,0:0:0:0:
263,207,91451,1,8,0:0:0:0:
263,207,91534,1,8,0:0:0:0:
260,205,91618,1,0,0:0:0:0:
260,205,91701,1,0,0:0:0:0:
251,214,91868,1,8,0:0:0:0:
251,214,92034,1,0,0:0:0:0:
251,214,92201,1,8,0:0:0:0:
251,206,92284,1,8,0:0:0:0:
250,221,92368,1,0,0:0:0:0:
253,206,92534,1,0,0:0:0:0:
252,222,92701,1,8,0:0:0:0:
253,222,92784,1,0,0:0:0:0:
250,221,92868,1,8,0:0:0:0:
250,221,93034,1,0,0:0:0:0:
250,221,93201,1,0,0:0:0:0:
254,223,93285,1,0,0:0:0:0:
250,221,93368,1,8,0:0:0:0:
254,223,93534,1,8,0:0:0:0:
252,222,93701,1,8,0:0:0:0:
253,222,93784,1,0,0:0:0:0:
250,221,93868,1,12,0:0:0:0:
250,221,94201,1,0,0:0:0:0:
254,223,94534,1,0,0:0:0:0:
252,222,94618,1,0,0:0:0:0:
252,222,94701,1,0,0:0:0:0:
250,221,94868,1,0,0:0:0:0:
250,221,95034,1,12,0:0:0:0:
248,215,95368,1,0,0:0:0:0:
254,223,95451,1,0,0:0:0:0:
254,223,95534,1,8,0:0:0:0:
257,227,95701,1,0,0:0:0:0:
248,215,95784,1,0,0:0:0:0:
254,223,95868,1,8,0:0:0:0:
248,215,95951,1,0,0:0:0:0:
254,223,96034,1,8,0:0:0:0:
254,223,96118,1,0,0:0:0:0:
254,223,96201,1,8,0:0:0:0:
248,215,96284,1,8,0:0:0:0:
254,223,96368,1,8,0:0:0:0:
254,223,96451,1,8,0:0:0:0:
259,197,96534,1,4,0:0:0:0:
259,197,96701,1,0,0:0:0:0:
259,197,96868,1,8,0:0:0:0:
251,191,97034,1,0,0:0:0:0:
251,189,97118,1,8,0:0:0:0:
251,191,97201,1,8,0:0:0:0:
252,184,97284,1,0,0:0:0:0:
251,189,97368,1,8,0:0:0:0:
251,189,97534,1,0,0:0:0:0:
251,189,97701,1,8,0:0:0:0:
251,189,97784,1,8,0:0:0:0:
251,189,97868,1,0,0:0:0:0:
251,191,98034,1,0,0:0:0:0:
251,191,98201,1,8,0:0:0:0:
251,189,98534,1,0,0:0:0:0:
251,189,98701,1,8,0:0:0:0:
251,189,98784,1,0,0:0:0:0:
251,189,98868,1,8,0:0:0:0:
251,191,99034,1,0,0:0:0:0:
251,191,99201,1,8,0:0:0:0:
260,191,99368,1,0,0:0:0:0:
256,195,99451,1,0,0:0:0:0:
256,195,99534,1,8,0:0:0:0:
253,199,99701,1,0,0:0:0:0:
253,199,99868,1,8,0:0:0:0:
252,199,99951,1,0,0:0:0:0:
251,191,100034,1,8,0:0:0:0:
251,191,100118,1,8,0:0:0:0:
251,191,100201,1,0,0:0:0:0:
252,199,100368,1,0,0:0:0:0:
256,195,100534,1,8,0:0:0:0:
253,199,100868,1,0,0:0:0:0:
257,197,101034,1,8,0:0:0:0:
251,201,101201,1,0,0:0:0:0:
260,205,101368,1,8,0:0:0:0:
260,205,101451,1,8,0:0:0:0:
260,205,101534,1,0,0:0:0:0:
260,205,101701,1,0,0:0:0:0:
260,205,101868,1,12,0:0:0:0:
263,208,102034,1,0,0:0:0:0:
263,207,102118,1,0,0:0:0:0:
263,207,102201,1,8,0:0:0:0:
260,205,102284,1,8,0:0:0:0:
260,205,102368,1,0,0:0:0:0:
251,214,102534,1,8,0:0:0:0:
251,214,102701,1,0,0:0:0:0:
251,206,102784,1,0,0:0:0:0:
251,214,102868,1,8,0:0:0:0:
250,221,103034,1,0,0:0:0:0:
253,206,103201,1,12,0:0:0:0:
250,221,103534,1,0,0:0:0:0:
250,221,103701,1,8,0:0:0:0:
250,221,103868,1,0,0:0:0:0:
250,221,104034,1,0,0:0:0:0:
254,223,104118,1,0,0:0:0:0:
254,223,104201,1,8,0:0:0:0:
252,222,104368,1,0,0:0:0:0:
250,221,104534,1,8,0:0:0:0:
250,221,104618,1,8,0:0:0:0:
253,222,104701,1,0,0:0:0:0:
260,212,104784,1,0,0:0:0:0:
251,205,104868,1,8,0:0:0:0:
255,208,105034,1,0,0:0:0:0:
261,211,105118,1,0,0:0:0:0:
263,213,105201,1,8,0:0:0:0:
251,209,105284,1,8,0:0:0:0:
261,213,105368,1,0,0:0:0:0:
255,205,105534,1,8,0:0:0:0:
259,201,105618,1,8,0:0:0:0:
255,209,105701,1,0,0:0:0:0:
260,212,105784,1,0,0:0:0:0:
261,210,105868,1,8,0:0:0:0:
255,208,106034,1,0,0:0:0:0:
261,207,106117,1,0,0:0:0:0:
263,213,106200,1,8,0:0:0:0:
269,208,106284,1,8,0:0:0:0:
261,213,106367,1,0,0:0:0:0:
261,204,106450,1,8,0:0:0:0:
255,205,106534,1,8,0:0:0:0:
255,205,106617,1,0,0:0:0:0:
259,201,106700,1,0,0:0:0:0:
260,212,106784,1,0,0:0:0:0:
261,202,106867,1,12,0:0:0:0:
261,200,107034,1,0,0:0:0:0:
259,197,107201,1,4,0:0:0:0:
259,197,107368,1,0,0:0:0:0:
259,197,107451,1,0,0:0:0:0:
259,197,107534,1,8,0:0:0:0:
251,191,107701,1,0,0:0:0:0:
251,191,107868,1,8,0:0:0:0:
252,184,107951,1,0,0:0:0:0:
251,189,108034,1,8,0:0:0:0:
251,189,108201,1,0,0:0:0:0:
251,189,108368,1,0,0:0:0:0:
251,189,108451,1,8,0:0:0:0:
251,189,108534,1,0,0:0:0:0:
251,191,108701,1,0,0:0:0:0:
251,191,108868,1,8,0:0:0:0:
251,189,109201,1,0,0:0:0:0:
251,189,109368,1,8,0:0:0:0:
251,189,109451,1,0,0:0:0:0:
251,189,109534,1,8,0:0:0:0:
251,191,109701,1,8,0:0:0:0:
251,191,109868,1,0,0:0:0:0:
260,191,110034,1,0,0:0:0:0:
256,195,110118,1,0,0:0:0:0:
256,195,110201,1,8,0:0:0:0:
253,199,110368,1,8,0:0:0:0:
253,199,110534,1,0,0:0:0:0:
252,199,110618,1,0,0:0:0:0:
251,191,110701,1,8,0:0:0:0:
251,191,110784,1,8,0:0:0:0:
251,191,110868,1,0,0:0:0:0:
252,199,111034,1,8,0:0:0:0:
256,195,111201,1,0,0:0:0:0:
253,199,111534,1,8,0:0:0:0:
257,197,111701,1,8,0:0:0:0:
251,201,111868,1,0,0:0:0:0:
260,205,112034,1,8,0:0:0:0:
260,205,112118,1,0,0:0:0:0:
260,205,112201,1,8,0:0:0:0:
260,205,112368,1,0,0:0:0:0:
260,205,112534,1,12,0:0:0:0:
263,208,112701,1,0,0:0:0:0:
251,201,112757,1,0,0:0:0:0:
263,207,112812,1,0,0:0:0:0:
263,207,112868,1,8,0:0:0:0:
260,205,113034,1,4,0:0:0:0:
251,214,113201,1,8,0:0:0:0:
260,205,113284,1,8,0:0:0:0:
251,214,113368,1,0,0:0:0:0:
251,214,113534,1,12,0:0:0:0:
250,221,113701,1,0,0:0:0:0:
263,207,113757,1,0,0:0:0:0:
253,206,113812,1,0,0:0:0:0:
237,203,113868,1,8,0:0:0:0:
252,222,114034,1,4,0:0:0:0:
250,221,114201,1,8,0:0:0:0:
248,216,114284,1,8,0:0:0:0:
250,221,114368,1,0,0:0:0:0:
251,214,114451,1,0,0:0:0:0:
254,223,114534,1,12,0:0:0:0:
250,221,114784,1,4,0:0:0:0:
252,222,115034,1,12,0:0:0:0:
250,221,115201,1,0,0:0:0:0:
249,189,115284,1,0,0:0:0:0:
267,217,115368,1,8,0:0:0:0:
268,217,115451,1,8,0:0:0:0:
261,197,115534,1,0,0:0:0:0:
269,219,115618,1,8,0:0:0:0:
250,192,115701,1,0,0:0:0:0:
261,209,115784,1,0,0:0:0:0:
247,189,115868,1,8,0:0:0:0:
249,189,115951,1,8,0:0:0:0:
261,209,116034,1,0,0:0:0:0:
249,189,116118,1,8,0:0:0:0:
251,198,116201,1,0,0:0:0:0:
267,217,116368,1,0,0:0:0:0:
251,202,116534,1,12,0:0:0:0:
263,220,116868,1,8,0:0:0:0:
263,223,117034,1,0,0:0:0:0:
263,223,117368,1,0,0:0:0:0:
265,225,117534,1,12,0:0:0:0:
258,193,117868,1,4,0:0:0:0:
265,193,118034,1,8,0:0:0:0:
258,193,118201,1,0,0:0:0:0:
258,193,118284,1,0,0:0:0:0:
258,193,118368,1,8,0:0:0:0:
265,193,118534,1,0,0:0:0:0:
258,193,118701,1,0,0:0:0:0:
258,193,118868,1,8,0:0:0:0:
258,193,118951,1,8,0:0:0:0:
258,193,119034,1,0,0:0:0:0:
265,193,119118,1,0,0:0:0:0:
265,193,119201,1,8,0:0:0:0:
265,193,119368,1,0,0:0:0:0:
254,190,119534,1,8,0:0:0:0:
258,193,119701,1,0,0:0:0:0:
258,193,119784,1,0,0:0:0:0:
258,193,119868,1,8,0:0:0:0:
254,190,120034,1,0,0:0:0:0:
254,190,120201,1,8,0:0:0:0:
258,193,120534,1,0,0:0:0:0:
259,189,120701,1,0,0:0:0:0:
258,193,120785,1,0,0:0:0:0:
258,193,120868,1,8,0:0:0:0:
254,190,121034,1,8,0:0:0:0:
254,190,121201,1,0,0:0:0:0:
250,192,121368,1,8,0:0:0:0:
248,192,121451,1,8,0:0:0:0:
250,192,121534,1,0,0:0:0:0:
254,182,121618,1,0,0:0:0:0:
258,193,121701,1,8,0:0:0:0:
259,189,121868,1,8,0:0:0:0:
254,182,122034,1,0,0:0:0:0:
254,184,122201,1,0,0:0:0:0:
256,203,122284,1,0,0:0:0:0:
254,184,122368,1,8,0:0:0:0:
254,184,122534,1,8,0:0:0:0:
256,203,122701,1,0,0:0:0:0:
254,184,122868,1,8,0:0:0:0:
256,203,123201,1,0,0:0:0:0:
256,203,123368,1,8,0:0:0:0:
256,203,123534,1,8,0:0:0:0:
256,203,123701,1,0,0:0:0:0:
256,203,123784,1,0,0:0:0:0:
256,203,123868,1,8,0:0:0:0:
256,203,124034,1,8,0:0:0:0:
256,203,124201,1,8,0:0:0:0:
261,197,124285,1,8,0:0:0:0:
256,203,124368,1,0,0:0:0:0:
256,203,124534,1,0,0:0:0:0:
256,203,124701,1,0,0:0:0:0:
256,203,124784,1,0,0:0:0:0:
256,203,124868,1,8,0:0:0:0:
259,193,124951,1,8,0:0:0:0:
256,203,125034,1,0,0:0:0:0:
256,203,125201,1,8,0:0:0:0:
259,197,125368,1,0,0:0:0:0:
258,195,125534,1,8,0:0:0:0:
256,195,125868,1,8,0:0:0:0:
256,195,126034,1,0,0:0:0:0:
259,195,126118,1,0,0:0:0:0:
254,197,126201,1,8,0:0:0:0:
254,197,126368,1,8,0:0:0:0:
258,195,126534,1,8,0:0:0:0:
258,195,126618,1,0,0:0:0:0:
256,195,126701,1,0,0:0:0:0:
256,195,126868,1,8,0:0:0:0:
256,195,127034,1,0,0:0:0:0:
254,197,127118,1,8,0:0:0:0:
254,197,127201,1,0,0:0:0:0:
254,204,127451,1,0,0:0:0:0:
258,195,127534,1,8,0:0:0:0:
256,195,127701,1,0,0:0:0:0:
256,195,127868,1,0,0:0:0:0:
254,197,127951,1,0,0:0:0:0:
254,197,128034,1,8,0:0:0:0:
254,197,128118,1,8,0:0:0:0:
254,197,128201,1,0,0:0:0:0:
259,195,128284,1,8,0:0:0:0:
259,195,128368,1,8,0:0:0:0:
245,194,128451,1,8,0:0:0:0:
258,193,128534,1,4,0:0:0:0:
265,193,128701,1,8,0:0:0:0:
258,193,128868,1,8,0:0:0:0:
258,193,128951,1,0,0:0:0:0:
258,193,129034,1,8,0:0:0:0:
265,193,129201,1,8,0:0:0:0:
258,193,129368,1,0,0:0:0:0:
265,193,129534,1,8,0:0:0:0:
265,193,129618,1,8,0:0:0:0:
258,193,129701,1,0,0:0:0:0:
265,193,129784,1,0,0:0:0:0:
258,193,129868,1,8,0:0:0:0:
254,190,130034,1,0,0:0:0:0:
258,193,130201,1,8,0:0:0:0:
258,193,130368,1,0,0:0:0:0:
265,193,130451,1,0,0:0:0:0:
258,193,130534,1,8,0:0:0:0:
258,193,130701,1,0,0:0:0:0:
254,190,130868,1,8,0:0:0:0:
258,193,131201,1,8,0:0:0:0:
258,193,131368,1,8,0:0:0:0:
258,193,131451,1,8,0:0:0:0:
259,189,131534,1,0,0:0:0:0:
254,190,131701,1,0,0:0:0:0:
254,190,131868,1,8,0:0:0:0:
258,193,132034,1,0,0:0:0:0:
248,192,132118,1,8,0:0:0:0:
250,192,132201,1,8,0:0:0:0:
250,192,132368,1,8,0:0:0:0:
259,189,132534,1,0,0:0:0:0:
254,184,132701,5,8,0:0:0:0:
254,184,132784,1,8,0:0:0:0:
254,182,132868,1,0,0:0:0:0:
254,182,132951,1,0,0:0:0:0:
256,203,133034,1,8,0:0:0:0:
254,184,133201,1,0,0:0:0:0:
254,184,133368,1,0,0:0:0:0:
256,203,133534,1,8,0:0:0:0:
259,189,133701,1,0,0:0:0:0:
254,184,133784,1,0,0:0:0:0:
261,197,133868,1,8,0:0:0:0:
263,197,133951,5,0,0:0:0:0:
263,197,134034,1,8,0:0:0:0:
263,197,134118,1,8,0:0:0:0:
263,197,134201,1,0,0:0:0:0:
261,197,134284,1,0,0:0:0:0:
263,197,134368,1,8,0:0:0:0:
263,197,134451,1,8,0:0:0:0:
263,197,134534,1,0,0:0:0:0:
263,197,134618,1,8,0:0:0:0:
261,197,134701,1,0,0:0:0:0:
263,197,134784,1,0,0:0:0:0:
263,197,134868,1,8,0:0:0:0:
263,197,134951,1,8,0:0:0:0:
263,197,135034,1,0,0:0:0:0:
270,200,135118,1,0,0:0:0:0:
263,197,135201,1,8,0:0:0:0:
263,197,135284,1,8,0:0:0:0:
263,197,135368,1,8,0:0:0:0:
263,197,135451,1,0,0:0:0:0:
261,197,135534,1,0,0:0:0:0:
263,197,135618,1,8,0:0:0:0:
263,197,135701,1,8,0:0:0:0:
263,197,135784,1,8,0:0:0:0:
263,197,135868,1,0,0:0:0:0:
261,197,135951,1,0,0:0:0:0:
263,197,136034,1,8,0:0:0:0:
263,197,136118,1,0,0:0:0:0:
263,197,136201,1,8,0:0:0:0:
263,197,136284,1,8,0:0:0:0:
242,167,136368,1,8,0:0:0:0:
261,197,136534,1,4,0:0:0:0:
255,190,136701,1,8,0:0:0:0:
255,190,136784,1,8,0:0:0:0:
255,190,136868,1,0,0:0:0:0:
255,190,137034,1,0,0:0:0:0:
255,190,137118,1,0,0:0:0:0:
255,190,137201,1,12,0:0:0:0:
250,190,137368,1,0,0:0:0:0:
255,190,137534,1,8,0:0:0:0:
250,190,137701,1,8,0:0:0:0:
256,192,137868,12,0,138534,0:0:0:0:
255,190,138701,5,0,0:0:0:0:
266,194,138868,1,12,0:0:0:0:
255,190,139201,1,4,0:0:0:0:
255,190,139534,5,8,0:0:0:0:
255,190,139618,1,0,0:0:0:0:
255,190,139701,1,0,0:0:0:0:
266,194,139784,1,8,0:0:0:0:
257,186,139868,1,8,0:0:0:0:
255,190,139951,1,0,0:0:0:0:
255,190,140034,1,0,0:0:0:0:
255,190,140118,1,0,0:0:0:0:
255,190,140201,1,8,0:0:0:0:
255,190,140284,1,8,0:0:0:0:
255,190,140368,1,0,0:0:0:0:
255,190,140451,1,0,0:0:0:0:
255,190,140534,1,8,0:0:0:0:
255,190,140618,1,8,0:0:0:0:
255,190,140701,1,8,0:0:0:0:
257,186,140784,1,0,0:0:0:0:
261,193,140868,1,8,0:0:0:0:
257,186,140951,1,8,0:0:0:0:
255,190,141034,1,4,0:0:0:0:
261,193,141368,1,12,0:0:0:0:
261,193,141701,1,4,0:0:0:0:
261,193,142201,1,12,0:0:0:0:
261,193,142534,1,0,0:0:0:0:
255,199,142701,1,0,0:0:0:0:
254,184,142785,1,0,0:0:0:0:
255,198,142868,1,8,0:0:0:0:
251,188,143034,1,0,0:0:0:0:
261,193,143201,1,8,0:0:0:0:
261,193,143284,1,8,0:0:0:0:
251,188,143368,1,0,0:0:0:0:
261,193,143534,1,0,0:0:0:0:
261,191,143701,1,8,0:0:0:0:
254,184,143868,1,8,0:0:0:0:
261,193,144034,1,0,0:0:0:0:
262,186,144118,1,0,0:0:0:0:
254,183,144201,1,8,0:0:0:0:
262,186,144284,1,8,0:0:0:0:
263,186,144368,1,0,0:0:0:0:
254,183,144534,1,0,0:0:0:0:
265,177,144868,1,8,0:0:0:0:
261,193,145034,1,8,0:0:0:0:
260,184,145201,1,0,0:0:0:0:
265,177,145284,1,8,0:0:0:0:
262,178,145368,1,8,0:0:0:0:
263,168,145534,1,0,0:0:0:0:
265,177,145701,1,0,0:0:0:0:
247,164,145868,1,0,0:0:0:0:
260,184,145951,1,0,0:0:0:0:
260,184,146034,1,8,0:0:0:0:
260,184,146201,1,0,0:0:0:0:
254,186,146368,1,8,0:0:0:0:
261,177,146534,1,0,0:0:0:0:
265,177,146618,1,8,0:0:0:0:
265,177,146701,1,8,0:0:0:0:
261,180,146784,1,0,0:0:0:0:
261,180,146868,1,8,0:0:0:0:
261,191,147034,1,0,0:0:0:0:
261,191,147201,1,8,0:0:0:0:
261,191,147534,1,8,0:0:0:0:
265,177,147701,1,0,0:0:0:0:
259,179,148034,1,0,0:0:0:0:
259,179,148118,1,0,0:0:0:0:
261,191,148201,1,8,0:0:0:0:
259,179,148368,1,0,0:0:0:0:
261,191,148534,1,12,0:0:0:0:
261,191,148701,1,0,0:0:0:0:
261,191,148784,1,0,0:0:0:0:
261,191,148868,1,8,0:0:0:0:
261,191,148951,1,8,0:0:0:0:
261,191,149034,1,0,0:0:0:0:
261,191,149118,1,8,0:0:0:0:
261,191,149201,1,8,0:0:0:0:
261,191,149284,1,0,0:0:0:0:
261,191,149368,1,0,0:0:0:0:
261,191,149534,1,12,0:0:0:0:
261,191,149868,1,4,0:0:0:0:
262,184,150201,1,8,0:0:0:0:
261,191,150368,1,0,0:0:0:0:
261,191,150451,1,0,0:0:0:0:
261,191,150534,1,8,0:0:0:0:
265,206,150701,1,0,0:0:0:0:
262,184,150868,1,0,0:0:0:0:
262,184,150951,1,8,0:0:0:0:
262,184,151034,1,8,0:0:0:0:
262,184,151118,1,0,0:0:0:0:
262,184,151201,1,0,0:0:0:0:
264,206,151368,1,8,0:0:0:0:
264,206,151534,1,0,0:0:0:0:
265,206,151701,1,0,0:0:0:0:
265,206,151784,1,0,0:0:0:0:
265,206,151868,1,8,0:0:0:0:
263,206,152034,1,0,0:0:0:0:
264,206,152201,1,8,0:0:0:0:
264,206,152285,1,8,0:0:0:0:
263,206,152368,1,0,0:0:0:0:
264,206,152534,1,8,0:0:0:0:
265,206,152868,1,0,0:0:0:0:
257,198,153034,1,8,0:0:0:0:
258,198,153118,1,0,0:0:0:0:
269,196,153201,1,8,0:0:0:0:
269,196,153368,1,0,0:0:0:0:
264,206,153534,1,8,0:0:0:0:
274,196,153701,1,0,0:0:0:0:
274,196,153784,1,0,0:0:0:0:
274,196,153868,1,8,0:0:0:0:
274,198,154034,1,0,0:0:0:0:
269,196,154201,1,8,0:0:0:0:
269,196,154284,1,0,0:0:0:0:
266,196,154368,1,0,0:0:0:0:
266,196,154534,1,8,0:0:0:0:
266,196,154701,1,0,0:0:0:0:
266,196,154784,1,8,0:0:0:0:
266,196,154868,1,0,0:0:0:0:
274,198,155034,1,0,0:0:0:0:
274,198,155201,1,8,0:0:0:0:
270,188,155534,1,0,0:0:0:0:
270,186,155701,1,8,0:0:0:0:
269,186,155784,1,0,0:0:0:0:
246,196,155868,1,8,0:0:0:0:
269,186,156034,1,8,0:0:0:0:
269,186,156201,1,0,0:0:0:0:
270,188,156368,1,8,0:0:0:0:
270,188,156451,1,8,0:0:0:0:
270,188,156534,1,0,0:0:0:0:
270,186,156701,1,0,0:0:0:0:
269,186,156868,1,8,0:0:0:0:
269,186,156951,1,0,0:0:0:0:
269,186,157034,1,0,0:0:0:0:
269,186,157201,1,0,0:0:0:0:
270,188,157368,1,0,0:0:0:0:
269,186,157451,1,8,0:0:0:0:
270,188,157534,1,8,0:0:0:0:
270,186,157701,1,8,0:0:0:0:
276,188,157868,1,4,0:0:0:0:
262,195,158201,5,8,0:0:0:0:
263,191,158368,1,0,0:0:0:0:
270,197,158534,1,12,0:0:0:0:
261,197,158701,1,8,0:0:0:0:
260,195,158784,1,0,0:0:0:0:
261,195,158868,1,8,0:0:0:0:
263,191,159034,1,8,0:0:0:0:
263,191,159201,1,4,0:0:0:0:
270,192,159368,1,0,0:0:0:0:
270,192,159451,1,0,0:0:0:0:
270,192,159534,1,0,0:0:0:0:
261,195,159701,1,0,0:0:0:0:
260,195,159784,1,0,0:0:0:0:
261,197,159868,1,8,0:0:0:0:
273,197,159951,1,8,0:0:0:0:
262,198,160034,1,8,0:0:0:0:
271,197,160118,1,8,0:0:0:0:
272,197,160201,1,0,0:0:0:0:
270,198,160284,1,0,0:0:0:0:
261,198,160368,1,8,0:0:0:0:
268,199,160451,1,8,0:0:0:0:
261,198,160534,1,4,0:0:0:0:
270,196,161034,1,4,0:0:0:0:
270,196,161534,1,12,0:0:0:0:
270,196,162034,1,4,0:0:0:0:
270,196,162534,1,12,0:0:0:0:
269,196,162868,1,4,0:0:0:0:
270,196,163034,1,0,0:0:0:0:
270,196,163201,1,12,0:0:0:0:
270,196,163701,1,4,0:0:0:0:
270,196,164201,1,12,0:0:0:0:
270,196,164701,1,4,0:0:0:0:
270,196,165201,1,12,0:0:0:0:
277,195,165534,1,4,0:0:0:0:
277,195,165701,1,0,0:0:0:0:
270,196,165784,1,0,0:0:0:0:
270,196,165868,1,12,0:0:0:0:
270,196,166368,1,4,0:0:0:0:
270,196,166868,1,12,0:0:0:0:
270,196,167368,1,4,0:0:0:0:
270,196,167868,1,12,0:0:0:0:
269,196,168201,1,4,0:0:0:0:
270,196,168368,1,0,0:0:0:0:
270,196,168451,1,0,0:0:0:0:
270,196,168534,1,12,0:0:0:0:
270,196,169034,1,4,0:0:0:0:
270,196,169534,1,12,0:0:0:0:
269,196,170034,1,4,0:0:0:0:
270,196,170201,1,8,0:0:0:0:
270,196,170368,1,0,0:0:0:0:
270,196,170423,1,0,0:0:0:0:
270,196,170479,1,0,0:0:0:0:
270,196,170534,1,8,0:0:0:0:
277,195,170701,1,12,0:0:0:0:
252,193,171201,1,12,0:0:0:0:
252,193,171368,1,0,0:0:0:0:
252,193,171534,1,8,0:0:0:0:
254,192,171701,1,0,0:0:0:0:
254,192,171784,1,8,0:0:0:0:
254,192,171868,1,0,0:0:0:0:
252,193,172034,1,0,0:0:0:0:
252,193,172201,1,0,0:0:0:0:
252,193,172284,1,8,0:0:0:0:
252,193,172368,1,8,0:0:0:0:
252,193,172451,1,0,0:0:0:0:
252,193,172534,1,8,0:0:0:0:
254,192,172701,1,0,0:0:0:0:
254,192,172868,1,8,0:0:0:0:
252,193,173201,1,8,0:0:0:0:
252,193,173368,1,8,0:0:0:0:
252,193,173534,1,8,0:0:0:0:
254,192,173618,1,0,0:0:0:0:
252,183,173701,1,0,0:0:0:0:
252,183,173868,1,8,0:0:0:0:
252,183,174034,1,8,0:0:0:0:
252,183,174118,1,0,0:0:0:0:
255,181,174201,1,8,0:0:0:0:
255,181,174368,1,0,0:0:0:0:
252,193,174534,1,8,0:0:0:0:
257,191,174701,1,0,0:0:0:0:
257,191,174784,1,0,0:0:0:0:
252,183,174868,1,8,0:0:0:0:
252,193,174951,1,8,0:0:0:0:
252,183,175034,1,0,0:0:0:0:
256,173,175201,1,8,0:0:0:0:
255,181,175368,1,8,0:0:0:0:
254,181,175534,1,0,0:0:0:0:
257,172,175618,1,0,0:0:0:0:
254,180,175701,1,8,0:0:0:0:
257,172,175868,1,8,0:0:0:0:
256,173,176034,1,0,0:0:0:0:
257,160,176201,1,8,0:0:0:0:
256,158,176534,5,0,0:0:0:0:
250,162,176618,1,0,0:0:0:0:
252,165,176701,1,8,0:0:0:0:
257,182,176784,1,8,0:0:0:0:
257,172,176868,1,0,0:0:0:0:
256,158,176951,1,8,0:0:0:0:
250,162,177034,1,0,0:0:0:0:
252,165,177118,1,0,0:0:0:0:
257,182,177201,1,8,0:0:0:0:
257,172,177284,1,8,0:0:0:0:
258,178,177368,1,0,0:0:0:0:
258,178,177451,1,0,0:0:0:0:
259,178,177534,1,8,0:0:0:0:
256,158,177618,1,8,0:0:0:0:
259,178,177701,1,0,0:0:0:0:
257,182,177784,1,0,0:0:0:0:
256,158,177868,1,8,0:0:0:0:
256,158,177923,1,8,0:0:0:0:
250,162,177979,1,8,0:0:0:0:
263,197,178034,1,0,0:0:0:0:
257,182,178118,1,0,0:0:0:0:
257,172,178201,1,8,0:0:0:0:
257,172,178257,1,0,0:0:0:0:
257,172,178312,1,0,0:0:0:0:
252,165,178368,1,8,0:0:0:0:
260,197,178451,1,0,0:0:0:0:
256,158,178534,1,8,0:0:0:0:
259,178,178590,1,8,0:0:0:0:
259,178,178646,1,8,0:0:0:0:
257,177,178701,1,0,0:0:0:0:
257,182,178784,1,0,0:0:0:0:
257,177,178868,1,8,0:0:0:0:
257,177,178923,1,0,0:0:0:0:
257,176,178979,1,0,0:0:0:0:
256,158,179034,1,8,0:0:0:0:
257,182,179118,1,8,0:0:0:0:
256,158,179201,1,4,0:0:0:0:
256,158,179368,1,4,0:0:0:0:
256,158,179701,1,12,0:0:0:0:
258,151,179868,1,12,0:0:0:0:
258,151,180201,1,4,0:0:0:0:
258,151,180368,1,4,0:0:0:0:
256,192,180534,12,0,181034,0:0:0:0:
259,197,181201,5,4,0:0:0:0:
259,197,181368,5,4,0:0:0:0:
259,197,181701,1,4,0:0:0:0:
259,197,182201,1,12,0:0:0:0:
259,197,182368,1,0,0:0:0:0:
259,197,182451,1,0,0:0:0:0:
259,197,182534,1,8,0:0:0:0:
259,197,182701,1,0,0:0:0:0:
259,197,182868,1,8,0:0:0:0:
259,197,182951,1,0,0:0:0:0:
259,197,183034,1,0,0:0:0:0:
259,197,183118,1,8,0:0:0:0:
259,197,183201,1,8,0:0:0:0:
259,197,183368,1,0,0:0:0:0:
259,197,183534,1,8,0:0:0:0:
251,189,183868,1,8,0:0:0:0:
251,189,184034,1,8,0:0:0:0:
259,197,184118,1,8,0:0:0:0:
251,189,184201,1,0,0:0:0:0:
251,191,184368,1,8,0:0:0:0:
251,191,184534,1,0,0:0:0:0:
256,195,184618,1,0,0:0:0:0:
260,191,184701,1,8,0:0:0:0:
256,195,184868,1,8,0:0:0:0:
253,199,185034,1,0,0:0:0:0:
251,191,185201,1,0,0:0:0:0:
251,191,185284,1,8,0:0:0:0:
251,191,185368,1,8,0:0:0:0:
253,199,185534,1,0,0:0:0:0:
256,195,185701,1,8,0:0:0:0:
256,195,185784,1,8,0:0:0:0:
252,199,185868,1,0,0:0:0:0:
253,199,186034,1,0,0:0:0:0:
253,199,186201,1,8,0:0:0:0:
251,201,186534,1,8,0:0:0:0:
260,205,186701,1,0,0:0:0:0:
260,205,186868,1,8,0:0:0:0:
260,205,187034,1,0,0:0:0:0:
253,199,187118,1,0,0:0:0:0:
260,205,187201,1,8,0:0:0:0:
263,208,187368,1,0,0:0:0:0:
263,207,187534,1,8,0:0:0:0:
260,205,187701,1,8,0:0:0:0:
251,214,187784,1,8,0:0:0:0:
260,205,187868,1,0,0:0:0:0:
260,205,187951,1,0,0:0:0:0:
251,206,188034,1,8,0:0:0:0:
251,214,188201,1,8,0:0:0:0:
250,221,188368,1,0,0:0:0:0:
250,221,188534,1,8,0:0:0:0:
247,220,188618,1,0,0:0:0:0:
253,206,188701,1,0,0:0:0:0:
250,221,188784,1,8,0:0:0:0:
252,222,188868,1,8,0:0:0:0:
250,221,189034,1,0,0:0:0:0:
250,221,189201,1,8,0:0:0:0:
254,223,189284,1,0,0:0:0:0:
250,221,189368,1,0,0:0:0:0:
254,223,189534,1,8,0:0:0:0:
252,222,189701,1,0,0:0:0:0:
250,221,189784,1,8,0:0:0:0:
253,222,189868,1,4,0:0:0:0:
250,221,190201,1,0,0:0:0:0:
250,221,190368,1,8,0:0:0:0:
254,223,190534,1,0,0:0:0:0:
252,222,190618,1,0,0:0:0:0:
252,222,190701,1,0,0:0:0:0:
250,221,190868,1,0,0:0:0:0:
250,221,191034,1,12,0:0:0:0:
248,215,191368,1,0,0:0:0:0:
254,223,191451,1,0,0:0:0:0:
254,223,191534,1,0,0:0:0:0:
257,227,191701,1,8,0:0:0:0:
248,215,191784,1,8,0:0:0:0:
254,223,191868,1,0,0:0:0:0:
254,223,191951,1,0,0:0:0:0:
248,215,192034,1,8,0:0:0:0:
254,223,192118,1,0,0:0:0:0:
254,223,192201,1,8,0:0:0:0:
248,215,192284,1,8,0:0:0:0:
254,223,192368,1,0,0:0:0:0:
254,223,192451,1,0,0:0:0:0:
259,197,192534,1,12,0:0:0:0:
259,197,192701,1,8,0:0:0:0:
259,197,192868,1,0,0:0:0:0:
251,191,193034,1,0,0:0:0:0:
251,189,193118,1,8,0:0:0:0:
251,191,193201,1,8,0:0:0:0:
252,184,193284,1,0,0:0:0:0:
251,189,193368,1,8,0:0:0:0:
251,189,193534,1,0,0:0:0:0:
251,189,193701,1,8,0:0:0:0:
251,189,193784,1,0,0:0:0:0:
251,189,193868,1,8,0:0:0:0:
251,191,194034,1,0,0:0:0:0:
251,191,194201,1,8,0:0:0:0:
251,189,194534,1,0,0:0:0:0:
251,189,194701,1,8,0:0:0:0:
251,189,194784,1,0,0:0:0:0:
251,189,194868,1,8,0:0:0:0:
251,191,195034,1,0,0:0:0:0:
251,191,195201,1,8,0:0:0:0:
260,191,195368,1,0,0:0:0:0:
251,189,195451,1,0,0:0:0:0:
256,195,195534,1,8,0:0:0:0:
253,199,195701,1,0,0:0:0:0:
251,191,195868,1,0,0:0:0:0:
251,191,195951,1,8,0:0:0:0:
251,191,196034,1,8,0:0:0:0:
252,199,196118,1,0,0:0:0:0:
253,199,196201,1,0,0:0:0:0:
256,195,196368,1,8,0:0:0:0:
252,199,196534,1,0,0:0:0:0:
253,199,196868,1,8,0:0:0:0:
257,197,197034,1,8,0:0:0:0:
251,201,197201,1,0,0:0:0:0:
260,205,197368,1,8,0:0:0:0:
260,205,197451,1,8,0:0:0:0:
260,205,197534,1,0,0:0:0:0:
260,205,197701,1,0,0:0:0:0:
260,205,197868,1,12,0:0:0:0:
263,208,198034,1,0,0:0:0:0:
263,207,198118,1,0,0:0:0:0:
263,207,198201,1,8,0:0:0:0:
260,205,198284,1,8,0:0:0:0:
260,205,198368,1,0,0:0:0:0:
251,214,198534,1,0,0:0:0:0:
251,214,198701,1,8,0:0:0:0:
251,206,198784,1,0,0:0:0:0:
251,214,198868,1,0,0:0:0:0:
250,221,199034,1,0,0:0:0:0:
253,206,199201,1,12,0:0:0:0:
250,221,199534,1,0,0:0:0:0:
250,221,199701,1,8,0:0:0:0:
250,221,199868,1,0,0:0:0:0:
250,221,200034,1,0,0:0:0:0:
254,223,200118,1,0,0:0:0:0:
254,223,200201,1,8,0:0:0:0:
252,222,200368,1,0,0:0:0:0:
250,221,200534,1,0,0:0:0:0:
251,205,200618,1,0,0:0:0:0:
253,222,200701,1,8,0:0:0:0:
260,212,200784,1,0,0:0:0:0:
250,221,200868,1,8,0:0:0:0:
255,208,201034,1,8,0:0:0:0:
261,211,201118,1,0,0:0:0:0:
263,213,201201,1,8,0:0:0:0:
251,209,201284,1,8,0:0:0:0:
261,213,201368,1,0,0:0:0:0:
260,212,201534,1,0,0:0:0:0:
261,210,201618,1,0,0:0:0:0:
255,205,201701,1,8,0:0:0:0:
255,209,201784,1,0,0:0:0:0:
259,201,201868,1,8,0:0:0:0:
255,208,202034,1,8,0:0:0:0:
261,211,202118,1,0,0:0:0:0:
261,207,202201,1,8,0:0:0:0:
255,205,202284,1,8,0:0:0:0:
263,213,202368,1,0,0:0:0:0:
261,213,202451,1,0,0:0:0:0:
255,205,202534,1,8,0:0:0:0:
261,204,202618,1,8,0:0:0:0:
259,201,202701,1,0,0:0:0:0:
260,212,202784,1,0,0:0:0:0:
256,192,202868,1,12,0:0:0:0:
261,206,203034,1,0,0:0:0:0:
259,197,203201,1,4,0:0:0:0:
259,197,203368,1,0,0:0:0:0:
259,197,203451,1,0,0:0:0:0:
259,197,203534,1,8,0:0:0:0:
251,189,203701,1,0,0:0:0:0:
252,184,203784,1,0,0:0:0:0:
251,191,203868,1,8,0:0:0:0:
251,189,203951,1,8,0:0:0:0:
251,191,204034,1,0,0:0:0:0:
251,189,204201,1,8,0:0:0:0:
251,189,204368,1,8,0:0:0:0:
251,189,204451,1,0,0:0:0:0:
251,189,204534,1,8,0:0:0:0:
251,191,204701,1,0,0:0:0:0:
251,191,204868,1,8,0:0:0:0:
251,189,205201,1,0,0:0:0:0:
251,189,205368,1,0,0:0:0:0:
251,189,205451,1,8,0:0:0:0:
251,189,205534,1,0,0:0:0:0:
251,191,205701,1,8,0:0:0:0:
251,191,205868,1,0,0:0:0:0:
256,195,206034,1,8,0:0:0:0:
256,195,206118,1,8,0:0:0:0:
260,191,206201,1,0,0:0:0:0:
253,199,206368,1,8,0:0:0:0:
253,199,206534,1,0,0:0:0:0:
252,199,206618,1,0,0:0:0:0:
251,191,206701,1,8,0:0:0:0:
251,191,206784,1,8,0:0:0:0:
251,191,206868,1,0,0:0:0:0:
252,199,207034,1,8,0:0:0:0:
256,195,207201,1,0,0:0:0:0:
253,199,207534,1,8,0:0:0:0:
257,197,207701,1,8,0:0:0:0:
251,201,207868,1,0,0:0:0:0:
260,205,208034,1,8,0:0:0:0:
260,205,208118,1,8,0:0:0:0:
260,205,208201,1,0,0:0:0:0:
260,205,208368,1,0,0:0:0:0:
260,205,208534,1,12,0:0:0:0:
263,208,208701,1,0,0:0:0:0:
251,201,208757,1,0,0:0:0:0:
263,207,208812,1,0,0:0:0:0:
263,207,208868,1,8,0:0:0:0:
260,205,209034,1,4,0:0:0:0:
251,214,209201,1,8,0:0:0:0:
251,214,209284,1,8,0:0:0:0:
260,205,209368,1,0,0:0:0:0:
251,214,209534,1,12,0:0:0:0:
250,221,209701,1,0,0:0:0:0:
251,201,209757,1,0,0:0:0:0:
237,203,209812,1,0,0:0:0:0:
253,206,209868,1,8,0:0:0:0:
252,222,210034,1,4,0:0:0:0:
250,221,210201,1,0,0:0:0:0:
250,221,210284,1,0,0:0:0:0:
248,216,210368,1,8,0:0:0:0:
251,214,210451,1,8,0:0:0:0:
250,221,210534,1,4,0:0:0:0:
252,222,210784,1,12,0:0:0:0:
254,223,211034,1,4,0:0:0:0:
250,221,211201,1,8,0:0:0:0:
249,189,211284,1,8,0:0:0:0:
267,217,211368,1,8,0:0:0:0:
268,217,211451,1,8,0:0:0:0:
261,197,211534,1,0,0:0:0:0:
269,219,211618,1,0,0:0:0:0:
250,192,211701,1,8,0:0:0:0:
261,209,211784,1,8,0:0:0:0:
249,189,211868,1,0,0:0:0:0:
247,189,211951,1,0,0:0:0:0:
261,209,212034,1,8,0:0:0:0:
249,189,212118,1,0,0:0:0:0:
251,198,212201,1,8,0:0:0:0:
251,202,212368,1,0,0:0:0:0:
267,217,212534,1,12,0:0:0:0:
263,220,212868,1,8,0:0:0:0:
263,223,213034,5,0,0:0:0:0:
263,223,213368,1,0,0:0:0:0:
265,225,213534,1,12,0:0:0:0:
258,193,213868,1,4,0:0:0:0:
261,191,214201,1,8,0:0:0:0:
258,193,214368,1,0,0:0:0:0:
258,193,214534,1,0,0:0:0:0:
258,193,214701,1,8,0:0:0:0:
258,193,214868,1,8,0:0:0:0:
261,191,215034,1,0,0:0:0:0:
261,191,215201,1,8,0:0:0:0:
258,193,215368,1,0,0:0:0:0:
248,195,215534,1,0,0:0:0:0:
258,205,215701,1,8,0:0:0:0:
258,193,215868,1,0,0:0:0:0:
261,191,216034,1,0,0:0:0:0:
255,199,216201,1,8,0:0:0:0:
258,193,216368,1,8,0:0:0:0:
248,195,216534,1,0,0:0:0:0:
255,199,216868,1,8,0:0:0:0:
261,191,217034,1,0,0:0:0:0:
255,199,217201,1,0,0:0:0:0:
255,199,217368,1,8,0:0:0:0:
248,195,217534,1,0,0:0:0:0:
258,205,217701,1,8,0:0:0:0:
265,202,217868,1,8,0:0:0:0:
261,191,218034,1,0,0:0:0:0:
255,199,218201,1,0,0:0:0:0:
253,208,218368,1,8,0:0:0:0:
248,195,218534,1,0,0:0:0:0:
258,205,218701,1,8,0:0:0:0:
253,207,218868,1,8,0:0:0:0:
253,208,219034,1,0,0:0:0:0:
255,199,219201,1,0,0:0:0:0:
253,207,219534,1,8,0:0:0:0:
253,207,219701,1,0,0:0:0:0:
253,207,219868,1,8,0:0:0:0:
253,208,220034,1,0,0:0:0:0:
255,199,220201,1,8,0:0:0:0:
253,208,220368,1,8,0:0:0:0:
253,207,220534,1,0,0:0:0:0:
253,208,220701,1,0,0:0:0:0:
253,208,220868,1,8,0:0:0:0:
241,199,221034,1,8,0:0:0:0:
253,207,221201,1,0,0:0:0:0:
253,207,221368,1,8,0:0:0:0:
245,200,221534,1,0,0:0:0:0:
253,208,221701,1,0,0:0:0:0:
229,129,221868,1,8,0:0:0:0:
233,197,222201,1,8,0:0:0:0:
253,207,222368,1,0,0:0:0:0:
245,200,222534,1,0,0:0:0:0:
236,190,222701,1,8,0:0:0:0:
241,199,222868,1,0,0:0:0:0:
241,199,223034,1,0,0:0:0:0:
219,193,223201,1,8,0:0:0:0:
245,200,223368,1,8,0:0:0:0:
245,200,223534,1,0,0:0:0:0:
219,193,223701,1,8,0:0:0:0:
241,199,223868,1,0,0:0:0:0:
219,193,224034,1,0,0:0:0:0:
248,200,224201,1,8,0:0:0:0:
249,200,224368,1,8,0:0:0:0:
249,200,224451,1,8,0:0:0:0:
249,200,224534,1,8,0:0:0:0:
243,197,224868,5,0,0:0:0:0:
243,197,225201,5,0,0:0:0:0:
243,197,225534,5,0,0:0:0:0:
243,197,225868,5,0,0:0:0:0:
243,197,226201,5,0,0:0:0:0:
243,197,226534,5,0,0:0:0:0:
243,197,226868,5,0,0:0:0:0:
243,197,227201,5,0,0:0:0:0:
243,197,227534,5,0,0:0:0:0:
243,197,227868,5,0,0:0:0:0:
243,197,228201,5,0,0:0:0:0:
243,197,228534,5,0,0:0:0:0:
243,197,228868,5,0,0:0:0:0:
243,197,229201,5,0,0:0:0:0:
243,197,229534,5,0,0:0:0:0:
243,197,229701,5,0,0:0:0:0:
243,197,229868,5,12,0:0:0:0:
243,197,230034,5,0,0:0:0:0:
243,197,230201,5,8,0:0:0:0:
243,197,230368,5,0,0:0:0:0:
243,197,230534,5,8,0:0:0:0:
243,197,230701,5,0,0:0:0:0:
243,197,230868,5,8,0:0:0:0:
243,197,231034,5,0,0:0:0:0:
243,197,231201,5,12,0:0:0:0:
243,197,231368,5,0,0:0:0:0:
243,197,231534,5,8,0:0:0:0:
243,197,231701,5,0,0:0:0:0:
243,197,231868,5,8,0:0:0:0:
243,197,232034,5,0,0:0:0:0:
243,197,232201,5,8,0:0:0:0:
243,197,232368,5,0,0:0:0:0:
254,199,232534,5,0,0:0:0:0:
252,196,232618,1,0,0:0:0:0:
252,197,232701,1,8,0:0:0:0:
252,196,232784,1,0,0:0:0:0:
254,199,232868,1,8,0:0:0:0:
252,197,232951,1,0,0:0:0:0:
254,199,233034,1,8,0:0:0:0:
252,197,233118,1,8,0:0:0:0:
252,196,233201,1,0,0:0:0:0:
250,196,233284,1,0,0:0:0:0:
247,187,233368,1,8,0:0:0:0:
254,199,233423,1,8,0:0:0:0:
254,199,233479,1,8,0:0:0:0:
252,197,233534,1,0,0:0:0:0:
254,199,233618,1,0,0:0:0:0:
252,196,233701,1,8,0:0:0:0:
254,199,233757,1,0,0:0:0:0:
254,199,233812,1,0,0:0:0:0:
257,195,233868,1,8,0:0:0:0:
256,192,234034,12,0,234534,0:0:0:0:
252,197,234701,5,8,0:0:0:0:
254,199,234784,1,0,0:0:0:0:
256,193,234868,1,8,0:0:0:0:
258,193,235201,1,12,0:0:0:0:
265,193,235367,1,0,0:0:0:0:
258,193,235534,1,0,0:0:0:0:
258,193,235617,1,0,0:0:0:0:
258,193,235701,1,8,0:0:0:0:
265,193,235867,1,8,0:0:0:0:
258,193,236034,1,0,0:0:0:0:
258,193,236201,1,8,0:0:0:0:
265,193,236284,1,0,0:0:0:0:
258,193,236367,1,0,0:0:0:0:
265,193,236451,1,8,0:0:0:0:
265,193,236534,1,8,0:0:0:0:
258,193,236701,1,8,0:0:0:0:
254,190,236867,1,0,0:0:0:0:
258,193,237034,1,8,0:0:0:0:
254,190,237118,1,8,0:0:0:0:
258,193,237201,1,0,0:0:0:0:
258,193,237367,1,0,0:0:0:0:
254,190,237534,1,8,0:0:0:0:
259,189,237867,1,0,0:0:0:0:
258,193,238034,1,8,0:0:0:0:
258,193,238117,1,8,0:0:0:0:
258,193,238201,1,0,0:0:0:0:
258,193,238367,1,0,0:0:0:0:
254,190,238534,1,8,0:0:0:0:
258,193,238701,1,8,0:0:0:0:
259,189,238867,1,0,0:0:0:0:
248,192,238951,1,8,0:0:0:0:
250,192,239034,1,8,0:0:0:0:
250,192,239201,1,8,0:0:0:0:
254,182,239367,1,0,0:0:0:0:
254,184,239534,1,0,0:0:0:0:
256,203,239617,1,0,0:0:0:0:
254,184,239701,1,8,0:0:0:0:
254,184,239867,1,8,0:0:0:0:
256,203,240034,1,0,0:0:0:0:
254,184,240201,1,8,0:0:0:0:
256,203,240534,1,0,0:0:0:0:
256,203,240701,1,8,0:0:0:0:
256,203,240867,1,8,0:0:0:0:
256,203,241034,1,0,0:0:0:0:
254,184,241117,1,0,0:0:0:0:
256,203,241201,1,8,0:0:0:0:
256,203,241367,1,8,0:0:0:0:
256,203,241534,1,8,0:0:0:0:
261,197,241618,1,8,0:0:0:0:
256,203,241701,1,0,0:0:0:0:
256,203,241867,1,0,0:0:0:0:
256,203,242034,1,0,0:0:0:0:
256,203,242117,1,8,0:0:0:0:
256,203,242201,1,8,0:0:0:0:
259,193,242284,1,0,0:0:0:0:
256,203,242367,1,0,0:0:0:0:
256,203,242534,1,8,0:0:0:0:
259,197,242701,1,0,0:0:0:0:
258,195,242867,1,8,0:0:0:0:
256,195,243201,1,8,0:0:0:0:
256,195,243367,1,0,0:0:0:0:
259,195,243451,1,0,0:0:0:0:
254,197,243534,1,8,0:0:0:0:
254,197,243701,1,8,0:0:0:0:
258,195,243867,1,8,0:0:0:0:
258,195,243951,1,0,0:0:0:0:
256,195,244034,1,0,0:0:0:0:
256,195,244201,1,8,0:0:0:0:
256,195,244367,1,0,0:0:0:0:
254,197,244451,1,8,0:0:0:0:
254,197,244534,1,0,0:0:0:0:
258,195,244784,1,0,0:0:0:0:
258,195,244867,1,8,0:0:0:0:
256,195,245034,1,0,0:0:0:0:
256,195,245201,1,8,0:0:0:0:
258,189,245284,1,8,0:0:0:0:
254,197,245367,1,0,0:0:0:0:
254,197,245451,1,0,0:0:0:0:
254,197,245534,1,8,0:0:0:0:
259,195,245617,1,8,0:0:0:0:
259,195,245701,1,8,0:0:0:0:
245,194,245784,1,0,0:0:0:0:
258,193,245867,1,12,0:0:0:0:
265,193,246034,1,0,0:0:0:0:
258,193,246201,1,0,0:0:0:0:
258,193,246284,1,0,0:0:0:0:
258,193,246367,1,8,0:0:0:0:
265,193,246534,1,8,0:0:0:0:
258,193,246701,1,0,0:0:0:0:
258,193,246867,1,8,0:0:0:0:
265,193,246951,1,0,0:0:0:0:
258,193,247034,1,0,0:0:0:0:
265,193,247117,1,8,0:0:0:0:
265,193,247201,1,8,0:0:0:0:
258,193,247367,1,0,0:0:0:0:
258,193,247534,1,8,0:0:0:0:
258,193,247701,1,0,0:0:0:0:
258,193,247784,1,0,0:0:0:0:
258,193,247867,1,8,0:0:0:0:
258,193,248034,1,0,0:0:0:0:
254,190,248201,1,8,0:0:0:0:
259,189,248534,1,8,0:0:0:0:
258,193,248701,1,0,0:0:0:0:
258,193,248784,1,8,0:0:0:0:
258,193,248867,1,8,0:0:0:0:
258,193,249034,1,8,0:0:0:0:
254,190,249201,1,0,0:0:0:0:
258,193,249367,1,8,0:0:0:0:
254,190,249451,1,8,0:0:0:0:
259,189,249534,1,0,0:0:0:0:
250,192,249701,1,0,0:0:0:0:
250,192,249867,1,8,0:0:0:0:
254,184,250034,5,0,0:0:0:0:
256,203,250117,1,0,0:0:0:0:
254,184,250200,1,8,0:0:0:0:
254,182,250284,1,8,0:0:0:0:
254,182,250367,1,0,0:0:0:0:
254,184,250534,1,8,0:0:0:0:
256,203,250701,1,8,0:0:0:0:
250,192,250867,1,0,0:0:0:0:
254,184,251034,1,8,0:0:0:0:
256,203,251118,1,0,0:0:0:0:
261,197,251201,1,0,0:0:0:0:
263,197,251284,5,8,0:0:0:0:
263,197,251367,1,8,0:0:0:0:
263,197,251451,1,0,0:0:0:0:
263,197,251534,1,8,0:0:0:0:
256,203,251617,1,0,0:0:0:0:
263,197,251701,1,0,0:0:0:0:
263,197,251784,1,8,0:0:0:0:
263,197,251867,1,0,0:0:0:0:
261,197,251951,1,0,0:0:0:0:
261,197,252034,1,8,0:0:0:0:
263,197,252117,1,0,0:0:0:0:
263,197,252201,1,8,0:0:0:0:
263,197,252284,1,8,0:0:0:0:
263,197,252367,1,0,0:0:0:0:
263,197,252451,1,0,0:0:0:0:
263,197,252534,1,8,0:0:0:0:
263,197,252617,1,0,0:0:0:0:
263,197,252701,1,8,0:0:0:0:
263,197,252784,1,8,0:0:0:0:
261,197,252867,1,0,0:0:0:0:
263,197,252951,1,0,0:0:0:0:
263,197,253034,1,8,0:0:0:0:
263,197,253117,1,8,0:0:0:0:
263,197,253201,1,8,0:0:0:0:
261,197,253284,1,0,0:0:0:0:
263,197,253367,1,8,0:0:0:0:
263,197,253451,1,8,0:0:0:0:
263,197,253534,1,0,0:0:0:0:
263,197,253617,1,0,0:0:0:0:
242,167,253701,1,8,0:0:0:0:
261,197,253867,1,4,0:0:0:0:
255,190,254034,5,8,0:0:0:0:
255,190,254118,1,8,0:0:0:0:
255,190,254201,1,0,0:0:0:0:
255,190,254367,1,0,0:0:0:0:
255,190,254451,1,0,0:0:0:0:
255,190,254534,1,12,0:0:0:0:
250,190,254701,1,0,0:0:0:0:
250,190,254867,1,8,0:0:0:0:
255,190,255034,1,8,0:0:0:0:
256,192,255201,12,0,255868,0:0:0:0:
255,190,256034,5,0,0:0:0:0:
266,194,256201,1,12,0:0:0:0:
274,193,256534,1,4,0:0:0:0:
274,193,256868,1,0,0:0:0:0:
266,194,257201,1,8,0:0:0:0:
266,192,257368,1,0,0:0:0:0:
280,189,257701,1,8,0:0:0:0:
280,189,258534,1,0,0:0:0:0:
270,190,258701,1,8,0:0:0:0:
250,189,258868,1,8,0:0:0:0:
266,185,259201,1,8,0:0:0:0:
295,175,259534,1,0,0:0:0:0:
283,197,259868,1,8,0:0:0:0:
285,197,260034,1,0,0:0:0:0:
276,186,260368,1,8,0:0:0:0:
276,186,261534,1,0,0:0:0:0:
276,186,261868,1,8,0:0:0:0:
276,186,262868,1,8,0:0:0:0:
276,186,263534,1,8,0:0:0:0:
272,193,263868,1,0,0:0:0:0:
276,186,264201,1,0,0:0:0:0:
266,202,264534,1,8,0:0:0:0:
261,196,265034,1,0,0:0:0:0:
261,196,265534,1,8,0:0:0:0:
256,192,265701,12,0,267034,0:0:0:0:
259,199,267201,5,4,0:0:0:0:
247,186,269701,1,0,0:0:0:0:
247,186,269868,1,0,0:0:0:0:
260,199,271201,1,0,0:0:0:0:
250,193,271868,1,0,0:0:0:0:
250,191,272201,1,0,0:0:0:0:
250,193,272368,1,0,0:0:0:0:
250,193,272534,5,8,0:0:0:0:
238,187,272618,1,8,0:0:0:0:
239,187,272701,1,0,0:0:0:0:
250,193,272784,1,0,0:0:0:0:
238,187,272868,1,8,0:0:0:0:
239,187,272951,1,0,0:0:0:0:
250,193,273034,1,8,0:0:0:0:
259,198,273118,1,8,0:0:0:0:
239,187,273201,1,0,0:0:0:0:
250,193,273284,1,0,0:0:0:0:
238,187,273368,1,8,0:0:0:0:
239,187,273451,1,8,0:0:0:0:
250,193,273534,1,0,0:0:0:0:
238,187,273618,1,8,0:0:0:0:
239,187,273701,1,0,0:0:0:0:
250,193,273784,1,0,0:0:0:0:
246,187,273868,1,8,0:0:0:0:
239,187,273951,1,0,0:0:0:0:
250,193,274034,1,8,0:0:0:0:
250,193,274118,1,8,0:0:0:0:
238,187,274201,1,0,0:0:0:0:
239,187,274284,1,0,0:0:0:0:
250,193,274368,1,8,0:0:0:0:
238,187,274451,1,8,0:0:0:0:
239,187,274534,1,4,0:0:0:0:
246,187,274868,1,12,0:0:0:0:
245,187,275201,1,4,0:0:0:0:
250,193,275368,1,4,0:0:0:0:
241,179,275701,1,12,0:0:0:0:
241,179,275868,1,12,0:0:0:0:
251,176,276201,1,4,0:0:0:0:
257,174,276368,1,4,0:0:0:0:
256,192,276868,12,0,278368,0:0:0:0:
259,197,278534,5,4,0:0:0:0:
251,197,278701,1,4,0:0:0:0:
252,198,279034,1,4,0:0:0:0:
259,197,279534,1,12,0:0:0:0:
251,191,279701,1,0,0:0:0:0:
251,189,279784,1,0,0:0:0:0:
251,191,279867,1,8,0:0:0:0:
252,184,279951,1,0,0:0:0:0:
251,189,280034,1,8,0:0:0:0:
251,189,280201,1,0,0:0:0:0:
251,189,280367,1,0,0:0:0:0:
251,189,280451,1,0,0:0:0:0:
251,189,280534,1,8,0:0:0:0:
251,191,280701,1,0,0:0:0:0:
251,191,280867,1,8,0:0:0:0:
251,189,281201,1,8,0:0:0:0:
251,189,281367,1,0,0:0:0:0:
251,189,281451,1,0,0:0:0:0:
251,189,281534,1,8,0:0:0:0:
251,191,281701,1,0,0:0:0:0:
251,191,281867,1,8,0:0:0:0:
260,191,282034,1,8,0:0:0:0:
256,195,282117,1,0,0:0:0:0:
256,195,282201,1,8,0:0:0:0:
253,199,282367,1,0,0:0:0:0:
253,199,282534,1,0,0:0:0:0:
252,199,282617,1,0,0:0:0:0:
251,191,282701,1,8,0:0:0:0:
251,191,282867,1,0,0:0:0:0:
256,195,283034,1,8,0:0:0:0:
253,199,283117,1,8,0:0:0:0:
252,199,283201,1,0,0:0:0:0:
253,199,283367,1,0,0:0:0:0:
253,199,283534,1,8,0:0:0:0:
251,201,283867,1,8,0:0:0:0:
260,205,284034,1,8,0:0:0:0:
260,205,284118,1,8,0:0:0:0:
260,205,284201,1,0,0:0:0:0:
260,205,284367,1,0,0:0:0:0:
260,205,284534,1,8,0:0:0:0:
263,208,284701,1,0,0:0:0:0:
263,207,284784,1,8,0:0:0:0:
263,207,284867,1,8,0:0:0:0:
260,205,284951,1,0,0:0:0:0:
260,205,285034,1,0,0:0:0:0:
251,214,285201,1,8,0:0:0:0:
251,214,285367,1,0,0:0:0:0:
251,214,285534,1,8,0:0:0:0:
251,206,285617,1,8,0:0:0:0:
250,221,285701,1,0,0:0:0:0:
253,206,285867,1,0,0:0:0:0:
252,222,286034,1,8,0:0:0:0:
253,222,286117,1,0,0:0:0:0:
250,221,286201,1,8,0:0:0:0:
250,221,286367,1,0,0:0:0:0:
250,221,286534,1,0,0:0:0:0:
254,223,286618,1,0,0:0:0:0:
250,221,286701,1,8,0:0:0:0:
254,223,286867,1,8,0:0:0:0:
252,222,287034,1,8,0:0:0:0:
253,222,287117,1,0,0:0:0:0:
250,221,287201,1,12,0:0:0:0:
250,221,287534,1,0,0:0:0:0:
254,223,287867,1,0,0:0:0:0:
252,222,287951,1,0,0:0:0:0:
252,222,288034,1,0,0:0:0:0:
250,221,288201,1,0,0:0:0:0:
250,221,288367,1,12,0:0:0:0:
248,215,288701,1,0,0:0:0:0:
254,223,288784,1,0,0:0:0:0:
254,223,288867,1,8,0:0:0:0:
257,227,289034,1,0,0:0:0:0:
248,215,289117,1,0,0:0:0:0:
254,223,289201,1,8,0:0:0:0:
248,215,289284,1,0,0:0:0:0:
254,223,289367,1,8,0:0:0:0:
254,223,289451,1,0,0:0:0:0:
254,223,289534,1,8,0:0:0:0:
248,215,289617,1,8,0:0:0:0:
254,223,289701,1,8,0:0:0:0:
254,223,289784,1,8,0:0:0:0:
259,197,289867,1,4,0:0:0:0:
259,197,290034,1,0,0:0:0:0:
259,197,290201,1,8,0:0:0:0:
251,191,290367,1,0,0:0:0:0:
251,189,290451,1,8,0:0:0:0:
251,191,290534,1,8,0:0:0:0:
252,184,290617,1,0,0:0:0:0:
251,189,290701,1,8,0:0:0:0:
251,189,290867,1,0,0:0:0:0:
251,189,291034,1,8,0:0:0:0:
251,189,291117,1,8,0:0:0:0:
251,189,291201,1,0,0:0:0:0:
251,191,291367,1,0,0:0:0:0:
251,191,291534,1,8,0:0:0:0:
251,189,291867,1,0,0:0:0:0:
251,189,292034,1,8,0:0:0:0:
251,189,292117,1,0,0:0:0:0:
251,189,292201,1,8,0:0:0:0:
251,191,292367,1,0,0:0:0:0:
251,191,292534,1,8,0:0:0:0:
260,191,292701,1,0,0:0:0:0:
256,195,292784,1,0,0:0:0:0:
256,195,292867,1,8,0:0:0:0:
253,199,293034,1,0,0:0:0:0:
253,199,293201,1,8,0:0:0:0:
252,199,293284,1,0,0:0:0:0:
251,191,293367,1,8,0:0:0:0:
251,191,293451,1,8,0:0:0:0:
251,191,293534,1,0,0:0:0:0:
252,199,293701,1,0,0:0:0:0:
256,195,293867,1,8,0:0:0:0:
253,199,294201,1,0,0:0:0:0:
257,197,294367,1,8,0:0:0:0:
251,201,294534,1,0,0:0:0:0:
260,205,294701,1,8,0:0:0:0:
260,205,294784,1,8,0:0:0:0:
260,205,294867,1,0,0:0:0:0:
260,205,295034,1,0,0:0:0:0:
260,205,295201,1,12,0:0:0:0:
263,208,295367,1,0,0:0:0:0:
263,207,295451,1,0,0:0:0:0:
263,207,295534,1,8,0:0:0:0:
260,205,295617,1,8,0:0:0:0:
260,205,295701,1,0,0:0:0:0:
251,214,295867,1,8,0:0:0:0:
251,214,296034,1,0,0:0:0:0:
251,206,296117,1,0,0:0:0:0:
251,214,296201,1,8,0:0:0:0:
250,221,296367,1,0,0:0:0:0:
253,206,296534,1,12,0:0:0:0:
250,221,296867,1,0,0:0:0:0:
250,221,297034,1,8,0:0:0:0:
250,221,297201,1,0,0:0:0:0:
250,221,297367,1,0,0:0:0:0:
254,223,297451,1,0,0:0:0:0:
254,223,297534,1,8,0:0:0:0:
252,222,297701,1,0,0:0:0:0:
250,221,297867,1,8,0:0:0:0:
250,221,297951,1,8,0:0:0:0:
253,222,298034,1,0,0:0:0:0:
260,212,298117,1,0,0:0:0:0:
251,205,298201,1,8,0:0:0:0:
255,208,298367,1,0,0:0:0:0:
261,211,298451,1,0,0:0:0:0:
263,213,298534,1,8,0:0:0:0:
251,209,298617,1,8,0:0:0:0:
261,213,298701,1,0,0:0:0:0:
255,205,298867,1,8,0:0:0:0:
259,201,298951,1,8,0:0:0:0:
255,209,299034,1,0,0:0:0:0:
260,212,299117,1,0,0:0:0:0:
261,210,299201,1,8,0:0:0:0:
255,208,299367,1,0,0:0:0:0:
261,207,299450,1,0,0:0:0:0:
263,213,299533,1,8,0:0:0:0:
269,208,299617,1,8,0:0:0:0:
261,213,299700,1,0,0:0:0:0:
261,204,299783,1,8,0:0:0:0:
255,205,299867,1,8,0:0:0:0:
255,205,299950,1,0,0:0:0:0:
259,201,300033,1,0,0:0:0:0:
260,212,300117,1,0,0:0:0:0:
261,202,300200,1,12,0:0:0:0:
261,200,300367,1,0,0:0:0:0:
259,197,300534,1,4,0:0:0:0:
259,197,300701,1,0,0:0:0:0:
259,197,300784,1,0,0:0:0:0:
259,197,300867,1,8,0:0:0:0:
251,191,301034,1,0,0:0:0:0:
251,191,301201,1,8,0:0:0:0:
252,184,301284,1,0,0:0:0:0:
251,189,301367,1,8,0:0:0:0:
251,189,301534,1,0,0:0:0:0:
251,189,301701,1,0,0:0:0:0:
251,189,301784,1,8,0:0:0:0:
251,189,301867,1,0,0:0:0:0:
251,191,302034,1,0,0:0:0:0:
251,191,302201,1,8,0:0:0:0:
251,189,302534,1,0,0:0:0:0:
251,189,302701,1,8,0:0:0:0:
251,189,302784,1,0,0:0:0:0:
251,189,302867,1,8,0:0:0:0:
251,191,303034,1,8,0:0:0:0:
251,191,303201,1,0,0:0:0:0:
260,191,303367,1,0,0:0:0:0:
256,195,303451,1,0,0:0:0:0:
256,195,303534,1,8,0:0:0:0:
253,199,303701,1,8,0:0:0:0:
253,199,303867,1,0,0:0:0:0:
252,199,303951,1,0,0:0:0:0:
251,191,304034,1,8,0:0:0:0:
251,191,304117,1,8,0:0:0:0:
251,191,304201,1,0,0:0:0:0:
252,199,304367,1,8,0:0:0:0:
256,195,304534,1,0,0:0:0:0:
253,199,304867,1,8,0:0:0:0:
257,197,305034,1,8,0:0:0:0:
251,201,305201,1,0,0:0:0:0:
260,205,305367,1,8,0:0:0:0:
260,205,305451,1,0,0:0:0:0:
260,205,305534,1,8,0:0:0:0:
260,205,305701,1,0,0:0:0:0:
260,205,305867,1,12,0:0:0:0:
263,208,306034,1,0,0:0:0:0:
251,201,306090,1,0,0:0:0:0:
263,207,306146,1,0,0:0:0:0:
263,207,306201,1,8,0:0:0:0:
260,205,306367,1,4,0:0:0:0:
251,214,306534,1,8,0:0:0:0:
260,205,306617,1,8,0:0:0:0:
251,214,306701,1,0,0:0:0:0:
251,214,306867,1,12,0:0:0:0:
250,221,307034,1,0,0:0:0:0:
251,201,307090,1,0,0:0:0:0:
253,206,307146,1,0,0:0:0:0:
237,203,307201,1,8,0:0:0:0:
252,222,307367,1,4,0:0:0:0:
250,221,307534,1,8,0:0:0:0:
248,216,307617,1,8,0:0:0:0:
250,221,307701,1,0,0:0:0:0:
251,214,307784,1,0,0:0:0:0:
254,223,307867,1,12,0:0:0:0:
250,221,308117,1,4,0:0:0:0:
252,222,308367,1,12,0:0:0:0:
250,221,308534,1,0,0:0:0:0:
249,189,308617,1,0,0:0:0:0:
267,217,308701,1,8,0:0:0:0:
268,217,308784,1,8,0:0:0:0:
261,197,308867,1,0,0:0:0:0:
269,219,308951,1,8,0:0:0:0:
250,192,309034,1,0,0:0:0:0:
261,209,309117,1,0,0:0:0:0:
247,189,309201,1,8,0:0:0:0:
249,189,309284,1,8,0:0:0:0:
261,209,309367,1,0,0:0:0:0:
249,189,309451,1,8,0:0:0:0:
251,198,309534,1,0,0:0:0:0:
267,217,309701,1,0,0:0:0:0:
251,202,309867,1,12,0:0:0:0:
263,220,310201,5,8,0:0:0:0:
263,223,310367,1,0,0:0:0:0:
263,223,310701,1,0,0:0:0:0:
265,225,310867,1,12,0:0:0:0:
258,193,311201,1,4,0:0:0:0:
265,193,311367,1,8,0:0:0:0:
258,193,311534,1,0,0:0:0:0:
258,193,311617,1,0,0:0:0:0:
258,193,311701,1,8,0:0:0:0:
265,193,311867,1,0,0:0:0:0:
258,193,312034,1,0,0:0:0:0:
258,193,312201,1,8,0:0:0:0:
258,193,312284,1,8,0:0:0:0:
258,193,312367,1,0,0:0:0:0:
265,193,312451,1,0,0:0:0:0:
265,193,312534,1,8,0:0:0:0:
265,193,312701,1,0,0:0:0:0:
254,190,312867,1,8,0:0:0:0:
258,193,313034,1,0,0:0:0:0:
258,193,313117,1,0,0:0:0:0:
258,193,313201,1,8,0:0:0:0:
254,190,313367,1,0,0:0:0:0:
254,190,313534,1,8,0:0:0:0:
258,193,313867,1,0,0:0:0:0:
259,189,314034,1,0,0:0:0:0:
258,193,314118,1,0,0:0:0:0:
258,193,314201,1,8,0:0:0:0:
254,190,314367,1,8,0:0:0:0:
254,190,314534,1,0,0:0:0:0:
250,192,314701,1,8,0:0:0:0:
248,192,314784,1,8,0:0:0:0:
250,192,314867,1,0,0:0:0:0:
254,182,314951,1,0,0:0:0:0:
258,193,315034,1,8,0:0:0:0:
259,189,315201,1,8,0:0:0:0:
254,182,315367,1,0,0:0:0:0:
254,184,315534,1,0,0:0:0:0:
256,203,315617,1,0,0:0:0:0:
254,184,315701,1,8,0:0:0:0:
254,184,315867,1,8,0:0:0:0:
256,203,316034,1,0,0:0:0:0:
254,184,316201,1,8,0:0:0:0:
256,203,316534,1,0,0:0:0:0:
256,203,316701,1,8,0:0:0:0:
256,203,316867,1,8,0:0:0:0:
256,203,317034,1,0,0:0:0:0:
256,203,317117,1,0,0:0:0:0:
256,203,317201,1,8,0:0:0:0:
256,203,317367,1,8,0:0:0:0:
256,203,317534,1,8,0:0:0:0:
261,197,317618,1,8,0:0:0:0:
256,203,317701,1,0,0:0:0:0:
256,203,317867,1,0,0:0:0:0:
256,203,318034,1,0,0:0:0:0:
256,203,318117,1,0,0:0:0:0:
256,203,318201,1,8,0:0:0:0:
259,193,318284,1,8,0:0:0:0:
256,203,318367,1,0,0:0:0:0:
256,203,318534,1,8,0:0:0:0:
259,197,318701,1,0,0:0:0:0:
258,195,318867,1,8,0:0:0:0:
256,195,319201,1,8,0:0:0:0:
256,195,319367,1,0,0:0:0:0:
259,195,319451,1,0,0:0:0:0:
254,197,319534,1,8,0:0:0:0:
254,197,319701,1,8,0:0:0:0:
258,195,319867,1,8,0:0:0:0:
258,195,319951,1,0,0:0:0:0:
256,195,320034,1,0,0:0:0:0:
256,195,320201,1,8,0:0:0:0:
256,195,320367,1,0,0:0:0:0:
254,197,320451,1,8,0:0:0:0:
254,197,320534,1,0,0:0:0:0:
254,204,320784,1,0,0:0:0:0:
258,195,320867,1,8,0:0:0:0:
256,195,321034,1,0,0:0:0:0:
256,195,321201,1,0,0:0:0:0:
254,197,321284,1,0,0:0:0:0:
254,197,321367,1,8,0:0:0:0:
254,197,321451,1,8,0:0:0:0:
254,197,321534,1,0,0:0:0:0:
259,195,321617,1,0,0:0:0:0:
259,195,321701,1,8,0:0:0:0:
245,194,321784,1,8,0:0:0:0:
258,193,321867,1,4,0:0:0:0:
265,193,322034,1,8,0:0:0:0:
258,193,322201,1,8,0:0:0:0:
258,193,322284,1,0,0:0:0:0:
258,193,322367,1,8,0:0:0:0:
265,193,322534,1,8,0:0:0:0:
258,193,322701,1,0,0:0:0:0:
265,193,322867,1,8,0:0:0:0:
265,193,322951,1,8,0:0:0:0:
258,193,323034,1,0,0:0:0:0:
265,193,323117,1,0,0:0:0:0:
258,193,323201,1,8,0:0:0:0:
254,190,323367,1,0,0:0:0:0:
258,193,323534,1,8,0:0:0:0:
258,193,323701,1,0,0:0:0:0:
265,193,323784,1,0,0:0:0:0:
258,193,323867,1,8,0:0:0:0:
258,193,324034,1,0,0:0:0:0:
254,190,324201,1,8,0:0:0:0:
258,193,324534,1,8,0:0:0:0:
258,193,324701,1,8,0:0:0:0:
258,193,324784,1,8,0:0:0:0:
259,189,324867,1,0,0:0:0:0:
254,190,325034,1,0,0:0:0:0:
254,190,325201,1,8,0:0:0:0:
258,193,325367,1,0,0:0:0:0:
248,192,325451,1,8,0:0:0:0:
250,192,325534,1,8,0:0:0:0:
250,192,325701,1,8,0:0:0:0:
259,189,325867,1,0,0:0:0:0:
254,184,326034,5,8,0:0:0:0:
254,184,326117,1,8,0:0:0:0:
254,182,326201,1,0,0:0:0:0:
254,182,326284,1,0,0:0:0:0:
256,203,326367,1,8,0:0:0:0:
254,184,326534,1,0,0:0:0:0:
254,184,326701,1,0,0:0:0:0:
256,203,326867,1,8,0:0:0:0:
259,189,327034,1,0,0:0:0:0:
254,184,327118,1,0,0:0:0:0:
261,197,327201,1,8,0:0:0:0:
263,197,327284,5,0,0:0:0:0:
263,197,327367,1,8,0:0:0:0:
263,197,327451,1,8,0:0:0:0:
263,197,327534,1,0,0:0:0:0:
261,197,327617,1,0,0:0:0:0:
263,197,327701,1,8,0:0:0:0:
263,197,327784,1,8,0:0:0:0:
263,197,327867,1,0,0:0:0:0:
263,197,327951,1,8,0:0:0:0:
261,197,328034,1,0,0:0:0:0:
263,197,328117,1,0,0:0:0:0:
263,197,328201,1,8,0:0:0:0:
263,197,328284,1,8,0:0:0:0:
263,197,328367,1,0,0:0:0:0:
270,200,328451,1,0,0:0:0:0:
263,197,328534,1,8,0:0:0:0:
263,197,328617,1,8,0:0:0:0:
263,197,328701,1,8,0:0:0:0:
263,197,328784,1,0,0:0:0:0:
261,197,328867,1,0,0:0:0:0:
263,197,328951,1,8,0:0:0:0:
263,197,329034,1,8,0:0:0:0:
263,197,329117,1,8,0:0:0:0:
263,197,329201,1,0,0:0:0:0:
261,197,329284,1,0,0:0:0:0:
263,197,329367,1,8,0:0:0:0:
263,197,329451,1,0,0:0:0:0:
263,197,329534,1,8,0:0:0:0:
263,197,329617,1,8,0:0:0:0:
242,167,329701,1,8,0:0:0:0:
261,197,329867,1,4,0:0:0:0:
255,190,330034,5,8,0:0:0:0:
255,190,330117,1,8,0:0:0:0:
255,190,330201,1,0,0:0:0:0:
255,190,330367,1,0,0:0:0:0:
255,190,330451,1,0,0:0:0:0:
255,190,330534,1,12,0:0:0:0:
250,190,330701,1,0,0:0:0:0:
255,190,330867,1,8,0:0:0:0:
250,190,331034,1,8,0:0:0:0:
256,192,331201,12,0,331868,0:0:0:0:
255,190,332034,5,0,0:0:0:0:
266,194,332201,1,12,0:0:0:0:
261,191,332534,5,4,0:0:0:0:
261,191,332701,1,8,0:0:0:0:
265,206,332868,1,8,0:0:0:0:
262,184,332951,1,8,0:0:0:0:
262,184,333034,1,0,0:0:0:0:
262,184,333201,1,0,0:0:0:0:
262,184,333368,1,8,0:0:0:0:
264,206,333534,1,0,0:0:0:0:
276,210,333618,1,8,0:0:0:0:
264,206,333701,1,8,0:0:0:0:
265,206,333784,1,0,0:0:0:0:
265,206,333868,1,8,0:0:0:0:
265,206,334034,1,0,0:0:0:0:
263,206,334201,1,8,0:0:0:0:
263,206,334368,1,8,0:0:0:0:
264,206,334451,1,0,0:0:0:0:
264,206,334534,1,0,0:0:0:0:
264,206,334701,1,8,0:0:0:0:
265,206,334868,1,0,0:0:0:0:
257,198,335034,1,8,0:0:0:0:
265,206,335118,1,0,0:0:0:0:
258,198,335201,1,0,0:0:0:0:
269,196,335284,1,8,0:0:0:0:
269,196,335368,1,8,0:0:0:0:
264,206,335534,1,0,0:0:0:0:
274,196,335701,1,0,0:0:0:0:
274,196,335784,1,8,0:0:0:0:
274,196,335868,1,0,0:0:0:0:
274,198,336034,1,0,0:0:0:0:
266,196,336201,1,8,0:0:0:0:
269,196,336368,1,8,0:0:0:0:
272,198,336451,1,8,0:0:0:0:
266,196,336534,1,0,0:0:0:0:
266,196,336701,1,8,0:0:0:0:
266,196,336868,1,0,0:0:0:0:
266,196,336951,1,0,0:0:0:0:
274,198,337034,1,8,0:0:0:0:
257,199,337201,1,0,0:0:0:0:
257,199,337368,1,8,0:0:0:0:
257,199,337534,1,8,0:0:0:0:
249,200,337868,1,0,0:0:0:0:
261,209,338034,1,8,0:0:0:0:
259,211,338201,1,0,0:0:0:0:
257,199,338368,1,8,0:0:0:0:
257,199,338451,1,0,0:0:0:0:
257,199,338534,1,0,0:0:0:0:
254,210,338701,1,0,0:0:0:0:
254,206,338868,1,8,0:0:0:0:
254,193,339034,1,0,0:0:0:0:
259,211,339117,1,0,0:0:0:0:
254,206,339201,1,8,0:0:0:0:
259,186,339368,1,0,0:0:0:0:
259,184,339534,1,8,0:0:0:0:
259,184,339701,1,8,0:0:0:0:
259,184,339784,1,8,0:0:0:0:
261,184,339868,1,0,0:0:0:0:
257,186,340034,1,0,0:0:0:0:
259,186,340201,1,8,0:0:0:0:
255,190,340534,1,0,0:0:0:0:
255,190,340701,1,8,0:0:0:0:
255,190,340868,1,8,0:0:0:0:
248,182,341034,1,0,0:0:0:0:
243,182,341118,1,0,0:0:0:0:
245,182,341201,1,8,0:0:0:0:
261,191,341368,5,8,0:0:0:0:
261,191,341534,1,0,0:0:0:0:
261,191,341701,1,8,0:0:0:0:
261,191,341868,1,0,0:0:0:0:
261,191,341951,1,0,0:0:0:0:
268,191,342118,5,0,0:0:0:0:
261,191,342201,1,8,0:0:0:0:
261,191,342284,1,0,0:0:0:0:
261,191,342368,1,8,0:0:0:0:
261,191,342534,1,8,0:0:0:0:
264,197,342618,1,8,0:0:0:0:
261,191,342701,1,0,0:0:0:0:
264,197,342784,1,0,0:0:0:0:
256,181,342868,1,8,0:0:0:0:
270,202,342951,1,8,0:0:0:0:
261,191,343034,1,8,0:0:0:0:
261,191,343118,1,8,0:0:0:0:
262,184,343201,5,4,0:0:0:0:
261,191,343534,1,0,0:0:0:0:
261,191,343701,1,8,0:0:0:0:
265,206,343868,1,0,0:0:0:0:
262,184,343951,1,8,0:0:0:0:
262,184,344034,1,0,0:0:0:0:
262,184,344201,1,0,0:0:0:0:
262,184,344368,1,8,0:0:0:0:
276,210,344451,1,8,0:0:0:0:
264,206,344534,1,0,0:0:0:0:
264,206,344701,1,8,0:0:0:0:
265,206,344868,1,0,0:0:0:0:
264,206,344951,1,0,0:0:0:0:
265,206,345034,1,8,0:0:0:0:
263,206,345201,1,8,0:0:0:0:
263,206,345368,1,0,0:0:0:0:
264,206,345534,1,8,0:0:0:0:
265,206,345868,1,0,0:0:0:0:
257,198,346034,1,8,0:0:0:0:
258,198,346201,1,8,0:0:0:0:
264,206,346368,1,0,0:0:0:0:
269,196,346451,1,0,0:0:0:0:
264,206,346534,1,8,0:0:0:0:
274,196,346701,1,0,0:0:0:0:
274,196,346868,1,8,0:0:0:0:
274,196,346951,1,0,0:0:0:0:
274,198,347034,1,8,0:0:0:0:
266,196,347201,1,8,0:0:0:0:
269,196,347368,1,0,0:0:0:0:
269,196,347451,1,0,0:0:0:0:
266,196,347534,5,8,0:0:0:0:
272,198,347618,1,8,0:0:0:0:
266,196,347701,1,0,0:0:0:0:
266,196,347868,1,8,0:0:0:0:
274,198,348034,1,8,0:0:0:0:
269,196,348201,1,0,0:0:0:0:
274,198,348368,1,8,0:0:0:0:
269,196,348451,1,0,0:0:0:0:
261,197,348534,1,8,0:0:0:0:
263,197,348618,5,0,0:0:0:0:
263,197,348701,1,8,0:0:0:0:
263,197,348784,1,8,0:0:0:0:
263,197,348868,1,0,0:0:0:0:
261,197,348951,1,0,0:0:0:0:
263,197,349034,1,8,0:0:0:0:
263,197,349118,1,8,0:0:0:0:
263,197,349201,1,0,0:0:0:0:
263,197,349284,1,8,0:0:0:0:
261,197,349368,1,0,0:0:0:0:
263,197,349451,1,0,0:0:0:0:
263,197,349534,1,8,0:0:0:0:
263,197,349618,1,8,0:0:0:0:
263,197,349701,1,8,0:0:0:0:
263,197,349784,1,8,0:0:0:0:
263,197,349868,1,0,0:0:0:0:
263,197,349951,1,0,0:0:0:0:
263,197,350034,1,8,0:0:0:0:
263,197,350118,1,8,0:0:0:0:
261,197,350201,1,0,0:0:0:0:
263,197,350284,1,0,0:0:0:0:
263,197,350368,1,8,0:0:0:0:
263,197,350451,1,8,0:0:0:0:
263,197,350534,1,8,0:0:0:0:
261,197,350618,1,0,0:0:0:0:
263,197,350701,1,8,0:0:0:0:
263,197,350784,1,8,0:0:0:0:
263,197,350868,1,0,0:0:0:0:
263,197,350951,1,0,0:0:0:0:
242,167,351034,1,8,0:0:0:0:
261,197,351201,1,4,0:0:0:0:
255,190,351368,1,8,0:0:0:0:
255,190,351451,1,8,0:0:0:0:
255,190,351534,1,0,0:0:0:0:
255,190,351701,1,0,0:0:0:0:
255,190,351784,1,0,0:0:0:0:
255,190,351868,1,12,0:0:0:0:
262,190,352034,1,0,0:0:0:0:
262,190,352201,1,8,0:0:0:0:
255,190,352368,1,8,0:0:0:0:
256,192,352534,12,0,353201,0:0:0:0:
245,203,353368,5,0,0:0:0:0:
237,200,353534,1,12,0:0:0:0:
245,203,353868,1,4,0:0:0:0:
