osu file format v14

[General]
AudioFilename: audio.mp3
AudioLeadIn: 0
PreviewTime: 55279
Countdown: 0
SampleSet: Soft
StackLeniency: 0.4
Mode: 0
LetterboxInBreaks: 0
WidescreenStoryboard: 0

[Editor]
Bookmarks: 8127,15996,23865,39603,55340,78947
DistanceSpacing: 0.2
BeatDivisor: 4
GridSize: 32
TimelineZoom: 4.099998

[Metadata]
Title:Hanarenai Kyori (TV Size)
TitleUnicode:はなれない距離 (TV Size)
Artist:TrySail
ArtistUnicode:TrySail
Creator:Vanya2
Version:Closer
Source:阿波連さんははかれない
Tags:japanese anime op opening rock jrock j-rock pop jpop j-pop aharen-san wa hakarenai aharen san is indecipherable 麻倉もも asakura momo 雨宮天 amamiya sora 夏川椎菜 natsukawa shiina
BeatmapID:3550288
BeatmapSetID:1736987

[Difficulty]
HPDrainRate:5
CircleSize:4
OverallDifficulty:9.2
ApproachRate:9.4
SliderMultiplier:1.95
SliderTickRate:1

[Events]
//Background and Video events
0,0,"RazYAdC.jpg",0,0
Video,-120,"sss.mp4"
//Break Periods
//Storyboard Layer 0 (Background)
//Storyboard Layer 1 (Fail)
//Storyboard Layer 2 (Pass)
//Storyboard Layer 3 (Foreground)
//Storyboard Layer 4 (Overlay)
//Storyboard Sound Samples

[TimingPoints]
259,245.901639344262,4,2,1,50,1,0
259,-250,4,2,1,50,0,0
4562,-250,4,2,1,5,0,0
4685,-149.253731343284,4,2,1,50,0,0
4808,-149.253731343284,4,2,1,5,0,0
5177,-250,4,2,1,50,0,0
8004,-250,4,2,1,5,0,0
8127,-200,4,2,1,60,0,0
10586,-149.253731343284,4,2,1,60,0,0
10832,-125,4,2,1,60,0,0
14521,-125,4,2,1,40,0,0
14644,-125,4,2,1,45,0,0
14767,-125,4,2,1,50,0,0
14890,-125,4,2,1,55,0,0
15013,-125,4,2,1,60,0,0
15258,-125,4,2,1,65,0,0
15504,-125,4,2,1,70,0,0
15750,-125,4,2,1,80,0,0
15996,-94.3396226415094,4,2,1,80,0,0
16181,-94.3396226415094,4,2,1,5,0,0
16242,-94.3396226415094,4,2,1,80,0,0
17164,-94.3396226415094,4,2,1,5,0,0
17226,-94.3396226415094,4,2,1,80,0,0
18148,-94.3396226415094,4,2,1,5,0,0
18209,-94.3396226415094,4,2,1,80,0,0
19131,-94.3396226415094,4,2,1,5,0,0
19193,-94.3396226415094,4,2,1,80,0,0
23865,-75.187969924812,4,2,1,60,0,0
23988,-75.187969924812,4,2,1,5,0,0
24357,-75.187969924812,4,2,1,40,0,0
25586,-75.187969924812,4,2,1,50,0,0
25709,-75.187969924812,4,2,1,5,0,0
26816,-303.030303030303,4,2,1,50,0,0
27799,-125,4,2,1,70,0,0
31980,-200,4,2,1,50,0,0
35668,-125,4,2,1,70,0,0
39603,-200,4,2,1,50,0,0
43537,-149.253731343284,4,2,1,60,0,0
47472,-125,4,2,1,60,0,0
48455,-125,4,2,1,65,0,0
49439,-125,4,2,1,70,0,0
50422,-125,4,2,1,80,0,0
50791,-94.3396226415094,4,2,1,80,0,0
51406,-125,4,2,1,70,0,0
52390,-125,4,2,1,75,0,0
53373,-125,4,2,1,85,0,0
53742,-94.3396226415094,4,2,1,85,0,0
55340,-94.3396226415094,4,2,1,90,0,1
55525,-94.3396226415094,4,2,1,5,0,1
55586,-94.3396226415094,4,2,1,90,0,1
56509,-94.3396226415094,4,2,1,5,0,1
56570,-94.3396226415094,4,2,1,90,0,1
57984,-94.3396226415094,4,2,1,5,0,1
58045,-94.3396226415094,4,2,1,90,0,1
58476,-94.3396226415094,4,2,1,5,0,1
58537,-94.3396226415094,4,2,1,90,0,1
59459,-94.3396226415094,4,2,1,5,0,1
59521,-94.3396226415094,4,2,1,90,0,1
60443,-94.3396226415094,4,2,1,5,0,1
60504,-94.3396226415094,4,2,1,90,0,1
62349,-94.3396226415094,4,2,1,5,0,1
62472,-94.3396226415094,4,2,1,90,0,1
62595,-94.3396226415094,4,2,1,5,0,1
62718,-94.3396226415094,4,2,1,90,0,1
62840,-94.3396226415094,4,2,1,5,0,1
62963,-94.3396226415094,4,2,1,90,0,1
63394,-94.3396226415094,4,2,1,5,0,1
63455,-94.3396226415094,4,2,1,90,0,1
64377,-94.3396226415094,4,2,1,5,0,1
64439,-94.3396226415094,4,2,1,90,0,1
65853,-94.3396226415094,4,2,1,5,0,1
65914,-94.3396226415094,4,2,1,90,0,1
66345,-94.3396226415094,4,2,1,5,0,1
66406,-94.3396226415094,4,2,1,90,0,1
67144,-200,4,2,1,70,0,1
71324,-200,4,2,1,40,0,1
72062,-200,4,2,1,70,0,1
72308,-200,4,2,1,40,0,1
73045,-200,4,2,1,70,0,1
73291,-250,4,2,1,70,0,1
73783,-125,4,2,1,80,0,1
74213,-125,4,2,1,5,0,1
74275,-94.3396226415094,4,2,1,80,0,1
75013,-94.3396226415094,4,2,1,90,0,1
75197,-94.3396226415094,4,2,1,5,0,1
75259,-94.3396226415094,4,2,1,90,0,1
76181,-94.3396226415094,4,2,1,5,0,1
76242,-94.3396226415094,4,2,1,90,0,1
76980,-94.3396226415094,4,2,1,90,0,0
77472,-94.3396226415094,4,2,1,50,0,0
79746,-94.3396226415094,4,2,1,5,0,0
79849,-370.37037037037,4,2,1,50,0,0
79931,-370.37037037037,4,2,1,40,0,0
81898,-250,4,2,1,40,0,0
85832,-370.37037037037,4,2,1,40,0,0
87062,-370.37037037037,4,2,1,5,0,0

[Colours]
Combo1 : 37,226,170
Combo2 : 152,250,165
Combo3 : 252,153,148
Combo4 : 168,228,239

[HitObjects]
151,301,259,6,0,B|110:306|89:344|89:344|91:302|59:276,2,155.999995239258,2|2|0,0:0|0:0|0:0,0:0:0:0:
123,222,1488,1,2,0:0:0:0:
123,222,1734,1,2,0:0:0:0:
164,384,1980,6,0,P|181:311|204:233,2,155.999995239258,2|2|2,0:0|0:0|0:0,0:0:0:0:
316,282,3455,1,2,0:0:0:0:
316,282,3701,2,0,P|308:243|295:206,1,77.999997619629,2|2,0:0|0:0,0:0:0:0:
503,151,4193,6,0,P|447:154|415:107,1,116.999996429443,2|0,0:0|0:0,0:0:0:0:
365,48,4685,2,0,B|359:28|370:14|370:14|376:32|365:46,1,65.3249969099809,2|0,0:0|0:0,0:0:0:0:
236,117,5177,2,0,P|197:124|160:137,1,77.999997619629,2|2,0:0|0:0,0:0:0:0:
102,82,5504,2,0,P|104:69|106:56,2,25.999999206543,2|2|2,0:0|0:0|0:0,0:0:0:0:
1,147,5914,1,2,0:0:0:0:
83,277,6160,6,0,P|121:284|158:297,1,77.999997619629,2|2,0:0|0:0,0:0:0:0:
224,357,6529,2,0,B|288:341|256:313|323:298,1,116.999996429443,2|2,0:0|0:0,0:0:0:0:
472,348,7144,6,0,P|469:338|467:329,1,19.4999994049073,2|2,0:0|0:0,0:0:0:0:
461,355,7267,2,0,P|433:241|398:129,1,233.999992858887,2|0,0:0|0:0,0:0:0:0:
432,53,8127,5,0,3:2:0:0:
230,241,8373,2,0,P|221:193|205:146,2,97.50000371933,2|2|2,0:0|0:0|0:0,0:0:0:0:
92,44,9111,5,0,3:2:0:0:
356,304,9357,2,0,P|364:256|380:210,2,97.50000371933,2|2|2,0:0|0:0|0:0,0:0:0:0:
53,323,10095,5,0,3:2:0:0:
218,133,10340,1,2,0:0:0:0:
222,147,10463,1,8,0:0:0:0:
136,109,10586,2,0,P|131:78|122:46,1,65,10|0,0:3|0:0,0:0:0:0:
311,34,10832,6,0,B|286:118|340:100|313:186,1,155.999995239258,6|0,3:2|0:0,0:0:0:0:
462,122,11201,1,8,0:0:0:0:
460,106,11324,2,0,P|434:77|396:73,1,77.999997619629,2|0,3:2|3:2,0:0:0:0:
437,237,11570,2,0,P|474:228|497:198,1,77.999997619629,10|0,0:0|0:0,0:0:0:0:
280,113,11816,1,10,0:0:0:0:
302,187,11938,1,8,0:0:0:0:
324,262,12062,6,0,B|238:283|281:320|193:340,1,155.999995239258,6|8,3:2|0:0,0:0:0:0:
57,245,12431,1,0,3:2:0:0:
45,255,12554,2,0,P|57:291|66:329,1,77.999997619629,2|0,3:2|0:0,0:0:0:0:
171,181,12799,2,0,P|158:217|149:255,1,77.999997619629,10|0,0:0|0:0,0:0:0:0:
23,170,13045,6,0,P|45:139|83:131,1,77.999997619629,2|0,3:2|3:2,0:0:0:0:
91,49,13291,2,0,P|128:53|154:81,1,77.999997619629,8|0,0:0|3:2,0:0:0:0:
250,279,13537,6,0,P|287:274|313:246,1,77.999997619629,8|8,0:0|0:3,0:0:0:0:
389,280,13783,2,0,P|404:244|392:208,1,77.999997619629,4|0,0:3|3:2,0:0:0:0:
258,26,14029,5,6,3:2:0:0:
56,294,14521,2,0,L|45:256,7,38.9999988098145,2|2|2|2|2|2|2|2,0:0|0:0|0:0|0:0|0:0|0:0|0:0|0:0,0:0:0:0:
70,308,15013,6,0,P|108:316|144:329,1,77.999997619629,2|0,0:0|0:0,0:0:0:0:
184,181,15259,2,0,P|222:172|258:159,1,77.999997619629,2|0,0:0|0:0,0:0:0:0:
313,356,15504,2,0,P|351:364|387:377,1,77.999997619629,2|0,0:0|0:0,0:0:0:0:
438,152,15750,2,0,P|476:143|512:130,1,77.999997619629,2|0,0:0|0:0,0:0:0:0:
351,273,15996,6,0,B|331:185|293:227|273:142,1,155.999995239258,4|0,3:2|0:0,0:0:0:0:
305,58,16242,2,0,P|354:47|396:75,1,104,10|0,0:0|3:2,0:0:0:0:
260,278,16488,2,0,P|158:302|59:332,1,208,2|8,3:2|0:0,0:0:0:0:
127,39,16857,5,0,3:2:0:0:
127,39,16918,1,0,3:2:0:0:
127,39,16980,2,0,P|67:85|101:166,1,156,2|0,3:2|0:0,0:0:0:0:
148,210,17226,1,8,0:0:0:0:
290,70,17349,2,0,B|404:97|347:147|464:173,1,208,2|0,3:2|3:2,0:0:0:0:
260,278,17718,1,10,0:0:0:0:
320,205,17840,1,2,0:0:0:0:
428,296,17963,6,0,B|382:268|342:305|342:305|334:340|300:355,1,156,0|0,3:2|0:0,0:0:0:0:
247,270,18209,2,0,P|234:219|219:169,1,104,10|0,0:0|3:2,0:0:0:0:
438,37,18455,2,0,P|382:116|291:83,1,208,2|8,3:2|0:0,0:0:0:0:
65,141,18824,5,0,3:2:0:0:
65,141,18886,1,0,3:2:0:0:
65,141,18947,2,0,P|108:81|180:98,1,156,2|0,3:2|0:0,0:0:0:0:
218,168,19193,1,8,0:0:0:0:
53,252,19316,2,0,P|29:150|-1:51,1,208,2|0,3:2|3:2,0:0:0:0:
122,344,19685,2,0,P|135:293|150:243,1,104,10|0,0:0|0:0,0:0:0:0:
221,328,19931,6,0,P|292:251|368:180,1,208,6|10,3:2|0:0,0:0:0:0:
428,124,20259,5,8,0:0:0:0:
443,122,20340,5,8,0:0:0:0:
351,94,20422,6,0,P|249:70|150:40,1,208,10|10,3:2|0:0,0:0:0:0:
70,16,20751,5,8,0:0:0:0:
61,4,20832,5,8,0:0:0:0:
83,98,20914,6,0,P|113:198|136:299,1,208,10|10,3:2|0:0,0:0:0:0:
209,180,21242,5,8,0:0:0:0:
218,168,21323,5,8,0:0:0:0:
296,198,21406,6,0,P|324:239|313:289,1,104,10|8,0:3|0:0,0:0:0:0:
63,380,21652,2,0,P|34:338|45:288,1,104,6|0,0:3|3:1,0:0:0:0:
255,32,21898,5,10,3:2:0:0:
491,256,22144,1,0,3:2:0:0:
494,237,22267,1,10,3:2:0:0:
183,346,22513,1,0,3:2:0:0:
186,365,22636,1,10,3:2:0:0:
296,198,22881,5,6,3:2:0:0:
296,198,23865,6,0,B|311:260|311:260|315:263|315:263|329:322,1,130,2|0,3:2|0:0,0:0:0:0:
52,64,25586,6,0,B|37:126|37:126|33:129|33:129|18:188,1,130,2|0,3:2|0:0,0:0:0:0:
333,1,26816,6,0,L|341:31,1,32.5,2|0,0:0|0:0,0:0:0:0:
418,60,27062,1,8,0:3:0:0:
415,72,27185,1,8,0:0:0:0:
288,229,27308,5,8,0:0:0:0:
216,104,27431,1,8,0:0:0:0:
341,32,27554,1,8,0:0:0:0:
412,157,27677,1,8,0:0:0:0:
299,104,27799,6,0,B|211:124|253:162|168:182,1,155.999995239258,6|8,3:2|0:0,0:0:0:0:
36,73,28168,1,0,3:2:0:0:
49,65,28291,2,0,P|86:68|112:96,1,77.999997619629,2|0,3:2|0:0,0:0:0:0:
7,153,28537,2,0,P|32:181|70:184,1,77.999997619629,10|0,0:0|0:0,0:0:0:0:
136,348,28783,6,0,P|144:310|158:273,1,77.999997619629,2|0,3:2|0:0,0:0:0:0:
313,252,29029,1,8,0:0:0:0:
299,259,29152,2,0,B|213:238|256:201|168:180,1,155.999995239258,0|0,3:2|3:2,0:0:0:0:
351,91,29521,6,0,P|411:132|393:203,2,155.999995239258,10|0|10,0:0|3:2|0:0,0:0:0:0:
438,336,30259,2,0,P|446:298|460:261,1,77.999997619629,2|0,3:2|3:2,0:0:0:0:
347,384,30504,2,0,P|329:308|305:233,1,155.999995239258,10|0,0:0|3:2,0:0:0:0:
435,110,30873,5,0,0:0:0:0:
447,102,30996,2,0,P|483:109|505:141,1,77.999997619629,10|0,0:0|3:2,0:0:0:0:
312,223,31242,1,10,0:0:0:0:
235,205,31364,1,8,0:3:0:0:
159,185,31488,6,0,B|183:100|130:118|156:32,1,155.999995239258,6|4,0:3|3:2,0:0:0:0:
10,202,31980,2,0,P|5:177|0:154,2,48.750001859665,2|2|2,0:0|3:2|3:2,0:0:0:0:
206,334,32472,1,2,3:2:0:0:
91,384,32718,6,0,P|105:337|116:290,1,97.50000371933,2|2,3:2|3:2,0:0:0:0:
19,306,33086,1,2,3:2:0:0:
24,320,33209,1,0,3:2:0:0:
218,205,33455,6,0,P|171:202|145:163,2,97.50000371933,2|0|2,3:2|3:2|0:0,0:0:0:0:
285,157,34070,1,0,3:2:0:0:
290,143,34193,1,2,3:2:0:0:
469,265,34439,1,2,3:2:0:0:
451,31,34685,5,0,3:2:0:0:
402,91,34807,1,8,0:3:0:0:
424,165,34930,1,6,0:3:0:0:
371,222,35053,1,8,0:0:0:0:
318,50,35177,5,10,0:0:0:0:
506,108,35299,1,8,0:0:0:0:
315,61,35422,5,10,0:0:0:0:
503,120,35544,1,8,0:0:0:0:
380,244,35668,6,0,P|305:220|229:202,1,155.999995239258,6|8,3:2|0:0,0:0:0:0:
137,264,36037,5,0,3:2:0:0:
127,275,36160,2,0,P|129:312|157:338,1,77.999997619629,2|0,3:2|0:0,0:0:0:0:
79,206,36406,2,0,P|47:226|39:264,1,77.999997619629,10|0,0:0|0:0,0:0:0:0:
209,216,36652,6,0,B|233:131|180:149|206:63,1,155.999995239258,2|8,3:2|0:0,0:0:0:0:
307,186,37021,1,0,3:2:0:0:
321,192,37144,2,0,P|357:178|395:170,1,77.999997619629,2|0,0:0|3:2,0:0:0:0:
185,32,37390,6,0,P|116:56|115:129,2,155.999995239258,14|0|10,0:0|3:2|0:0,0:0:0:0:
355,293,38127,2,0,P|318:279|280:271,1,77.999997619629,2|0,3:2|3:2,0:0:0:0:
435,105,38373,2,0,P|443:143|456:179,1,77.999997619629,10|0,0:0|0:0,0:0:0:0:
237,128,38619,6,0,P|265:101|290:71,1,77.999997619629,2|0,3:2|0:0,0:0:0:0:
341,168,38865,1,10,0:0:0:0:
346,182,38988,1,0,3:2:0:0:
280,271,39111,5,10,0:0:0:0:
215,227,39233,1,8,0:3:0:0:
140,241,39356,1,4,0:3:0:0:
97,304,39479,1,0,3:2:0:0:
199,383,39603,6,0,B|158:223|89:302|51:139,1,292.50001115799,4|2,3:2|0:0,0:0:0:0:
135,98,40586,2,0,B|184:4|184:4|109:52,1,195.00000743866,2|2,0:0|0:0,0:0:0:0:
0,320,41570,6,0,P|51:243|140:265,1,195.00000743866,2|2,0:0|0:0,0:0:0:0:
310,87,42554,2,0,P|333:156|353:226,1,146.250005578995,2|8,0:0|0:0,0:0:0:0:
429,272,43045,1,10,0:0:0:0:
178,187,43291,1,10,0:3:0:0:
420,26,43537,6,0,P|398:87|380:149,1,130,6|2,3:2|0:0,0:0:0:0:
298,168,43906,2,0,B|227:149|261:119|189:102,1,130,2|2,3:2|0:0,0:0:0:0:
24,228,44275,6,0,B|92:236|127:299|127:299|124:229|181:180,1,261.299987639924,6|10,3:2|0:3,0:0:0:0:
94,152,44890,1,8,0:3:0:0:
81,147,45013,2,0,P|72:115|61:85,2,65,8|4|2,0:3|0:3|3:2,0:0:0:0:
221,256,45504,6,0,P|253:265|283:276,1,65,6|0,3:2|0:0,0:0:0:0:
459,191,45750,1,10,0:0:0:0:
450,180,45873,2,0,P|387:175|352:226,1,130,2|2,3:2|3:2,0:0:0:0:
497,384,46242,2,0,B|529:313|529:313|487:274,1,130,6|0,3:2|0:0,0:0:0:0:
432,330,46611,5,8,0:0:0:0:
420,336,46734,2,0,P|389:324|358:316,1,65,2|0,3:2|0:0,0:0:0:0:
282,127,46980,2,0,P|312:138|343:146,1,65,8|0,0:0|0:0,0:0:0:0:
181,347,47226,1,8,0:0:0:0:
158,271,47348,1,8,0:0:0:0:
137,195,47472,6,0,B|222:173|180:136|268:115,1,155.999995239258,6|10,3:2|0:0,0:0:0:0:
488,146,47963,5,2,3:2:0:0:
444,160,48085,1,8,0:0:0:0:
399,147,48208,1,10,0:0:0:0:
370,112,48331,1,10,0:0:0:0:
310,22,48455,5,2,3:2:0:0:
266,8,48577,1,10,0:0:0:0:
221,21,48700,1,8,0:0:0:0:
192,56,48823,1,10,0:0:0:0:
87,95,48947,5,0,3:2:0:0:
71,101,49070,1,8,0:0:0:0:
65,86,49193,1,10,0:0:0:0:
78,79,49316,1,8,0:0:0:0:
178,184,49439,5,2,3:2:0:0:
161,235,49561,1,10,0:0:0:0:
144,287,49684,1,10,0:0:0:0:
127,339,49807,1,10,0:0:0:0:
317,250,49931,5,2,3:2:0:0:
300,198,50054,1,10,0:0:0:0:
283,146,50177,1,10,0:0:0:0:
266,95,50299,1,8,0:0:0:0:
67,217,50422,5,6,3:2:0:0:
214,356,50545,2,0,P|223:318|235:280,1,77.999997619629,2|0,3:2|0:0,0:0:0:0:
461,170,50791,2,0,P|322:212|251:81,1,310.050000473099,6|2,3:2|3:2,0:0:0:0:
474,179,51406,6,0,P|450:253|431:328,1,155.999995239258,4|10,3:2|0:0,0:0:0:0:
180,180,51898,5,2,3:2:0:0:
231,163,52020,1,8,0:0:0:0:
283,146,52143,1,10,0:0:0:0:
335,129,52266,1,10,0:0:0:0:
194,275,52390,5,2,3:2:0:0:
139,264,52513,1,10,0:0:0:0:
98,225,52636,1,10,0:0:0:0:
86,171,52758,1,10,0:0:0:0:
217,15,52881,5,2,3:2:0:0:
234,68,53004,1,8,0:0:0:0:
76,159,53127,5,10,0:0:0:0:
93,106,53250,1,8,0:0:0:0:
286,237,53373,5,6,3:2:0:0:
98,350,53496,2,0,P|60:338|22:328,1,77.999997619629,10|4,0:3|0:3,0:0:0:0:
231,163,53742,2,0,P|330:193|431:219,1,208,6|8,3:2|0:3,0:0:0:0:
507,161,54111,2,0,P|518:111|490:69,1,104,2|4,3:2|0:3,0:0:0:0:
219,173,54357,5,6,3:2:0:0:
346,256,54480,1,8,0:0:0:0:
429,129,54603,1,8,0:0:0:0:
302,46,54726,1,8,0:0:0:0:
325,151,54849,5,2,0:0:0:0:
0,68,55340,6,0,B|88:88|46:126|131:146,1,155.999995239258,6|0,3:2|0:0,0:0:0:0:
198,91,55586,2,0,P|209:41|181:-1,1,104,8|0,0:0|3:2,0:0:0:0:
9,184,55832,2,0,P|39:283|62:384,1,208,2|8,3:2|0:0,0:0:0:0:
186,221,56201,5,0,3:2:0:0:
186,221,56263,1,0,3:2:0:0:
186,221,56324,2,0,B|274:241|232:279|317:299,1,155.999995239258,0|0,3:2|0:0,0:0:0:0:
399,265,56570,2,0,P|412:214|427:164,1,104,10|0,0:0|0:0,0:0:0:0:
219,74,56816,1,2,3:2:0:0:
326,208,56939,1,0,3:2:0:0:
467,90,57062,6,0,P|375:123|318:41,2,206.700000315399,10|0|10,0:0|3:2|0:0,0:0:0:0:
288,287,57677,1,0,3:2:0:0:
276,304,57799,2,0,P|200:322|126:347,1,156,0|0,3:2|0:0,0:0:0:0:
55,299,58045,2,0,P|44:249|72:207,1,104,10|0,0:0|3:2,0:0:0:0:
27,135,58230,5,0,3:2:0:0:
27,135,58291,2,0,B|112:111|112:111|121:160|180:172,1,156,0|0,3:2|0:0,0:0:0:0:
236,129,58537,2,0,P|248:78|263:28,1,104,10|0,0:0|0:0,0:0:0:0:
406,157,58783,1,2,3:2:0:0:
326,208,58906,1,0,3:2:0:0:
400,45,59029,1,10,0:0:0:0:
507,169,59152,1,0,0:0:0:0:
336,116,59275,6,0,P|361:189|379:265,1,156,6|0,3:2|0:0,0:0:0:0:
441,326,59521,2,0,P|489:310|512:265,1,104,8|0,0:0|3:2,0:0:0:0:
259,148,59767,2,0,B|141:174|197:225|85:252,1,208,2|8,3:2|0:0,0:0:0:0:
282,357,60136,5,0,3:2:0:0:
282,357,60197,1,0,3:2:0:0:
282,357,60259,2,0,P|300:281|325:207,1,156,2|0,3:2|0:0,0:0:0:0:
242,137,60504,2,0,P|229:86|214:36,1,104,8|0,0:0|0:0,0:0:0:0:
0,130,60750,1,0,3:2:0:0:
125,0,60873,1,0,3:2:0:0:
171,179,60996,2,0,P|120:181|83:147,1,104,10|0,0:0|0:0,0:0:0:0:
298,10,61242,6,0,P|310:60|325:110,1,104,6|0,3:2|0:0,0:0:0:0:
215,278,61488,1,10,0:0:0:0:
411,162,61611,1,2,3:2:0:0:
195,58,61734,1,0,3:2:0:0:
325,207,61857,1,8,0:3:0:0:
447,46,61980,1,10,0:0:0:0:
325,110,62103,1,0,0:0:0:0:
486,321,62226,6,0,P|498:270|513:220,1,104,6|0,3:2|0:0,0:0:0:0:
258,384,62472,6,0,P|245:333|230:283,1,104,6|0,3:2|0:0,0:0:0:0:
0,238,62718,6,0,P|12:187|27:137,1,104,6|0,3:2|0:0,0:0:0:0:
235,0,62963,5,8,0:0:0:0:
258,76,63085,1,8,0:0:0:0:
279,152,63209,6,0,P|355:170|429:195,1,156,6|0,3:2|0:0,0:0:0:0:
498,140,63455,2,0,P|500:89|465:51,1,104,10|0,0:0|3:2,0:0:0:0:
353,299,63701,2,0,P|409:220|501:253,1,208,2|8,3:2|0:0,0:0:0:0:
259,384,64070,5,0,3:2:0:0:
259,384,64131,1,0,3:2:0:0:
259,384,64193,2,0,P|241:308|216:234,1,156,0|0,3:2|0:0,0:0:0:0:
148,175,64439,2,0,P|137:125|164:82,1,104,10|0,0:0|0:0,0:0:0:0:
80,260,64685,1,2,3:2:0:0:
226,145,64808,1,0,3:2:0:0:
15,52,64931,6,0,P|45:151|68:254,2,206.700000315399,10|0|10,0:0|3:2|0:0,0:0:0:0:
216,234,65545,1,0,3:2:0:0:
231,247,65668,2,0,P|303:226|324:155,1,156,0|0,3:2|0:0,0:0:0:0:
379,91,65914,2,0,P|351:48|301:37,1,104,10|0,0:0|3:2,0:0:0:0:
221,0,66099,5,0,3:2:0:0:
221,0,66160,2,0,P|203:75|178:149,1,156,0|0,3:2|0:0,0:0:0:0:
109,200,66406,2,0,P|123:249|136:300,1,104,10|8,0:0|0:0,0:0:0:0:
343,360,66652,1,2,3:2:0:0:
231,247,66775,1,0,3:2:0:0:
416,174,66898,1,10,0:0:0:0:
356,243,67021,1,0,0:0:0:0:
239,97,67144,6,0,B|349:72|297:24|402:0,1,195.00000743866,6|2,3:2|0:0,0:0:0:0:
401,0,67881,1,2,3:2:0:0:
196,171,68127,2,0,P|126:147|55:130,2,146.250005578995,10|8|2,0:0|0:0|3:2,0:0:0:0:
263,358,69111,6,0,P|216:373|169:384,1,97.5,2|2,3:2|0:0,0:0:0:0:
147,306,69480,2,0,P|194:294|240:279,1,97.5,10|0,0:2|0:0,0:0:0:0:
315,298,69849,1,2,3:2:0:0:
512,110,70095,2,0,B|460:94|431:140|431:140|434:172|412:191,1,146.250005578995,10|8,0:0|0:0,0:0:0:0:
338,214,70586,1,10,0:0:0:0:
326,172,70708,1,8,0:0:0:0:
351,139,70831,1,8,0:0:0:0:
512,384,71078,5,0,3:2:0:0:
256,192,72062,1,0,3:2:0:0:
0,0,72922,1,8,0:0:0:0:
6,7,73045,5,0,3:2:0:0:
26,150,73291,2,0,P|34:111|45:74,1,77.999997619629,10|6,0:3|0:3,0:0:0:0:
175,0,73783,6,0,P|218:129|251:261,1,272.999991668701,6|0,0:0|0:0,0:0:0:0:
175,306,74275,2,0,P|126:290|103:245,1,104,2|0,3:2|3:2,0:0:0:0:
337,293,74521,2,0,P|348:342|320:384,1,104,10|0,0:0|0:0,0:0:0:0:
245,159,74767,2,0,P|282:124|332:127,1,104,10|8,0:0|0:0,0:0:0:0:
186,316,75013,6,0,P|168:240|144:165,1,156,6|0,3:2|0:0,0:0:0:0:
88,105,75259,2,0,P|102:54|115:4,1,104,8|0,0:0|3:2,0:0:0:0:
325,117,75504,1,2,3:2:0:0:
245,159,75627,1,0,0:0:0:0:
305,5,75750,2,0,P|319:55|332:105,1,104,10|0,0:0|0:0,0:0:0:0:
467,276,75996,6,0,P|430:210|356:210,1,156,2|0,3:2|0:0,0:0:0:0:
291,257,76242,2,0,P|276:308|263:357,1,104,8|0,0:0|3:2,0:0:0:0:
84,244,76488,1,8,0:0:0:0:
245,159,76611,1,8,0:3:0:0:
93,329,76734,2,0,P|41:326|9:288,1,104,4|0,0:3|3:2,0:0:0:0:
200,49,76980,5,6,3:2:0:0:
256,192,78701,12,0,79746,0:0:0:0:
476,232,79849,5,2,0:0:0:0:
476,232,79931,2,0,P|364:197|265:172,1,210.600005141602,2|2,0:0|0:0,0:0:0:0:
3,135,81898,6,0,B|81:87|57:2|57:2|81:87|173:87,1,311.999990478516,2|2,0:0|0:0,0:0:0:0:
104,360,83865,6,0,B|76:410|-42:389|16:216|180:255|181:353,1,311.999990478516,2|2,0:0|0:0,0:0:0:0:
373,283,85750,6,2,L|369:264,2,12.9999996032715
383,294,85873,6,0,B|415:146|479:216|511:81,1,254.475006212769,2|0,0:0|0:0,0:0:0:0:
