osu file format v14

[General]
AudioFilename: audio.mp3
AudioLeadIn: 0
PreviewTime: 52657
Countdown: 0
SampleSet: Soft
StackLeniency: 0.7
Mode: 3
LetterboxInBreaks: 0
SpecialStyle: 0
WidescreenStoryboard: 1

[Editor]
DistanceSpacing: 1.5
BeatDivisor: 16
GridSize: 4
TimelineZoom: 2.799999

[Metadata]
Title:azure (TV Size)
TitleUnicode:azure (TV Size)
Artist:TrySail
ArtistUnicode:TrySail
Creator:- Ly0572 -
Version:Reverse
Source:続・終物語
Tags:Zoku Owarimonogatari Ending ED Monogatari Series ZokuOwarimonogatari Koyomi Araragi Reverse Final Season Sora Amamiya Momo Asakura Shiina Natsukawa 麻倉もも 雨宮天 夏川椎菜 Jpop Japanese Anime
BeatmapID:1982771
BeatmapSetID:949521

[Difficulty]
HPDrainRate:8.3
CircleSize:4
OverallDifficulty:8.3
ApproachRate:5
SliderMultiplier:1.4
SliderTickRate:1

[Events]
//Background and Video events
0,0,"azurezoku2.jpg",0,0
//Break Periods
//Storyboard Layer 0 (Background)
//Storyboard Layer 1 (Fail)
//Storyboard Layer 2 (Pass)
//Storyboard Layer 3 (Foreground)
//Storyboard Layer 4 (Overlay)
//Storyboard Sound Samples

[TimingPoints]
1336,428.571428571429,4,2,1,40,1,0
50943,-142.857142857143,4,2,1,40,0,0
51050,-76.9230769230769,4,2,1,40,0,0
51157,-142.857142857143,4,2,1,40,0,0
51264,-76.9230769230769,4,2,1,40,0,0
51371,-142.857142857143,4,2,1,40,0,0
51478,-76.9230769230769,4,2,1,40,0,0
51586,-142.857142857143,4,2,1,40,0,0
51693,-76.9230769230769,4,2,1,40,0,0
51800,-142.857142857143,4,2,1,40,0,0
51907,-76.9230769230769,4,2,1,40,0,0
52014,-142.857142857143,4,2,1,40,0,0
52121,-76.9230769230769,4,2,1,40,0,0
52228,-142.857142857143,4,2,1,40,0,0
52336,-76.9230769230769,4,2,1,40,0,0
52550,-142.857142857143,4,2,1,40,0,0
52764,-100,4,2,1,40,0,1
65621,-100,4,2,1,40,0,0
66478,-100,4,2,1,40,0,1
80193,-100,4,2,1,40,0,0
82764,609.137055837563,4,2,1,40,1,0
82764,-70.4225352112676,4,2,1,40,0,0
83982,609.137055837563,4,2,1,40,1,0
83982,-70.4225352112676,4,2,1,40,0,0
85074,428.571428571429,4,2,1,40,1,0

[HitObjects]
64,192,1121,5,0,0:0:0:0:
192,192,1175,1,0,0:0:0:0:
320,192,1228,1,0,0:0:0:0:
448,192,1282,1,0,0:0:0:0:
64,192,1336,128,0,1978:0:0:0:0:
192,192,1336,1,0,0:0:0:0:
320,192,1550,128,0,1764:0:0:0:0:
448,192,1764,128,0,1978:0:0:0:0:
192,192,1978,128,0,3050:0:0:0:0:
320,192,1978,1,0,0:0:0:0:
64,192,2407,128,0,2621:0:0:0:0:
320,192,2621,128,0,2836:0:0:0:0:
448,192,2836,128,0,3050:0:0:0:0:
64,192,3050,128,0,3907:0:0:0:0:
320,192,3050,1,0,0:0:0:0:
448,192,3264,128,0,3478:0:0:0:0:
320,192,3478,128,0,3693:0:0:0:0:
192,192,3693,128,0,3907:0:0:0:0:
448,192,3907,128,0,4336:0:0:0:0:
320,192,3907,1,0,0:0:0:0:
320,192,4336,128,0,4764:0:0:0:0:
192,192,4336,1,0,0:0:0:0:
64,192,4550,128,0,4764:0:0:0:0:
448,192,4764,1,0,0:0:0:0:
192,192,4764,128,0,5621:0:0:0:0:
320,192,4978,1,0,0:0:0:0:
64,192,5193,1,0,0:0:0:0:
448,192,5407,128,0,5621:0:0:0:0:
320,192,5621,1,0,0:0:0:0:
64,192,5621,128,0,6264:0:0:0:0:
448,192,5836,128,0,6050:0:0:0:0:
320,192,6050,128,0,6264:0:0:0:0:
192,192,6264,128,0,6478:0:0:0:0:
448,192,6478,128,0,7336:0:0:0:0:
320,192,6478,1,0,0:0:0:0:
64,192,6693,1,0,0:0:0:0:
192,192,6907,128,0,7121:0:0:0:0:
320,192,7121,128,0,7336:0:0:0:0:
64,192,7336,128,0,7764:0:0:0:0:
192,192,7336,1,0,0:0:0:0:
320,192,7550,1,2,0:0:0:0:
448,192,7550,1,0,0:0:0:0:
192,192,7764,1,8,0:0:0:0:
320,192,7764,1,0,0:0:0:0:
448,192,7764,128,0,7978:0:0:0:0:
192,192,7978,128,0,8193:0:0:0:0:
64,192,7978,1,0,0:0:0:0:
448,192,8193,1,2,0:0:0:0:
320,192,8193,128,0,8621:0:0:0:0:
64,192,8407,128,0,8621:0:0:0:0:
192,192,8621,1,2,0:0:0:0:
448,192,8621,1,0,0:0:0:0:
448,192,8836,128,0,9050:0:0:0:0:
192,192,9050,1,2,0:0:0:0:
320,192,9050,1,0,0:0:0:0:
64,192,9264,128,0,9478:0:0:0:0:
192,192,9264,1,0,0:0:0:0:
320,192,9478,1,2,0:0:0:0:
448,192,9478,128,0,9693:0:0:0:0:
64,192,9693,128,0,9907:0:0:0:0:
192,192,9693,1,0,0:0:0:0:
448,192,9907,1,2,0:0:0:0:
320,192,9907,128,0,10336:0:0:0:0:
192,192,10121,128,0,10336:0:0:0:0:
448,192,10336,1,2,0:0:0:0:
64,192,10336,1,0,0:0:0:0:
192,192,10550,128,0,10764:0:0:0:0:
320,192,10764,1,2,0:0:0:0:
448,192,10764,128,0,10978:0:0:0:0:
64,192,10978,128,0,11193:0:0:0:0:
448,192,11193,1,2,0:0:0:0:
192,192,11193,128,0,11407:0:0:0:0:
320,192,11407,128,0,11621:0:0:0:0:
448,192,11621,1,4,0:0:0:0:
192,192,11621,1,2,0:0:0:0:
64,192,11621,128,0,12050:0:0:0:0:
192,192,11836,1,0,0:0:0:0:
448,192,12050,1,2,0:0:0:0:
320,192,12050,1,0,0:0:0:0:
192,192,12264,128,0,12478:0:0:0:0:
64,192,12478,1,2,0:0:0:0:
448,192,12478,1,0,0:0:0:0:
64,192,12693,128,0,12907:0:0:0:0:
320,192,12693,1,0,0:0:0:0:
448,192,12907,128,2,13336:0:0:0:0:
192,192,12907,1,0,0:0:0:0:
192,192,13121,1,0,0:0:0:0:
64,192,13336,128,2,13764:0:0:0:0:
320,192,13336,1,0,0:0:0:0:
320,192,13550,1,0,0:0:0:0:
192,192,13764,1,2,0:0:0:0:
448,192,13764,1,0,0:0:0:0:
320,192,13978,128,0,14193:0:0:0:0:
64,192,14193,1,2,0:0:0:0:
448,192,14193,1,0,0:0:0:0:
448,192,14407,128,0,14621:0:0:0:0:
192,192,14407,1,0,0:0:0:0:
320,192,14621,1,2,0:0:0:0:
64,192,14621,128,0,15050:0:0:0:0:
320,192,14836,1,0,0:0:0:0:
192,192,15050,1,2,0:0:0:0:
448,192,15050,128,0,15478:0:0:0:0:
192,192,15264,1,0,0:0:0:0:
64,192,15478,1,2,0:0:0:0:
320,192,15478,1,0,0:0:0:0:
192,192,15693,128,0,15907:0:0:0:0:
64,192,15907,1,2,0:0:0:0:
320,192,15907,1,0,0:0:0:0:
64,192,16121,128,0,16336:0:0:0:0:
320,192,16336,128,2,16764:0:0:0:0:
192,192,16336,1,0,0:0:0:0:
192,192,16550,1,0,0:0:0:0:
448,192,16764,1,2,0:0:0:0:
64,192,16764,128,0,17193:0:0:0:0:
448,192,16978,1,0,0:0:0:0:
320,192,17193,1,2,0:0:0:0:
192,192,17193,1,0,0:0:0:0:
448,192,17407,128,0,17621:0:0:0:0:
192,192,17621,1,2,0:0:0:0:
64,192,17621,1,0,0:0:0:0:
320,192,17836,128,0,18050:0:0:0:0:
64,192,17836,1,0,0:0:0:0:
192,192,18050,128,2,18264:0:0:0:0:
448,192,18050,1,0,0:0:0:0:
64,192,18264,128,0,18478:0:0:0:0:
320,192,18478,1,2,0:0:0:0:
448,192,18478,128,0,18907:0:0:0:0:
320,192,18693,1,0,0:0:0:0:
64,192,18907,1,2,0:0:0:0:
192,192,18907,1,0,0:0:0:0:
320,192,19121,128,0,19336:0:0:0:0:
192,192,19121,1,0,0:0:0:0:
64,192,19336,1,2,0:0:0:0:
448,192,19336,1,0,0:0:0:0:
192,192,19550,128,0,19764:0:0:0:0:
448,192,19764,1,2,0:0:0:0:
64,192,19764,1,0,0:0:0:0:
320,192,19978,128,0,20193:0:0:0:0:
448,192,19978,1,0,0:0:0:0:
192,192,20193,1,2,0:0:0:0:
64,192,20193,128,0,20621:0:0:0:0:
192,192,20407,1,0,0:0:0:0:
320,192,20621,1,2,0:0:0:0:
448,192,20621,1,0,0:0:0:0:
192,192,20836,128,0,21264:0:0:0:0:
64,192,20836,1,0,0:0:0:0:
448,192,21050,1,2,0:0:0:0:
320,192,21264,128,0,21478:0:0:0:0:
64,192,21478,128,2,21907:0:0:0:0:
448,192,21478,128,0,21693:0:0:0:0:
192,192,21693,128,0,21907:0:0:0:0:
448,192,21907,128,4,23193:0:0:0:0:
320,192,21907,1,2,0:0:0:0:
64,192,22121,1,0,0:0:0:0:
192,192,22550,128,0,23193:0:0:0:0:
320,192,23193,128,0,23621:0:0:0:0:
64,192,23193,128,0,23621:0:0:0:0:
192,192,23621,1,8,0:0:0:0:
448,192,23621,1,0,0:0:0:0:
448,192,23836,1,0,0:0:0:0:
320,192,23836,128,2,24050:0:0:0:0:
64,192,23836,1,4,0:0:0:0:
448,192,24264,128,4,24693:0:0:0:0:
64,192,24264,1,0,0:0:0:0:
192,192,24264,1,2,0:0:0:0:
192,192,24693,1,2,0:0:0:0:
320,192,24693,1,0,0:0:0:0:
448,192,24907,1,8,0:0:0:0:
64,192,24907,1,0,0:0:0:0:
320,192,24907,1,0,0:0:0:0:
192,192,25121,1,8,0:0:0:0:
64,192,25121,1,0,0:0:0:0:
320,192,25228,1,8,0:0:0:0:
448,192,25228,1,0,0:0:0:0:
64,192,25336,128,2,25764:0:0:0:0:
448,192,25336,1,4,0:0:0:0:
192,192,25336,1,0,0:0:0:0:
320,192,25764,1,8,0:0:0:0:
448,192,25764,1,0,0:0:0:0:
64,192,25978,128,2,27050:0:0:0:0:
192,192,25978,1,0,0:0:0:0:
320,192,26086,1,8,0:0:0:0:
448,192,26193,1,2,0:0:0:0:
192,192,26193,1,0,0:0:0:0:
320,192,26407,1,2,0:0:0:0:
448,192,26621,1,8,0:0:0:0:
192,192,26621,1,0,0:0:0:0:
320,192,26621,1,0,0:0:0:0:
448,192,27050,128,2,27478:0:0:0:0:
320,192,27050,1,0,0:0:0:0:
192,192,27264,1,2,0:0:0:0:
64,192,27264,1,0,0:0:0:0:
192,192,27478,1,8,0:0:0:0:
64,192,27478,1,0,0:0:0:0:
320,192,27478,1,0,0:0:0:0:
448,192,27693,128,2,28764:0:0:0:0:
320,192,27693,1,0,0:0:0:0:
192,192,27800,1,8,0:0:0:0:
64,192,27907,1,2,0:0:0:0:
320,192,27907,1,0,0:0:0:0:
192,192,28121,1,2,0:0:0:0:
64,192,28336,1,8,0:0:0:0:
320,192,28336,1,0,0:0:0:0:
192,192,28336,1,0,0:0:0:0:
192,192,28764,128,2,29193:0:0:0:0:
64,192,28764,1,0,0:0:0:0:
64,192,28978,1,2,0:0:0:0:
448,192,28978,1,0,0:0:0:0:
320,192,29193,1,8,0:0:0:0:
448,192,29193,1,0,0:0:0:0:
64,192,29193,1,0,0:0:0:0:
192,192,29407,128,2,30478:0:0:0:0:
320,192,29407,1,0,0:0:0:0:
64,192,29514,1,8,0:0:0:0:
448,192,29621,1,2,0:0:0:0:
320,192,29621,1,0,0:0:0:0:
448,192,29836,1,2,0:0:0:0:
320,192,30050,1,8,0:0:0:0:
448,192,30050,1,0,0:0:0:0:
64,192,30050,1,0,0:0:0:0:
320,192,30478,128,2,30907:0:0:0:0:
448,192,30478,1,0,0:0:0:0:
448,192,30693,1,2,0:0:0:0:
64,192,30693,1,0,0:0:0:0:
192,192,30907,1,8,0:0:0:0:
64,192,30907,1,0,0:0:0:0:
448,192,30907,1,0,0:0:0:0:
64,192,31121,128,2,31550:0:0:0:0:
320,192,31121,1,0,0:0:0:0:
448,192,31228,1,8,0:0:0:0:
320,192,31336,1,2,0:0:0:0:
192,192,31336,1,0,0:0:0:0:
448,192,31550,1,2,0:0:0:0:
192,192,31550,1,0,0:0:0:0:
448,192,31764,128,0,32193:0:0:0:0:
64,192,31764,1,8,0:0:0:0:
320,192,31764,1,0,0:0:0:0:
64,192,32193,1,2,0:0:0:0:
320,192,32193,1,0,0:0:0:0:
192,192,32193,1,4,0:0:0:0:
320,192,32407,1,2,0:0:0:0:
192,192,32407,1,0,0:0:0:0:
448,192,32621,1,8,0:0:0:0:
320,192,32621,1,0,0:0:0:0:
64,192,32621,1,0,0:0:0:0:
64,192,32836,128,4,33478:0:0:0:0:
192,192,32836,1,2,0:0:0:0:
448,192,32836,1,0,0:0:0:0:
320,192,33264,1,2,0:0:0:0:
192,192,33264,1,0,0:0:0:0:
448,192,33478,1,8,0:0:0:0:
192,192,33478,1,0,0:0:0:0:
320,192,33478,1,0,0:0:0:0:
320,192,33693,1,8,0:0:0:0:
448,192,33693,1,0,0:0:0:0:
192,192,33800,1,8,0:0:0:0:
64,192,33800,1,0,0:0:0:0:
64,192,33907,1,2,0:0:0:0:
320,192,33907,1,4,0:0:0:0:
448,192,33907,1,0,0:0:0:0:
320,192,34121,1,2,0:0:0:0:
192,192,34121,1,0,0:0:0:0:
192,192,34336,1,8,0:0:0:0:
448,192,34336,1,0,0:0:0:0:
64,192,34336,128,0,34550:0:0:0:0:
192,192,34550,1,2,0:0:0:0:
448,192,34550,128,4,34978:0:0:0:0:
320,192,34550,1,0,0:0:0:0:
320,192,34978,1,2,0:0:0:0:
64,192,34978,1,0,0:0:0:0:
448,192,35193,128,8,35621:0:0:0:0:
192,192,35193,1,0,0:0:0:0:
64,192,35193,1,0,0:0:0:0:
320,192,35407,1,8,0:0:0:0:
192,192,35514,1,8,0:0:0:0:
64,192,35621,1,2,0:0:0:0:
320,192,35621,128,4,36050:0:0:0:0:
192,192,35836,1,0,0:0:0:0:
448,192,36050,1,8,0:0:0:0:
192,192,36050,1,0,0:0:0:0:
64,192,36050,128,0,36264:0:0:0:0:
320,192,36264,1,2,0:0:0:0:
192,192,36264,128,0,36478:0:0:0:0:
64,192,36478,1,8,0:0:0:0:
448,192,36478,1,0,0:0:0:0:
320,192,36478,128,0,36693:0:0:0:0:
192,192,36693,1,2,0:0:0:0:
448,192,36693,128,0,36907:0:0:0:0:
64,192,36907,1,8,0:0:0:0:
192,192,36907,1,0,0:0:0:0:
448,192,37121,1,2,0:0:0:0:
64,192,37121,1,4,0:0:0:0:
320,192,37121,1,0,0:0:0:0:
448,192,37550,128,2,37764:0:0:0:0:
320,192,37550,1,0,0:0:0:0:
320,192,37764,128,8,37978:0:0:0:0:
64,192,37764,1,0,0:0:0:0:
192,192,37764,1,0,0:0:0:0:
192,192,37978,128,2,38193:0:0:0:0:
448,192,37978,1,0,0:0:0:0:
64,192,38193,1,8,0:0:0:0:
448,192,38193,1,0,0:0:0:0:
320,192,38193,1,0,0:0:0:0:
192,192,38407,1,2,0:0:0:70:tom.wav
320,192,38407,1,0,0:0:0:0:
320,192,38621,1,2,0:0:0:70:tom.wav
64,192,38621,128,0,39050:0:0:0:0:
320,192,39050,1,2,0:0:0:0:
448,192,39050,128,4,39693:0:0:0:0:
192,192,39050,1,0,0:0:0:0:
192,192,39693,1,2,0:0:0:0:
64,192,39693,1,0,0:0:0:0:
448,192,39907,128,2,40336:0:0:0:0:
320,192,39907,1,0,0:0:0:0:
192,192,40336,1,8,0:0:0:0:
64,192,40336,1,0,0:0:0:0:
320,192,40336,1,0,0:0:0:0:
64,192,40764,128,2,41407:0:0:0:0:
320,192,40764,1,0,0:0:0:0:
448,192,41407,1,2,0:0:0:0:
320,192,41407,1,0,0:0:0:0:
64,192,41621,128,2,42050:0:0:0:0:
192,192,41621,1,0,0:0:0:0:
320,192,42050,1,8,0:0:0:0:
448,192,42050,1,0,0:0:0:0:
192,192,42050,1,0,0:0:0:0:
320,192,42478,128,2,43121:0:0:0:0:
192,192,42478,1,0,0:0:0:0:
192,192,43121,1,2,0:0:0:0:
64,192,43121,1,0,0:0:0:0:
320,192,43336,128,2,43764:0:0:0:0:
448,192,43336,1,0,0:0:0:0:
64,192,43764,1,8,0:0:0:0:
192,192,43764,1,0,0:0:0:0:
448,192,43764,1,0,0:0:0:0:
192,192,44193,128,2,44836:0:0:0:0:
320,192,44193,1,0,0:0:0:0:
320,192,44836,1,2,0:0:0:0:
448,192,44836,1,0,0:0:0:0:
192,192,45050,1,4,0:0:0:0:
64,192,45050,1,8,0:0:0:0:
448,192,45050,1,0,0:0:0:0:
320,192,45264,1,2,0:0:0:0:
192,192,45264,1,0,0:0:0:0:
448,192,45478,1,0,0:0:0:70:tom.wav
320,192,45478,128,0,45907:0:0:0:0:
448,192,45907,1,2,0:0:0:0:
64,192,45907,1,4,0:0:0:0:
192,192,45907,1,0,0:0:0:0:
320,192,46121,1,2,0:0:0:0:
192,192,46121,1,0,0:0:0:0:
448,192,46336,1,0,0:0:0:0:
64,192,46336,1,8,0:0:0:0:
320,192,46336,1,0,0:0:0:0:
448,192,46550,1,0,0:0:0:70:Hit Hat.wav
64,192,46550,128,0,46764:0:0:0:0:
320,192,46764,1,2,0:0:0:0:
192,192,46764,1,0,0:0:0:0:
320,192,46978,1,0,0:0:0:70:Hit Hat.wav
448,192,46978,128,0,47193:0:0:0:0:
64,192,47193,1,8,0:0:0:0:
192,192,47193,1,0,0:0:0:0:
192,192,47407,1,0,0:0:0:70:Hit Hat.wav
320,192,47407,128,0,47621:0:0:0:0:
448,192,47621,1,2,0:0:0:0:
64,192,47621,1,0,0:0:0:0:
64,192,47836,1,0,0:0:0:70:Hit Hat.wav
192,192,47836,128,0,48050:0:0:0:0:
448,192,48050,1,8,0:0:0:0:
320,192,48050,1,0,0:0:0:0:
64,192,48264,128,0,48478:0:0:0:70:Hit Hat.wav
320,192,48264,1,0,0:0:0:0:
192,192,48478,1,2,0:0:0:0:
448,192,48478,1,0,0:0:0:0:
320,192,48693,1,8,0:0:0:0:
448,192,48693,1,0,0:0:0:0:
192,192,48907,1,0,0:0:0:0:
64,192,48907,1,8,0:0:0:0:
448,192,49014,1,0,0:0:0:0:
320,192,49014,1,8,0:0:0:0:
192,192,49121,1,0,0:0:0:0:
64,192,49121,1,8,0:0:0:0:
448,192,49228,1,8,0:0:0:0:
320,192,49228,1,0,0:0:0:0:
64,192,49336,128,4,51050:0:0:0:0:
448,192,49336,1,2,0:0:0:0:
192,192,49336,128,0,50621:0:0:0:0:
320,192,50621,128,0,51050:0:0:0:0:
448,192,51264,1,8,0:0:0:0:
64,192,51264,1,2,0:0:0:0:
192,192,51264,1,0,0:0:0:0:
192,192,51478,1,8,0:0:0:0:
64,192,51478,1,2,0:0:0:0:
448,192,51478,1,0,0:0:0:0:
320,192,51693,1,8,0:0:0:0:
64,192,51693,1,2,0:0:0:0:
448,192,51693,1,0,0:0:0:0:
448,192,51907,1,2,0:0:0:0:
64,192,51907,1,8,0:0:0:0:
320,192,51907,1,0,0:0:0:0:
64,192,52121,1,2,0:0:0:0:
192,192,52121,1,0,0:0:0:0:
320,192,52336,1,4,0:0:0:0:
64,192,52336,128,8,52764:0:0:0:0:
448,192,52336,1,0,0:0:0:0:
192,192,52764,1,2,0:0:0:0:
320,192,52764,1,4,0:0:0:0:
448,192,52764,128,0,54478:0:0:0:0:
192,192,52978,1,2,0:0:0:0:
64,192,53193,1,8,0:0:0:0:
192,192,53193,1,2,0:0:0:0:
320,192,53193,1,0,0:0:0:0:
320,192,53407,1,2,0:0:0:0:
192,192,53514,1,0,0:0:0:0:
64,192,53621,1,2,0:0:0:0:
320,192,53621,1,0,0:0:0:0:
192,192,53836,1,2,0:0:0:0:
192,192,54050,1,2,0:0:0:0:
320,192,54050,1,8,0:0:0:0:
64,192,54050,1,0,0:0:0:0:
64,192,54264,1,2,0:0:0:0:
192,192,54371,1,0,0:0:0:0:
320,192,54478,128,2,54907:0:0:0:0:
64,192,54478,1,0,0:0:0:0:
192,192,54693,1,2,0:0:0:0:
448,192,54907,1,8,0:0:0:0:
64,192,54907,1,2,0:0:0:0:
192,192,54907,128,0,55336:0:0:0:0:
64,192,55121,1,2,0:0:0:0:
320,192,55228,1,0,0:0:0:0:
448,192,55336,1,0,0:0:0:0:
64,192,55336,128,2,55764:0:0:0:0:
320,192,55550,1,2,0:0:0:0:
192,192,55764,1,2,0:0:0:0:
320,192,55764,1,8,0:0:0:0:
448,192,55764,128,0,56193:0:0:0:0:
192,192,55978,1,2,0:0:0:0:
320,192,56086,1,0,0:0:0:0:
192,192,56193,128,2,57907:0:0:0:0:
64,192,56193,1,0,0:0:0:0:
320,192,56407,1,2,0:0:0:0:
320,192,56621,1,8,0:0:0:0:
448,192,56621,1,2,0:0:0:0:
64,192,56621,1,0,0:0:0:0:
448,192,56836,1,2,0:0:0:0:
320,192,56943,1,0,0:0:0:0:
64,192,57050,1,2,0:0:0:0:
448,192,57050,1,0,0:0:0:0:
320,192,57264,1,2,0:0:0:0:
448,192,57478,1,8,0:0:0:0:
64,192,57478,1,2,0:0:0:0:
320,192,57478,1,0,0:0:0:0:
64,192,57693,1,2,0:0:0:0:
320,192,57800,1,2,0:0:0:0:
64,192,57907,128,0,58336:0:0:0:0:
448,192,57907,1,2,0:0:0:0:
320,192,58121,1,2,0:0:0:0:
320,192,58336,1,2,0:0:0:0:
192,192,58336,1,8,0:0:0:0:
448,192,58336,128,0,58764:0:0:0:0:
64,192,58550,1,2,0:0:0:0:
320,192,58764,1,2,0:0:0:0:
192,192,58764,1,0,0:0:0:0:
64,192,58871,1,8,0:0:0:0:
448,192,58978,1,8,0:0:0:0:
320,192,58978,1,0,0:0:0:0:
192,192,59086,1,8,0:0:0:0:
64,192,59193,5,8,0:0:0:0:
448,192,59193,1,2,0:0:0:0:
320,192,59407,1,8,0:0:0:0:
64,192,59514,1,8,0:0:0:0:
192,192,59514,1,0,0:0:0:0:
320,192,59621,1,0,0:0:0:0:
64,192,59621,128,4,60478:0:0:0:0:
448,192,59621,1,2,0:0:0:0:
448,192,59836,1,2,0:0:0:0:
448,192,60050,1,8,0:0:0:0:
320,192,60050,1,2,0:0:0:0:
192,192,60050,1,0,0:0:0:0:
192,192,60264,1,2,0:0:0:0:
320,192,60371,1,0,0:0:0:0:
192,192,60478,1,0,0:0:0:0:
448,192,60478,128,2,61336:0:0:0:0:
64,192,60693,1,2,0:0:0:0:
320,192,60907,1,2,0:0:0:0:
192,192,60907,1,8,0:0:0:0:
64,192,60907,1,0,0:0:0:0:
320,192,61121,1,2,0:0:0:0:
64,192,61228,1,0,0:0:0:0:
192,192,61336,128,2,61764:0:0:0:0:
320,192,61336,1,0,0:0:0:0:
448,192,61550,1,2,0:0:0:0:
64,192,61764,1,8,0:0:0:0:
448,192,61764,1,2,0:0:0:0:
320,192,61764,128,0,62193:0:0:0:0:
192,192,61978,1,2,0:0:0:0:
448,192,62086,1,0,0:0:0:0:
192,192,62193,1,2,0:0:0:0:
64,192,62193,128,0,62621:0:0:0:0:
320,192,62407,1,2,0:0:0:0:
192,192,62621,1,2,0:0:0:0:
320,192,62621,1,8,0:0:0:0:
448,192,62621,128,0,63050:0:0:0:0:
64,192,62836,1,2,0:0:0:0:
320,192,63050,1,2,0:0:0:0:
192,192,63050,128,0,63264:0:0:0:0:
64,192,63264,128,0,63478:0:0:0:70:Hit Hat.wav
448,192,63264,1,2,0:0:0:0:
192,192,63478,1,4,0:0:0:0:
320,192,63478,1,8,0:0:0:0:
448,192,63478,1,0,0:0:0:0:
64,192,63693,128,2,63907:0:0:0:0:
192,192,63907,1,0,0:0:0:0:
320,192,63907,128,2,64121:0:0:0:0:
448,192,64121,128,0,64336:0:0:0:70:Hit Hat.wav
64,192,64121,1,2,0:0:0:0:
192,192,64336,1,4,0:0:0:0:
320,192,64336,1,8,0:0:0:0:
64,192,64336,1,0,0:0:0:0:
448,192,64550,1,2,0:0:0:0:
192,192,64550,128,0,64764:0:0:0:0:
448,192,64764,1,8,0:0:0:0:
320,192,64764,1,2,0:0:0:0:
64,192,64764,1,0,0:0:0:0:
192,192,64978,1,8,0:0:0:0:
64,192,64978,1,0,0:0:0:0:
448,192,64978,128,2,65193:0:0:0:0:
192,192,65193,1,2,0:0:0:0:
320,192,65193,1,0,0:0:0:0:
64,192,65193,128,8,65407:0:0:0:0:
448,192,65407,1,0,0:0:0:0:
192,192,65407,128,2,65621:0:0:0:0:
320,192,65621,128,8,65836:0:0:0:0:
64,192,65621,1,2,0:0:0:0:
448,192,65621,1,0,0:0:0:0:
64,192,65836,128,2,66050:0:0:0:0:
192,192,65836,1,0,0:0:0:0:
448,192,66050,1,8,0:0:0:0:
320,192,66050,1,2,0:0:0:0:
192,192,66157,1,8,0:0:0:0:
64,192,66157,1,0,0:0:0:0:
320,192,66264,1,8,0:0:0:0:
448,192,66264,1,0,0:0:0:0:
192,192,66371,1,8,0:0:0:0:
64,192,66371,1,0,0:0:0:0:
320,192,66478,1,4,0:0:0:0:
64,192,66478,1,8,0:0:0:0:
448,192,66478,128,2,68193:0:0:0:0:
192,192,66693,1,2,0:0:0:0:
64,192,66907,1,8,0:0:0:0:
320,192,66907,1,2,0:0:0:0:
192,192,66907,1,0,0:0:0:0:
192,192,67121,1,2,0:0:0:0:
64,192,67228,1,0,0:0:0:0:
320,192,67336,1,2,0:0:0:0:
192,192,67336,1,0,0:0:0:0:
64,192,67550,1,2,0:0:0:0:
192,192,67764,1,2,0:0:0:0:
320,192,67764,1,8,0:0:0:0:
64,192,67764,1,0,0:0:0:0:
192,192,67978,1,2,0:0:0:0:
64,192,68193,128,2,69907:0:0:0:0:
320,192,68193,1,0,0:0:0:0:
192,192,68407,1,2,0:0:0:0:
320,192,68621,1,2,0:0:0:0:
448,192,68621,1,8,0:0:0:0:
192,192,68621,1,0,0:0:0:0:
320,192,68836,1,2,0:0:0:0:
448,192,68943,1,0,0:0:0:0:
320,192,69050,1,2,0:0:0:0:
192,192,69050,1,0,0:0:0:0:
448,192,69264,1,2,0:0:0:0:
192,192,69478,1,2,0:0:0:0:
448,192,69478,1,8,0:0:0:0:
320,192,69478,1,0,0:0:0:0:
192,192,69693,1,2,0:0:0:0:
320,192,69907,128,2,71621:0:0:0:0:
448,192,69907,1,0,0:0:0:0:
192,192,70121,1,2,0:0:0:0:
192,192,70336,1,2,0:0:0:0:
64,192,70336,1,8,0:0:0:0:
448,192,70336,1,0,0:0:0:0:
64,192,70550,1,2,0:0:0:0:
192,192,70657,1,0,0:0:0:0:
64,192,70764,1,2,0:0:0:0:
448,192,70764,1,0,0:0:0:0:
192,192,70978,1,2,0:0:0:0:
448,192,71193,1,2,0:0:0:0:
64,192,71193,1,8,0:0:0:0:
192,192,71193,1,0,0:0:0:0:
64,192,71407,1,2,0:0:0:0:
192,192,71621,128,2,72907:0:0:0:0:
448,192,71621,1,0,0:0:0:0:
64,192,71836,1,2,0:0:0:0:
320,192,72050,1,2,0:0:0:0:
64,192,72050,1,8,0:0:0:0:
448,192,72050,1,0,0:0:0:0:
448,192,72264,1,2,0:0:0:0:
320,192,72371,1,0,0:0:0:0:
448,192,72478,1,2,0:0:0:0:
64,192,72478,1,0,0:0:0:0:
320,192,72693,1,2,0:0:0:0:
448,192,72907,1,2,0:0:0:0:
64,192,72907,1,8,0:0:0:0:
320,192,72907,1,0,0:0:0:0:
192,192,73014,1,2,0:0:0:0:
320,192,73121,1,0,0:0:0:70:tom.wav
448,192,73121,1,0,0:0:0:0:
192,192,73336,1,4,0:0:0:0:
64,192,73336,1,0,0:0:0:0:
448,192,73336,1,8,0:0:0:0:
448,192,73764,1,8,0:0:0:0:
320,192,73764,1,0,0:0:0:0:
64,192,73764,1,0,0:0:0:0:
192,192,73978,1,2,0:0:0:0:
64,192,73978,1,0,0:0:0:0:
320,192,74086,1,0,0:0:0:0:
64,192,74193,1,8,0:0:0:0:
448,192,74193,1,0,0:0:0:0:
192,192,74193,1,0,0:0:0:0:
320,192,74407,1,2,0:0:0:0:
448,192,74407,1,0,0:0:0:0:
192,192,74514,1,0,0:0:0:0:
64,192,74621,1,8,0:0:0:0:
448,192,74621,1,0,0:0:0:0:
320,192,74621,1,0,0:0:0:0:
192,192,74836,1,2,0:0:0:0:
64,192,74836,1,0,0:0:0:0:
64,192,75050,1,4,0:0:0:0:
448,192,75050,1,8,0:0:0:0:
320,192,75050,1,0,0:0:0:0:
64,192,75478,1,8,0:0:0:0:
192,192,75478,1,0,0:0:0:0:
448,192,75478,1,0,0:0:0:0:
320,192,75693,1,2,0:0:0:0:
448,192,75693,1,0,0:0:0:0:
192,192,75800,1,0,0:0:0:0:
320,192,75907,1,8,0:0:0:0:
64,192,75907,1,0,0:0:0:0:
448,192,75907,1,0,0:0:0:0:
192,192,76121,1,2,0:0:0:0:
64,192,76121,1,0,0:0:0:0:
320,192,76228,1,0,0:0:0:0:
192,192,76336,1,8,0:0:0:0:
64,192,76336,1,4,0:0:0:0:
448,192,76336,1,0,0:0:0:0:
320,192,76550,1,2,0:0:0:0:
448,192,76550,1,0,0:0:0:0:
64,192,76764,1,2,0:0:0:0:
448,192,76764,1,0,0:0:0:0:
192,192,76764,1,4,0:0:0:0:
64,192,76978,1,2,0:0:0:0:
192,192,76978,1,0,0:0:0:0:
320,192,77193,1,0,0:0:0:0:
64,192,77193,1,8,0:0:0:0:
448,192,77193,1,0,0:0:0:0:
448,192,77407,128,0,77621:0:0:0:0:
64,192,77407,1,2,0:0:0:0:
192,192,77407,1,4,0:0:0:0:
448,192,77836,1,2,0:0:0:0:
320,192,77836,1,0,0:0:0:0:
192,192,78050,1,0,0:0:0:0:
64,192,78050,1,8,0:0:0:0:
448,192,78050,1,0,0:0:0:0:
64,192,78264,128,2,78478:0:0:0:0:
320,192,78264,1,0,0:0:0:0:
448,192,78264,1,4,0:0:0:0:
448,192,78693,1,2,0:0:0:0:
64,192,78693,1,8,0:0:0:0:
320,192,78746,1,0,0:0:0:0:
192,192,78800,1,0,0:0:0:0:
64,192,78853,1,0,0:0:0:0:
448,192,78907,1,2,0:0:0:0:
320,192,78907,1,8,0:0:0:0:
448,192,79121,5,2,0:0:0:0:
64,192,79121,128,0,79336:0:0:0:0:
448,192,79336,1,2,0:0:0:0:
192,192,79336,1,8,0:0:0:0:
320,192,79336,1,0,0:0:0:0:
64,192,79550,1,0,0:0:0:70:tom.wav
192,192,79550,1,0,0:0:0:0:
448,192,79764,1,2,0:0:0:0:
320,192,79818,1,0,0:0:0:0:
192,192,79871,1,0,0:0:0:0:
64,192,79925,1,0,0:0:0:0:
448,192,79978,1,0,0:0:0:0:
320,192,80032,1,0,0:0:0:0:
192,192,80086,1,0,0:0:0:0:
64,192,80139,1,0,0:0:0:0:
320,192,80193,1,2,0:0:0:0:
448,192,80193,128,4,80407:0:0:0:0:
64,192,80407,128,0,80621:0:0:0:0:
320,192,80621,128,0,80836:0:0:0:70:Hit Hat.wav
192,192,80836,128,2,81478:0:0:0:0:
448,192,80836,1,0,0:0:0:0:
64,192,81264,128,0,81478:0:0:0:0:
448,192,81478,128,0,81693:0:0:0:70:Hit Hat.wav
320,192,81693,128,0,82336:0:0:0:0:
192,192,81907,128,2,82121:0:0:0:0:
64,192,81907,1,0,0:0:0:0:
448,192,82121,128,0,82336:0:0:0:0:
64,192,82336,128,0,82550:0:0:0:70:Hit Hat.wav
192,192,82550,128,0,82764:0:0:0:0:
320,192,82764,1,0,0:0:0:0:
448,192,83373,1,0,0:0:0:0:
64,192,83982,1,4,0:0:0:0:
192,192,83982,1,2,0:0:0:0:
320,192,83982,1,0,0:0:0:0:
192,192,85074,1,0,0:0:0:0:
320,192,85154,1,0,0:0:0:0:
448,192,85234,1,0,0:0:0:0:
64,192,85315,1,0,0:0:0:0:
