osu file format v14

[General]
AudioFilename: audio.mp3
AudioLeadIn: 0
PreviewTime: 52657
Countdown: 0
SampleSet: Soft
StackLeniency: 0.7
Mode: 3
LetterboxInBreaks: 0
SpecialStyle: 0
WidescreenStoryboard: 1

[Editor]
DistanceSpacing: 1.5
BeatDivisor: 16
GridSize: 4
TimelineZoom: 2.1

[Metadata]
Title:azure (TV Size)
TitleUnicode:azure (TV Size)
Artist:TrySail
ArtistUnicode:TrySail
Creator:- Ly0572 -
Version:Normal
Source:続・終物語
Tags:Zoku Owarimonogatari Ending ED Monogatari Series ZokuOwarimonogatari Koyomi Araragi Reverse Final Season Sora Amamiya Momo Asakura Shiina Natsukawa 麻倉もも 雨宮天 夏川椎菜 Jpop Japanese Anime
BeatmapID:1982770
BeatmapSetID:949521

[Difficulty]
HPDrainRate:7.2
CircleSize:4
OverallDifficulty:7.2
ApproachRate:5
SliderMultiplier:1.4
SliderTickRate:1

[Events]
//Background and Video events
0,0,"azurezoku2.jpg",0,0
//Break Periods
//Storyboard Layer 0 (Background)
//Storyboard Layer 1 (Fail)
//Storyboard Layer 2 (Pass)
//Storyboard Layer 3 (Foreground)
//Storyboard Layer 4 (Overlay)
//Storyboard Sound Samples

[TimingPoints]
1336,428.571428571429,4,2,1,40,1,0
52764,-100,4,2,1,40,0,1
65621,-100,4,2,1,40,0,0
66478,-100,4,2,1,40,0,1
80193,-100,4,2,1,40,0,0
82764,609.137055837563,4,2,1,40,1,0
82764,-70.4225352112676,4,2,1,40,0,0
83982,609.137055837563,4,2,1,40,1,0
83982,-70.4225352112676,4,2,1,40,0,0
85074,428.571428571429,4,2,1,40,1,0

[HitObjects]
448,192,1121,128,0,1336:0:0:0:0:
320,192,1336,1,0,0:0:0:0:
64,192,1336,1,0,0:0:0:0:
192,192,1550,1,0,0:0:0:0:
320,192,1764,1,0,0:0:0:0:
448,192,1978,1,0,0:0:0:0:
64,192,2407,1,0,0:0:0:0:
192,192,2621,1,0,0:0:0:0:
320,192,2836,1,0,0:0:0:0:
448,192,3050,1,0,0:0:0:0:
64,192,3050,1,0,0:0:0:0:
192,192,3264,1,0,0:0:0:0:
320,192,3478,1,0,0:0:0:0:
448,192,3693,1,0,0:0:0:0:
64,192,3907,1,0,0:0:0:0:
192,192,4336,1,0,0:0:0:0:
320,192,4764,1,0,0:0:0:0:
448,192,4764,1,0,0:0:0:0:
64,192,5621,1,0,0:0:0:0:
192,192,5621,1,0,0:0:0:0:
448,192,5836,1,0,0:0:0:0:
320,192,6050,1,0,0:0:0:0:
192,192,6264,1,0,0:0:0:0:
64,192,6478,1,0,0:0:0:0:
448,192,6478,1,0,0:0:0:0:
192,192,7336,1,0,0:0:0:0:
64,192,7550,1,2,0:0:0:0:
448,192,7550,1,0,0:0:0:0:
320,192,7764,1,8,0:0:0:0:
192,192,7764,128,0,8193:0:0:0:0:
64,192,8193,1,2,0:0:0:0:
448,192,8193,1,0,0:0:0:0:
320,192,8407,1,0,0:0:0:0:
64,192,8621,1,2,0:0:0:0:
192,192,8621,1,0,0:0:0:0:
448,192,8836,1,0,0:0:0:0:
64,192,9050,1,2,0:0:0:0:
320,192,9050,1,0,0:0:0:0:
192,192,9264,1,0,0:0:0:0:
448,192,9478,1,2,0:0:0:0:
320,192,9478,1,0,0:0:0:0:
64,192,9693,1,0,0:0:0:0:
192,192,9907,1,2,0:0:0:0:
320,192,9907,1,0,0:0:0:0:
448,192,10121,1,0,0:0:0:0:
64,192,10336,1,2,0:0:0:0:
320,192,10336,1,0,0:0:0:0:
192,192,10550,1,0,0:0:0:0:
448,192,10764,1,2,0:0:0:0:
320,192,10764,1,0,0:0:0:0:
64,192,10978,1,0,0:0:0:0:
192,192,11193,1,2,0:0:0:0:
320,192,11193,1,0,0:0:0:0:
448,192,11407,1,0,0:0:0:0:
64,192,11621,1,4,0:0:0:0:
320,192,11621,1,2,0:0:0:0:
192,192,12050,1,2,0:0:0:0:
448,192,12050,1,0,0:0:0:0:
64,192,12264,1,0,0:0:0:0:
192,192,12478,1,2,0:0:0:0:
320,192,12478,1,0,0:0:0:0:
448,192,12693,1,0,0:0:0:0:
64,192,12907,1,2,0:0:0:0:
320,192,12907,1,0,0:0:0:0:
192,192,13121,1,0,0:0:0:0:
448,192,13336,1,2,0:0:0:0:
64,192,13336,1,0,0:0:0:0:
320,192,13550,1,0,0:0:0:0:
64,192,13764,1,2,0:0:0:0:
192,192,13764,1,0,0:0:0:0:
448,192,13978,1,0,0:0:0:0:
64,192,14193,1,2,0:0:0:0:
320,192,14193,1,0,0:0:0:0:
192,192,14407,1,0,0:0:0:0:
448,192,14621,1,2,0:0:0:0:
320,192,14621,1,0,0:0:0:0:
64,192,14836,1,0,0:0:0:0:
192,192,15050,1,2,0:0:0:0:
448,192,15050,1,0,0:0:0:0:
320,192,15264,1,0,0:0:0:0:
64,192,15478,1,2,0:0:0:0:
448,192,15478,1,0,0:0:0:0:
192,192,15693,1,0,0:0:0:0:
64,192,15907,1,2,0:0:0:0:
320,192,15907,1,0,0:0:0:0:
448,192,16121,1,0,0:0:0:0:
192,192,16336,1,2,0:0:0:0:
64,192,16336,1,0,0:0:0:0:
320,192,16550,1,0,0:0:0:0:
448,192,16764,1,2,0:0:0:0:
64,192,16764,1,0,0:0:0:0:
192,192,16978,1,0,0:0:0:0:
448,192,17193,1,2,0:0:0:0:
320,192,17193,1,0,0:0:0:0:
64,192,17407,1,0,0:0:0:0:
192,192,17621,1,2,0:0:0:0:
448,192,17621,1,0,0:0:0:0:
320,192,17836,1,0,0:0:0:0:
64,192,18050,1,2,0:0:0:0:
192,192,18050,1,0,0:0:0:0:
448,192,18264,1,0,0:0:0:0:
64,192,18478,1,2,0:0:0:0:
320,192,18478,1,0,0:0:0:0:
192,192,18693,1,0,0:0:0:0:
448,192,18907,1,2,0:0:0:0:
64,192,18907,1,0,0:0:0:0:
320,192,19121,1,0,0:0:0:0:
64,192,19336,1,2,0:0:0:0:
192,192,19336,1,0,0:0:0:0:
448,192,19550,1,0,0:0:0:0:
64,192,19764,1,2,0:0:0:0:
320,192,19764,1,0,0:0:0:0:
192,192,19978,1,0,0:0:0:0:
320,192,20193,1,2,0:0:0:0:
448,192,20193,1,0,0:0:0:0:
64,192,20407,1,0,0:0:0:0:
448,192,20621,1,2,0:0:0:0:
192,192,20621,1,0,0:0:0:0:
320,192,20836,1,0,0:0:0:0:
192,192,21050,1,2,0:0:0:0:
64,192,21050,1,0,0:0:0:0:
320,192,21264,1,0,0:0:0:0:
448,192,21478,128,2,21907:0:0:0:0:
192,192,21693,1,0,0:0:0:0:
64,192,21907,1,4,0:0:0:0:
320,192,21907,1,2,0:0:0:0:
192,192,22550,128,0,23193:0:0:0:0:
320,192,23193,128,0,23621:0:0:0:0:
448,192,23621,1,8,0:0:0:0:
192,192,23836,1,4,0:0:0:0:
64,192,23836,1,2,0:0:0:0:
448,192,24264,128,4,24693:0:0:0:0:
320,192,24264,1,2,0:0:0:0:
192,192,24693,1,2,0:0:0:0:
448,192,24907,1,8,0:0:0:0:
64,192,24907,1,0,0:0:0:0:
320,192,25121,1,8,0:0:0:0:
64,192,25336,128,2,25764:0:0:0:0:
192,192,25336,1,4,0:0:0:0:
320,192,25764,1,8,0:0:0:0:
448,192,25764,1,0,0:0:0:0:
192,192,25978,1,2,0:0:0:0:
320,192,26193,1,2,0:0:0:0:
448,192,26407,1,2,0:0:0:0:
320,192,26621,1,8,0:0:0:0:
64,192,26621,1,0,0:0:0:0:
192,192,27050,1,2,0:0:0:0:
192,192,27264,1,2,0:0:0:0:
448,192,27478,1,8,0:0:0:0:
64,192,27478,1,0,0:0:0:0:
320,192,27693,1,2,0:0:0:0:
192,192,27907,1,2,0:0:0:0:
320,192,28121,1,2,0:0:0:0:
64,192,28336,1,8,0:0:0:0:
448,192,28336,1,0,0:0:0:0:
320,192,28764,1,2,0:0:0:0:
320,192,28978,1,2,0:0:0:0:
64,192,29193,1,8,0:0:0:0:
448,192,29193,1,0,0:0:0:0:
192,192,29407,1,2,0:0:0:0:
320,192,29621,1,2,0:0:0:0:
192,192,29836,1,2,0:0:0:0:
448,192,30050,1,8,0:0:0:0:
64,192,30050,1,0,0:0:0:0:
192,192,30478,1,2,0:0:0:0:
192,192,30693,1,2,0:0:0:0:
320,192,30907,1,8,0:0:0:0:
448,192,30907,1,0,0:0:0:0:
64,192,31121,1,2,0:0:0:0:
192,192,31336,1,2,0:0:0:0:
320,192,31550,1,2,0:0:0:0:
448,192,31764,1,8,0:0:0:0:
64,192,31764,1,0,0:0:0:0:
448,192,32193,1,2,0:0:0:0:
192,192,32193,1,4,0:0:0:0:
320,192,32407,1,2,0:0:0:0:
192,192,32621,1,8,0:0:0:0:
64,192,32621,1,0,0:0:0:0:
320,192,32836,128,4,33264:0:0:0:0:
448,192,32836,1,2,0:0:0:0:
64,192,33264,1,2,0:0:0:0:
448,192,33478,1,8,0:0:0:0:
192,192,33478,1,0,0:0:0:0:
320,192,33693,1,8,0:0:0:0:
64,192,33907,1,2,0:0:0:0:
448,192,33907,1,4,0:0:0:0:
192,192,34121,1,2,0:0:0:0:
320,192,34336,1,8,0:0:0:0:
448,192,34336,1,0,0:0:0:0:
64,192,34550,1,2,0:0:0:0:
192,192,34550,128,4,34978:0:0:0:0:
448,192,34978,1,2,0:0:0:0:
320,192,35193,1,8,0:0:0:0:
64,192,35193,1,0,0:0:0:0:
448,192,35621,128,2,36050:0:0:0:0:
192,192,35621,1,4,0:0:0:0:
320,192,36050,1,8,0:0:0:0:
64,192,36050,1,0,0:0:0:0:
192,192,36264,1,2,0:0:0:0:
64,192,36478,1,8,0:0:0:0:
448,192,36478,1,0,0:0:0:0:
320,192,36693,1,2,0:0:0:0:
192,192,36907,1,8,0:0:0:0:
64,192,37121,1,4,0:0:0:0:
448,192,37121,1,2,0:0:0:0:
320,192,37550,1,2,0:0:0:0:
64,192,37764,1,8,0:0:0:0:
192,192,37764,1,0,0:0:0:0:
448,192,37978,1,2,0:0:0:0:
64,192,38193,1,8,0:0:0:0:
320,192,38193,1,0,0:0:0:0:
192,192,38407,1,2,0:0:0:70:tom.wav
192,192,38621,1,2,0:0:0:70:tom.wav
64,192,39050,1,2,0:0:0:0:
448,192,39050,128,4,39693:0:0:0:0:
192,192,39693,1,2,0:0:0:0:
448,192,39907,128,2,40336:0:0:0:0:
320,192,40336,1,8,0:0:0:0:
64,192,40336,1,0,0:0:0:0:
64,192,40764,128,2,41407:0:0:0:0:
320,192,41407,1,2,0:0:0:0:
64,192,41621,128,2,42050:0:0:0:0:
192,192,42050,1,8,0:0:0:0:
448,192,42050,1,0,0:0:0:0:
320,192,42478,128,2,43121:0:0:0:0:
192,192,43121,1,2,0:0:0:0:
320,192,43336,128,2,43764:0:0:0:0:
64,192,43764,1,8,0:0:0:0:
448,192,43764,1,0,0:0:0:0:
192,192,44193,128,2,44836:0:0:0:0:
64,192,44836,1,2,0:0:0:0:
448,192,45050,1,4,0:0:0:0:
320,192,45050,1,8,0:0:0:0:
192,192,45264,1,2,0:0:0:0:
64,192,45478,1,0,0:0:0:70:tom.wav
320,192,45907,1,4,0:0:0:0:
448,192,45907,1,2,0:0:0:0:
192,192,46336,1,8,0:0:0:0:
64,192,46336,128,0,46764:0:0:0:0:
320,192,46764,1,2,0:0:0:0:
448,192,46764,1,0,0:0:0:0:
192,192,47193,1,8,0:0:0:0:
64,192,47193,1,0,0:0:0:0:
320,192,47621,1,0,0:0:0:0:
448,192,47621,128,2,48050:0:0:0:0:
64,192,48050,1,8,0:0:0:0:
192,192,48050,1,0,0:0:0:0:
64,192,48478,1,2,0:0:0:0:
448,192,48478,1,0,0:0:0:0:
320,192,48693,1,8,0:0:0:0:
64,192,48907,1,8,0:0:0:0:
320,192,49014,1,8,0:0:0:0:
192,192,49121,1,8,0:0:0:0:
448,192,49228,1,8,0:0:0:0:
192,192,49336,1,2,0:0:0:0:
64,192,49336,128,4,51050:0:0:0:0:
448,192,51264,1,8,0:0:0:0:
320,192,51264,1,2,0:0:0:0:
192,192,51478,1,8,0:0:0:0:
64,192,51478,1,2,0:0:0:0:
192,192,51693,1,8,0:0:0:0:
64,192,51693,1,2,0:0:0:0:
320,192,51907,1,2,0:0:0:0:
448,192,51907,1,8,0:0:0:0:
192,192,52121,1,2,0:0:0:0:
448,192,52336,1,4,0:0:0:0:
64,192,52336,128,8,52764:0:0:0:0:
192,192,52764,1,2,0:0:0:0:
320,192,52764,1,4,0:0:0:0:
320,192,52978,1,2,0:0:0:0:
64,192,53193,1,8,0:0:0:0:
448,192,53193,1,2,0:0:0:0:
320,192,53407,1,2,0:0:0:0:
192,192,53621,1,2,0:0:0:0:
192,192,53836,1,2,0:0:0:0:
64,192,54050,1,2,0:0:0:0:
320,192,54050,1,8,0:0:0:0:
448,192,54264,1,2,0:0:0:0:
320,192,54478,1,2,0:0:0:0:
320,192,54693,1,2,0:0:0:0:
192,192,54907,1,8,0:0:0:0:
64,192,54907,1,2,0:0:0:0:
448,192,55121,1,2,0:0:0:0:
64,192,55336,1,2,0:0:0:0:
64,192,55550,1,2,0:0:0:0:
192,192,55764,1,2,0:0:0:0:
320,192,55764,1,8,0:0:0:0:
448,192,55978,1,2,0:0:0:0:
192,192,56193,1,2,0:0:0:0:
192,192,56407,1,2,0:0:0:0:
64,192,56621,1,8,0:0:0:0:
448,192,56621,1,2,0:0:0:0:
320,192,56836,1,2,0:0:0:0:
448,192,57050,1,2,0:0:0:0:
448,192,57264,1,2,0:0:0:0:
192,192,57478,1,8,0:0:0:0:
64,192,57478,1,2,0:0:0:0:
448,192,57693,1,2,0:0:0:0:
320,192,57800,1,2,0:0:0:0:
192,192,57907,1,2,0:0:0:0:
192,192,58121,1,2,0:0:0:0:
448,192,58336,1,2,0:0:0:0:
64,192,58336,1,8,0:0:0:0:
320,192,58550,1,2,0:0:0:0:
64,192,58764,1,2,0:0:0:0:
320,192,58871,1,8,0:0:0:0:
192,192,58978,1,8,0:0:0:0:
448,192,59086,1,8,0:0:0:0:
64,192,59193,5,8,0:0:0:0:
192,192,59193,1,2,0:0:0:0:
448,192,59407,1,8,0:0:0:0:
320,192,59514,1,8,0:0:0:0:
64,192,59621,1,4,0:0:0:0:
192,192,59621,1,2,0:0:0:0:
192,192,59836,1,2,0:0:0:0:
448,192,60050,1,8,0:0:0:0:
64,192,60050,1,2,0:0:0:0:
320,192,60264,1,2,0:0:0:0:
64,192,60478,1,2,0:0:0:0:
64,192,60693,1,2,0:0:0:0:
448,192,60907,1,2,0:0:0:0:
192,192,60907,1,8,0:0:0:0:
64,192,61121,1,2,0:0:0:0:
448,192,61336,1,2,0:0:0:0:
448,192,61550,1,2,0:0:0:0:
192,192,61764,1,8,0:0:0:0:
320,192,61764,1,2,0:0:0:0:
64,192,61978,1,2,0:0:0:0:
320,192,62193,1,2,0:0:0:0:
320,192,62407,1,2,0:0:0:0:
64,192,62621,1,2,0:0:0:0:
448,192,62621,1,8,0:0:0:0:
192,192,62836,1,2,0:0:0:0:
320,192,63050,1,2,0:0:0:0:
448,192,63264,128,0,63478:0:0:0:70:Hit Hat.wav
192,192,63478,1,4,0:0:0:0:
64,192,63478,1,8,0:0:0:0:
320,192,63693,1,2,0:0:0:0:
192,192,63907,1,2,0:0:0:0:
64,192,64121,128,0,64336:0:0:0:70:Hit Hat.wav
320,192,64336,1,4,0:0:0:0:
448,192,64336,1,8,0:0:0:0:
192,192,64550,1,2,0:0:0:0:
448,192,64764,1,8,0:0:0:0:
64,192,64764,1,2,0:0:0:0:
320,192,64978,1,2,0:0:0:0:
192,192,64978,1,8,0:0:0:0:
448,192,65193,1,2,0:0:0:0:
64,192,65193,1,8,0:0:0:0:
320,192,65407,1,2,0:0:0:0:
64,192,65621,1,8,0:0:0:0:
448,192,65621,1,2,0:0:0:0:
192,192,65836,1,2,0:0:0:0:
448,192,66050,1,10,0:0:0:0:
192,192,66157,1,8,0:0:0:0:
320,192,66264,1,8,0:0:0:0:
64,192,66371,1,8,0:0:0:0:
320,192,66478,1,6,0:0:0:0:
448,192,66478,1,8,0:0:0:0:
192,192,66693,1,2,0:0:0:0:
64,192,66907,1,8,0:0:0:0:
448,192,66907,1,2,0:0:0:0:
320,192,67121,1,2,0:0:0:0:
192,192,67336,1,2,0:0:0:0:
64,192,67550,1,2,0:0:0:0:
448,192,67764,1,2,0:0:0:0:
192,192,67764,1,8,0:0:0:0:
320,192,67978,1,2,0:0:0:0:
192,192,68193,1,2,0:0:0:0:
64,192,68407,1,2,0:0:0:0:
320,192,68621,1,2,0:0:0:0:
192,192,68621,1,8,0:0:0:0:
448,192,68836,1,2,0:0:0:0:
64,192,69050,1,2,0:0:0:0:
320,192,69264,1,2,0:0:0:0:
192,192,69478,1,2,0:0:0:0:
64,192,69478,1,8,0:0:0:0:
448,192,69693,1,2,0:0:0:0:
192,192,69907,1,2,0:0:0:0:
320,192,70121,1,2,0:0:0:0:
448,192,70336,1,2,0:0:0:0:
64,192,70336,1,8,0:0:0:0:
192,192,70550,1,2,0:0:0:0:
320,192,70764,1,2,0:0:0:0:
448,192,70978,1,2,0:0:0:0:
64,192,71193,1,2,0:0:0:0:
320,192,71193,1,8,0:0:0:0:
192,192,71407,1,2,0:0:0:0:
320,192,71621,1,2,0:0:0:0:
448,192,71836,1,2,0:0:0:0:
192,192,72050,1,2,0:0:0:0:
320,192,72050,1,8,0:0:0:0:
64,192,72264,1,2,0:0:0:0:
448,192,72478,1,2,0:0:0:0:
192,192,72693,1,2,0:0:0:0:
448,192,72907,1,8,0:0:0:0:
64,192,72907,1,2,0:0:0:0:
320,192,73014,1,2,0:0:0:0:
192,192,73121,1,0,0:0:0:70:tom.wav
448,192,73336,1,8,0:0:0:0:
64,192,73336,1,4,0:0:0:0:
64,192,73764,1,8,0:0:0:0:
192,192,73764,1,0,0:0:0:0:
448,192,73978,1,2,0:0:0:0:
192,192,74193,1,8,0:0:0:0:
320,192,74193,1,0,0:0:0:0:
64,192,74407,1,2,0:0:0:0:
320,192,74621,1,8,0:0:0:0:
448,192,74621,1,0,0:0:0:0:
192,192,74836,1,2,0:0:0:0:
64,192,75050,1,4,0:0:0:0:
448,192,75050,1,8,0:0:0:0:
448,192,75478,1,8,0:0:0:0:
320,192,75478,1,0,0:0:0:0:
64,192,75693,1,2,0:0:0:0:
320,192,75907,1,8,0:0:0:0:
192,192,75907,1,0,0:0:0:0:
448,192,76121,1,2,0:0:0:0:
192,192,76336,1,8,0:0:0:0:
64,192,76336,1,4,0:0:0:0:
320,192,76550,1,2,0:0:0:0:
64,192,76764,1,4,0:0:0:0:
448,192,76764,1,2,0:0:0:0:
192,192,76978,1,2,0:0:0:0:
320,192,77193,1,8,0:0:0:0:
448,192,77407,128,4,77621:0:0:0:0:
64,192,77407,1,2,0:0:0:0:
448,192,77836,1,2,0:0:0:0:
320,192,78050,1,8,0:0:0:0:
64,192,78264,128,2,78478:0:0:0:0:
192,192,78264,1,4,0:0:0:0:
320,192,78693,1,10,0:0:0:0:
192,192,78800,1,0,0:0:0:0:
64,192,78907,1,8,0:0:0:0:
448,192,78907,1,2,0:0:0:0:
320,192,79121,5,2,0:0:0:0:
64,192,79336,1,2,0:0:0:0:
192,192,79336,1,8,0:0:0:0:
448,192,79550,1,0,0:0:0:70:tom.wav
320,192,79764,128,2,80193:0:0:0:0:
64,192,80193,1,2,0:0:0:0:
192,192,80193,1,4,0:0:0:0:
448,192,80621,1,0,0:0:0:70:Hit Hat.wav
64,192,80836,1,2,0:0:0:0:
192,192,81264,1,0,0:0:0:0:
320,192,81478,1,0,0:0:0:70:Hit Hat.wav
64,192,81693,1,0,0:0:0:0:
448,192,81907,1,2,0:0:0:0:
320,192,82121,1,0,0:0:0:0:
64,192,82336,1,0,0:0:0:70:Hit Hat.wav
192,192,82550,1,0,0:0:0:0:
320,192,82764,5,0,0:0:0:0:
448,192,83373,1,0,0:0:0:0:
192,192,83982,1,4,0:0:0:0:
64,192,83982,1,2,0:0:0:0:
320,192,85074,128,0,85315:0:0:0:0:
192,192,85315,1,0,0:0:0:0:
