osu file format v14

[General]
AudioFilename: audio.mp3
AudioLeadIn: 0
PreviewTime: 51829
Countdown: 1
SampleSet: Soft
StackLeniency: 0.7
Mode: 0
LetterboxInBreaks: 0
WidescreenStoryboard: 1

[Editor]
DistanceSpacing: 1
BeatDivisor: 4
GridSize: 4
TimelineZoom: 1

[Metadata]
Title:azure (TV Size)
TitleUnicode:azure (TV Size)
Artist:TrySail
ArtistUnicode:TrySail
Creator:deetz
Version:Reflection
Source:続・終物語
Tags:ending ed monogatari Zoku Owarimonogatari zokuowarimonogatari koyomi reverse vinxis anime japanese
BeatmapID:1968966
BeatmapSetID:942837

[Difficulty]
HPDrainRate:5
CircleSize:4
OverallDifficulty:8
ApproachRate:8
SliderMultiplier:1.6
SliderTickRate:1

[Events]
//Background and Video events
0,0,"zoku.png",0,0
//Break Periods
//Storyboard Layer 0 (Background)
//Storyboard Layer 1 (Fail)
//Storyboard Layer 2 (Pass)
//Storyboard Layer 3 (Foreground)
//Storyboard Sound Samples

[TimingPoints]
508,428.571428571429,4,2,1,40,1,0
508,-166.666666666667,4,2,1,40,0,0
7365,-111.111111111111,4,2,1,60,0,0
10793,-133.333333333333,4,2,1,50,0,0
21079,-200,4,2,1,30,0,0
22793,-166.666666666667,4,2,1,70,0,0
23436,-100,4,2,1,70,0,0
24508,-111.111111111111,4,2,1,60,0,0
38222,-133.333333333333,4,2,1,45,0,0
45079,-100,4,2,1,60,0,0
48508,-200,4,2,1,50,0,0
50436,-100,4,2,1,70,0,0
51508,-100,4,2,1,70,0,0
51936,-90.9090909090909,4,2,1,70,0,1
79365,-200,4,2,1,40,0,0
81936,609.137055837563,4,2,1,40,1,0
81936,-200,4,2,1,40,0,0
88331,-200,4,2,1,5,0,0

[Colours]
Combo1 : 255,94,55
Combo2 : 173,255,95
Combo3 : 17,254,176
Combo4 : 255,88,100

[HitObjects]
65,175,508,6,0,P|70:202|75:237,2,47.9999985351563,2|0|0,0:0|0:0|0:0,0:0:0:0:
134,137,1150,2,0,P|140:177|151:244,1,95.9999970703126,0|2,0:0|0:0,0:0:0:0:
301,113,1793,1,2,0:0:0:0:
301,113,2008,1,2,0:0:0:0:
216,173,2222,6,0,L|267:186,1,47.9999985351563
380,214,2650,2,0,L|333:225,1,47.9999985351563
446,161,3079,1,2,0:0:0:0:
472,162,3508,1,2,0:0:0:0:
512,354,3936,6,0,L|452:373,1,47.9999985351563,2|0,0:0|0:0,0:0:0:0:
409,307,4365,2,0,L|469:288,1,47.9999985351563
314,354,4793,5,0,0:0:0:0:
314,354,5008,2,0,L|256:344,1,47.9999985351563,2|2,0:0|0:0,0:0:0:0:
195,335,5436,1,2,0:0:0:0:
12,313,5650,6,0,L|74:305,1,47.9999985351563
165,228,6079,2,0,L|103:236,1,47.9999985351563
0,180,6508,1,0,0:0:0:0:
70,169,6722,1,4,0:3:0:0:
137,15,6936,5,8,0:1:0:0:
137,15,7365,6,0,P|147:59|155:169,1,143.999995605469,4|4,0:3|0:3,0:0:0:0:
210,203,8008,2,0,L|213:257,2,35.9999989013672,0|0|4,0:0|0:0|0:3,0:0:0:0:
285,76,8436,5,0,0:0:0:0:
362,175,8650,1,4,0:3:0:0:
337,28,8865,1,0,0:0:0:0:
300,211,9079,6,0,P|305:282|300:354,1,143.999995605469,4|4,0:3|0:3,0:0:0:0:
471,306,9722,1,0,0:0:0:0:
471,306,9936,2,0,P|469:268|470:227,1,71.9999978027344,4|0,0:3|0:0,0:0:0:0:
385,272,10365,1,4,0:3:0:0:
385,272,10793,6,0,P|327:256|267:249,1,120.000004577637,4|0,3:2|3:0,0:0:0:0:
227,309,11436,1,0,0:0:0:0:
170,204,11650,2,0,P|124:217|74:294,2,120.000004577637,2|2|2,3:2|3:2|3:2,0:0:0:0:
53,39,12936,1,0,3:2:0:0:
53,39,13150,2,0,P|93:42|128:50,1,60.0000022888184,2|0,0:0|3:0,0:0:0:0:
145,126,13579,2,0,P|115:120|85:119,1,60.0000022888184,2|0,0:0|3:0,0:0:0:0:
205,82,14008,1,0,0:0:0:0:
312,39,14222,6,0,P|352:29|436:20,1,120.000004577637,2|0,3:2|3:0,0:0:0:0:
495,189,15079,2,0,P|505:226|510:251,1,60.0000022888184,2|0,3:2|0:0,0:0:0:0:
387,178,15508,1,2,3:2:0:0:
387,178,15936,6,0,P|403:232|417:299,1,120.000004577637,2|0,3:2|3:2,0:0:0:0:
190,200,16579,2,0,P|248:193|313:184,1,120.000004577637,2|2,0:0|0:0,0:0:0:0:
185,278,17222,2,0,L|258:269,1,60.0000022888184,2|0,3:2|0:0,0:0:0:0:
132,148,17650,6,0,P|84:175|62:243,1,120.000004577637,2|0,3:2|3:2,0:0:0:0:
83,308,18293,1,0,0:0:0:0:
83,308,18722,1,2,0:0:0:0:
257,288,18936,2,0,P|254:319|249:361,1,60.0000022888184,2|0,3:2|0:0,0:0:0:0:
168,244,19365,6,0,P|166:305|170:369,1,120.000004577637,2|0,3:2|3:0,0:0:0:0:
333,317,20008,2,0,P|373:311|465:303,1,120.000004577637,2|0,0:0|0:0,0:0:0:0:
284,252,20650,2,0,L|347:233,1,60.0000022888184,2|2,3:2|0:0,0:0:0:0:
446,113,21079,5,4,0:2:0:0:
446,113,21722,2,0,P|410:106|322:98,1,120
327,98,22793,5,4,0:0:0:0:
90,24,23008,2,0,P|62:24|27:28,1,47.9999985351563,4|4,0:0|0:3,0:0:0:0:
42,26,23436,6,0,B|68:24|93:30|93:30|112:42|132:62|132:62|159:70|197:72,1,160,4|0,0:0|0:0,0:0:0:0:
260,25,24079,5,8,0:0:0:0:
120,208,24293,1,4,0:3:0:0:
120,208,24400,1,4,0:3:0:0:
120,208,24508,1,4,0:2:0:0:
120,208,24936,6,0,P|112:248|104:304,1,71.9999978027344,8|0,0:0|0:0,0:0:0:0:
166,379,25365,2,0,P|171:343|178:308,1,71.9999978027344,0|4,0:0|0:3,0:0:0:0:
228,151,25793,2,0,P|235:200|246:269,1,107.999996704102,8|0,0:0|0:0,0:0:0:0:
244,257,26222,6,4,L|322:251,1,71.9999978027344,4|4,0:3|0:3,0:3:0:0:
367,182,26650,1,8,0:0:0:0:
283,333,26865,2,0,P|348:330|431:358,1,143.999995605469,0|4,0:0|0:3,0:0:0:0:
506,213,27508,2,0,L|501:132,1,71.9999978027344,8|0,0:0|0:0,0:0:0:0:
421,261,27936,5,4,0:3:0:0:
421,261,28150,1,4,0:3:0:0:
505,66,28365,2,0,P|462:59|384:69,1,107.999996704102,8|0,0:0|0:0,0:0:0:0:
398,64,28793,2,0,P|357:47|323:39,1,71.9999978027344,0|4,0:0|0:3,0:0:0:0:
171,36,29222,2,0,P|205:45|238:60,1,71.9999978027344,8|0,0:0|0:0,0:0:0:0:
17,172,29650,5,4,0:3:0:0:
17,172,29865,1,4,0:3:0:0:
152,135,30079,1,8,0:0:0:0:
32,87,30293,2,0,P|53:155|66:226,1,143.999995605469,0|4,0:0|0:3,0:0:0:0:
196,358,30936,1,8,0:0:0:0:
196,358,31365,5,4,0:0:0:0:
181,178,31579,1,4,0:0:0:0:
35,283,31793,1,4,0:3:0:0:
260,289,32008,2,0,P|208:273|121:252,1,143.999995605469,4|4,0:0|0:3,0:0:0:0:
333,337,32650,2,0,P|384:327|408:321,1,71.9999978027344,8|4,0:0|0:3,0:0:0:0:
498,122,33079,5,4,0:0:0:0:
321,155,33293,1,4,0:0:0:0:
481,244,33508,1,4,0:3:0:0:
400,87,33722,6,0,P|360:61|249:70,1,143.999995605469,4|4,0:0|0:3,0:0:0:0:
395,186,34365,2,0,P|398:225|405:279,1,71.9999978027344,8|4,0:0|0:3,0:0:0:0:
459,33,34793,5,4,0:0:0:0:
459,33,35008,1,4,0:3:0:0:
394,95,35222,5,8,0:0:0:0:
466,124,35436,1,4,0:3:0:0:
200,84,35650,5,8,0:0:0:0:
351,30,35865,1,4,0:3:0:0:
321,186,36079,1,4,0:3:0:0:
294,103,36293,5,4,0:0:0:0:
294,103,36722,1,4,0:3:0:0:
414,260,36936,1,8,0:0:0:0:
434,133,37150,1,4,0:3:0:0:
266,235,37365,1,8,0:0:0:0:
266,235,37579,1,8,0:3:0:0:
351,181,37793,5,4,0:3:0:0:
447,329,38008,5,2,0:0:0:0:
447,329,38222,2,0,P|391:345|324:305,1,120.000004577637,4|0,0:1|0:0,0:0:0:0:
273,354,38865,1,2,0:0:0:0:
273,354,39079,2,0,P|217:370|150:330,1,120.000004577637,2|8,0:0|0:0,0:0:0:0:
92,362,39722,1,2,0:0:0:0:
92,362,39936,2,0,B|69:264|111:288|84:183,1,180.000006866455,2|2,0:0|0:0,0:0:0:0:
28,138,40793,2,0,P|25:98|86:52,1,120.000004577637,2|8,0:0|0:0,0:0:0:0:
209,96,41436,5,2,0:0:0:0:
209,96,41650,2,0,P|254:83|327:83,1,120.000004577637,2|0,0:0|0:0,0:0:0:0:
396,145,42293,1,2,0:0:0:0:
396,145,42507,2,0,P|351:158|278:158,1,120.000004577637,2|8,0:0|0:0,0:0:0:0:
246,225,43150,1,2,0:0:0:0:
246,225,43365,2,0,P|200:250|200:368,1,180.000006866455,2|0,0:0|0:0,0:0:0:0:
272,359,44222,5,4,0:3:0:0:
272,359,44436,1,4,0:3:0:0:
488,329,44650,5,8,0:1:0:0:
488,329,45079,5,4,0:3:0:0:
488,233,45293,1,0,0:3:0:0:
404,280,45508,1,8,0:0:0:0:
261,223,45722,6,0,P|260:263|256:303,1,80,0|4,0:0|0:3,0:0:0:0:
165,344,46150,2,0,P|166:304|170:264,1,80,0|8,0:0|0:0,0:0:0:0:
34,135,46579,1,4,0:3:0:0:
34,135,46793,5,4,0:3:0:0:
102,205,47008,1,0,0:0:0:0:
27,264,47222,1,8,0:0:0:0:
35,40,47436,6,0,P|80:67|107:82,1,80,0|4,0:0|0:3,0:0:0:0:
320,63,47865,1,0,0:0:0:0:
177,199,48079,2,8,P|173:176|169:130,3,40
246,73,48508,6,0,B|238:248|272:165|262:359,1,280,4|0,0:1|0:0,0:0:0:0:
262,351,50436,5,4,1:2:0:0:
511,325,50650,1,4,1:2:0:0:
485,76,50865,1,4,1:2:0:0:
236,102,51079,2,0,P|243:159|252:190,1,80,4|4,1:2|0:3,0:0:0:0:
350,231,51508,5,8,0:1:0:0:
350,231,51936,5,4,0:1:0:0:
512,93,52150,1,4,0:3:0:0:
290,8,52365,1,8,0:1:0:0:
428,183,52579,6,4,P|422:95|424:7,1,176.000005371094,4|4,0:3|0:3,0:3:0:0:
305,188,53222,2,0,P|308:243|308:284,1,88.000002685547,8|0,0:1|0:1,0:1:0:0:
181,345,53650,5,4,0:3:0:0:
19,207,53864,1,4,0:3:0:0:
241,122,54079,1,8,0:1:0:0:
103,297,54293,6,4,P|109:209|107:121,1,176.000005371094,4|4,0:3|0:3,0:3:0:0:
278,255,54936,2,0,P|220:253|187:254,1,88.000002685547,8|4,0:1|0:3,0:1:0:0:
378,384,55365,5,4,0:3:0:0:
512,138,55579,1,4,0:3:0:0:
378,384,55793,1,8,0:1:0:0:
434,196,56008,2,4,B|432:305|478:252|472:364,1,176.000005371094,4|4,0:3|0:3,0:3:0:0:
349,172,56650,2,0,P|351:215|356:259,1,88.000002685547,8|4,0:1|0:3,0:1:0:0:
269,282,57079,5,4,0:3:0:0:
72,270,57293,1,4,0:3:0:0:
84,73,57508,1,8,0:1:0:0:
281,85,57722,1,4,0:3:0:0:
156,224,57936,6,0,P|156:187|160:133,1,88.000002685547,4|0,0:3|0:1,0:1:0:0:
244,188,58365,1,8,0:1:0:0:
244,188,58579,1,8,0:1:0:0:
417,48,58793,5,4,0:1:0:0:
327,309,59008,1,0,0:1:0:0:
512,149,59222,1,8,0:1:0:0:
274,82,59436,6,0,P|197:74|162:68,1,88.000002685547,4|0,0:3|0:3,0:1:0:0:
353,238,59865,2,0,P|430:246|465:252,1,88.000002685547,4|8,0:3|0:1,0:1:0:0:
508,69,60293,1,0,0:1:0:0:
508,69,60508,5,4,0:3:0:0:
411,349,60722,1,4,0:3:0:0:
374,40,60936,1,8,0:1:0:0:
482,203,61150,2,4,P|394:209|307:225,1,176.000005371094,4|4,0:3|0:3,0:3:0:0:
222,201,61793,1,8,0:1:0:0:
512,94,62008,5,4,0:3:0:0:
512,94,62222,1,4,0:3:0:0:
308,226,62436,2,0,L|401:252,1,88.000002685547,8|0,0:1|0:2,0:2:0:0:
471,16,62865,5,4,0:3:0:0:
471,16,63079,1,4,0:3:0:0:
241,290,63293,2,4,L|334:316,1,88.000002685547,8|0,0:1|0:1,0:1:0:0:
133,345,63722,2,0,L|176:336,2,44.0000013427735,4|0|0,0:3|0:1|0:1,0:1:0:0:
64,135,64150,5,8,0:1:0:0:
251,368,64365,1,8,0:1:0:0:
39,274,64579,5,4,0:3:0:0:
272,220,64793,1,8,0:1:0:0:
158,251,65008,5,4,0:3:0:0:
158,251,65222,2,4,L|149:176,3,44.0000013427735,4|4|4|4,0:3|0:3|0:3|0:3,0:3:0:0:
293,121,65650,5,4,0:1:0:0:
293,121,66079,2,0,P|357:115|475:109,2,176.000005371094,8|4|8,0:1|0:3|0:1,0:1:0:0:
218,74,67150,1,4,0:3:0:0:
400,324,67365,5,4,0:1:0:0:
400,324,67793,2,0,P|409:268|410:226,1,88.000002685547,8|0,0:1|0:1,0:1:0:0:
326,263,68222,2,0,P|317:319|316:361,1,88.000002685547,4|0,0:3|0:1,0:1:0:0:
231,292,68650,2,0,P|240:236|241:194,1,88.000002685547,8|0,0:1|0:1,0:1:0:0:
26,90,69079,5,4,0:1:0:0:
26,90,69508,2,0,P|41:141|69:223,1,132.00000402832,8|0,0:1|0:1,0:1:0:0:
66,215,69936,2,4,P|56:271|42:317,1,88.000002685547,4|4,0:3|0:3,0:3:0:0:
123,161,70365,2,0,P|133:105|147:59,1,88.000002685547,8|0,0:1|0:1,0:1:0:0:
264,292,70793,5,4,0:3:0:0:
264,292,71008,1,0,0:1:0:0:
350,309,71222,2,0,L|468:329,1,88.000002685547,8|0,0:1|0:1,0:1:0:0:
512,150,71650,1,4,0:3:0:0:
426,133,71864,2,0,L|308:113,1,88.000002685547,8|4,0:1|0:3,0:1:0:0:
339,118,72186,1,4,0:3:0:0:
339,118,72293,1,4,0:3:0:0:
256,368,72508,5,4,0:3:0:0:
256,368,72722,1,4,0:3:0:0:
383,223,72936,6,0,P|362:287|354:325,1,88.000002685547,8|4,0:1|0:3,0:1:0:0:
198,0,73365,2,0,P|187:43|173:84,1,88.000002685547,8|4,0:1|0:3,0:1:0:0:
502,183,73793,2,0,P|481:247|473:285,1,88.000002685547,8|4,0:1|0:3,0:1:0:0:
256,288,74222,5,4,0:1:0:0:
256,288,74436,1,4,0:3:0:0:
129,223,74650,6,0,P|150:287|158:325,1,88.000002685547,8|4,0:1|0:3,0:1:0:0:
313,0,75079,2,0,P|324:43|339:84,1,88.000002685547,8|4,0:1|0:3,0:1:0:0:
10,183,75508,2,0,P|31:247|39:285,1,88.000002685547,8|4,0:1|0:3,0:1:0:0:
427,378,75936,5,8,0:1:0:0:
94,384,76150,1,4,0:3:0:0:
94,384,76258,1,4,0:3:0:0:
94,384,76365,1,4,0:3:0:0:
334,258,76579,6,0,P|255:228|170:258,1,176.000005371094,8|6,0:1|0:3,0:1:0:0:
296,352,77222,1,8,0:1:0:0:
216,352,77436,1,4,0:3:0:0:
142,7,77865,5,4,0:2:0:0:
379,152,78079,1,4,0:2:0:0:
133,152,78293,1,4,0:2:0:0:
370,7,78507,1,4,0:2:0:0:
256,72,78722,5,8,0:3:0:0:
256,72,78936,2,2,L|256:96,6,22.0000006713867,2|2|2|2|2|2|2,0:2|0:2|0:2|0:2|0:2|0:2|0:2,0:2:0:0:
256,184,79365,6,0,L|256:232,1,40,2|0,0:0|0:0,0:0:0:0:
256,312,79793,2,0,L|256:360,1,40
425,144,80436,6,0,L|432:94,2,40,2|2|2,0:0|0:0|0:0,0:0:0:0:
455,170,81079,2,0,P|409:187|382:208,1,80
326,152,81722,1,0,0:0:0:0:
326,152,81936,6,0,P|268:146|236:146,1,80,2|2,0:0|0:0,0:0:0:0:
63,195,83154,5,4,0:1:0:0:
256,192,83306,12,0,88331,0:0:0:0:
