osu file format v14

[General]
AudioFilename: audio.mp3
AudioLeadIn: 0
PreviewTime: 51829
Countdown: 1
SampleSet: Soft
StackLeniency: 0.7
Mode: 0
LetterboxInBreaks: 0
WidescreenStoryboard: 1

[Editor]
DistanceSpacing: 1
BeatDivisor: 4
GridSize: 8
TimelineZoom: 1

[Metadata]
Title:azure (TV Size)
TitleUnicode:azure (TV Size)
Artist:TrySail
ArtistUnicode:TrySail
Creator:deetz
Version:Normal
Source:続・終物語
Tags:ending ed monogatari Zoku Owarimonogatari zokuowarimonogatari koyomi reverse vinxis anime japanese
BeatmapID:1968965
BeatmapSetID:942837

[Difficulty]
HPDrainRate:3
CircleSize:3
OverallDifficulty:4
ApproachRate:5
SliderMultiplier:1
SliderTickRate:1

[Events]
//Background and Video events
0,0,"zoku.png",0,0
//Break Periods
//Storyboard Layer 0 (Background)
//Storyboard Layer 1 (Fail)
//Storyboard Layer 2 (Pass)
//Storyboard Layer 3 (Foreground)
//Storyboard Sound Samples

[TimingPoints]
508,428.571428571429,4,2,1,40,1,0
508,-100,4,2,1,40,0,0
7365,-100,4,2,1,60,0,0
10793,-100,4,2,1,50,0,0
21079,-100,4,2,1,30,0,0
22793,-100,4,2,1,70,0,0
24508,-100,4,2,1,60,0,0
38222,-100,4,2,1,45,0,0
45079,-100,4,2,1,60,0,0
48508,-100,4,2,1,50,0,0
50436,-100,4,2,1,70,0,0
51936,-100,4,2,1,70,0,1
77865,-100,4,2,1,70,0,1
79365,-100,4,2,1,40,0,0
81936,609.137055837563,4,2,1,40,1,0
81936,-76.9230769230769,4,2,1,40,0,0
88331,-200,4,2,1,5,0,0

[Colours]
Combo1 : 255,94,55
Combo2 : 173,255,95
Combo3 : 17,254,176
Combo4 : 255,88,100

[HitObjects]
0,150,508,6,0,P|38:137|130:291,1,250,2|2,0:0|0:0,0:0:0:0:
185,294,1793,2,0,L|200:351,1,50,2|2,0:0|0:0,0:0:0:0:
246,353,2222,2,0,P|278:340|355:325,1,100,0|0,0:0|0:0,0:0:0:0:
439,349,3079,5,2,0:0:0:0:
498,268,3508,1,2,0:0:0:0:
443,184,3936,2,0,P|375:207|249:233,1,200,2|0,0:0|0:0,0:0:0:0:
211,200,5008,2,0,L|204:143,2,50,2|2|2,0:0|0:0|0:0,0:0:0:0:
176,235,5650,6,0,P|163:267|93:299,1,100,0|0,0:0|0:0,0:0:0:0:
38,226,6508,2,0,L|26:169,1,50,0|4,0:0|0:3,0:0:0:0:
60,139,6936,1,8,0:1:0:0:
47,39,7365,6,0,P|91:44|143:78,2,100,4|4|4,0:3|0:3|0:3,0:0:0:0:
60,139,8650,2,0,L|69:190,1,50,4|0,0:3|0:0,0:0:0:0:
76,237,9079,6,0,P|120:232|172:198,1,100,4|4,0:3|0:3,0:0:0:0:
233,128,9936,1,4,0:3:0:0:
330,106,10365,1,4,0:3:0:0:
410,165,10793,6,0,P|402:205|389:269,1,100,4|0,3:2|3:2,0:0:0:0:
404,362,11650,1,2,3:2:0:0:
310,326,12079,1,2,3:2:0:0:
211,344,12508,1,2,3:2:0:0:
123,295,12936,1,0,3:2:0:0:
123,295,13150,2,0,P|117:249|106:182,2,100,2|2|0,0:0|0:0|0:0,0:0:0:0:
93,335,14222,6,0,P|142:358|196:377,1,100,2|0,3:2|3:2,0:0:0:0:
272,325,15079,1,2,3:2:0:0:
359,276,15508,1,2,3:2:0:0:
311,187,15936,6,0,P|259:175|203:168,1,100,2|0,3:2|3:2,0:0:0:0:
164,182,16579,2,0,P|170:132|182:83,2,100,2|2|0,0:0|0:0|0:0,0:0:0:0:
114,177,17650,5,2,3:2:0:0:
74,268,18079,2,0,P|67:317|55:366,1,100,0|0,3:2|3:2,0:0:0:0:
104,352,18722,2,0,L|208:316,1,100,2|0,0:0|0:0,0:0:0:0:
243,341,19365,5,2,3:2:0:0:
342,333,19793,1,0,3:2:0:0:
342,333,20008,2,0,P|349:292|356:220,1,100,2|0,0:0|0:0,0:0:0:0:
307,218,20650,2,0,L|299:158,1,50,2|2,3:2|0:0,0:0:0:0:
329,127,21079,5,4,0:2:0:0:
329,127,22793,5,4,0:0:0:0:
312,79,23008,1,4,0:0:0:0:
394,22,23436,2,0,P|444:11|504:13,1,100,4|0,0:0|0:0,0:0:0:0:
500,60,24079,1,8,0:0:0:0:
491,109,24293,1,4,0:3:0:0:
449,136,24508,6,0,P|425:153|384:216,1,100,4|8,0:2|0:0,0:0:0:0:
476,254,25365,2,0,P|463:280|459:355,1,100,0|8,0:0|0:0,0:0:0:0:
358,343,26222,5,4,0:3:0:0:
258,335,26650,1,8,0:0:0:0:
258,335,26865,2,0,P|214:339|158:352,2,100,0|4|0,0:0|0:3|0:0,0:0:0:0:
273,287,27936,6,0,P|250:253|202:215,1,100,4|8,0:3|0:0,0:0:0:0:
273,143,28793,2,0,P|236:125|175:116,1,100,0|8,0:0|0:0,0:0:0:0:
145,21,29650,6,0,P|103:24|44:35,1,100,4|8,0:3|0:0,0:0:0:0:
71,77,30293,1,0,0:0:0:0:
50,174,30722,1,4,0:3:0:0:
98,261,31150,1,0,0:0:0:0:
113,308,31365,5,4,0:0:0:0:
128,355,31579,1,4,0:0:0:0:
223,324,32008,2,0,L|334:328,1,100,4|4,0:0|0:3,0:0:0:0:
364,354,32650,1,8,0:0:0:0:
427,276,33079,5,4,0:0:0:0:
422,226,33293,1,4,0:0:0:0:
332,181,33722,2,0,L|221:177,1,100,4|4,0:0|0:3,0:0:0:0:
182,176,34364,1,8,0:0:0:0:
116,100,34793,5,4,0:0:0:0:
185,27,35222,1,8,0:0:0:0:
228,50,35436,1,4,0:3:0:0:
271,74,35650,1,8,0:0:0:0:
368,48,36079,5,4,0:3:0:0:
368,48,36293,1,4,0:0:0:0:
458,90,36722,1,4,0:3:0:0:
452,139,36936,2,0,L|408:172,1,50,8|4,0:0|0:3,0:3:0:0:
363,180,37365,2,0,P|362:211|365:295,2,100,8|4|4,0:0|0:3|0:1,0:0:0:0:
285,51,38865,2,0,L|231:43,1,50,2|2,0:0|0:0,0:0:0:0:
136,32,39508,1,8,0:0:0:0:
112,129,39936,6,0,P|129:187|206:219,1,150,2|2,0:0|0:0,0:0:0:0:
254,202,40793,2,0,P|258:243|256:316,1,100,2|8,0:0|0:0,0:0:0:0:
356,317,41650,5,2,0:0:0:0:
482,237,42293,2,0,L|477:187,1,50,2|2,0:0|0:0,0:0:0:0:
384,149,42936,2,0,L|379:99,1,50,8|2,0:0|0:0,0:0:0:0:
409,59,43365,6,0,P|350:39|257:68,1,150,2|0,0:0|0:0,0:0:0:0:
270,110,44222,2,0,P|229:113|167:128,1,100,4|8,0:3|0:1,0:0:0:0:
160,26,45079,5,4,0:3:0:0:
60,37,45508,1,8,0:0:0:0:
71,137,45936,1,4,0:3:0:0:
171,126,46365,1,8,0:0:0:0:
227,208,46793,6,0,P|224:253|218:313,1,100,4|8,0:3|0:0,0:0:0:0:
128,350,47650,1,4,0:3:0:0:
82,329,47865,1,0,0:0:0:0:
59,284,48079,2,0,P|62:239|68:179,1,100,8|4,0:0|0:1,0:0:0:0:
99,180,50436,5,0,1:0:0:0:
144,159,50650,1,0,1:0:0:0:
167,114,50865,1,0,1:0:0:0:
169,64,51079,2,0,L|117:47,1,50,0|4,1:0|0:3,0:0:0:0:
72,37,51508,1,8,0:1:0:0:
6,112,51936,6,0,P|2:161|-1:218,1,100,4|8,0:1|0:1,0:0:0:0:
28,252,52579,1,4,0:3:0:0:
49,349,53008,1,4,0:3:0:0:
98,344,53222,1,8,0:1:0:0:
144,326,53436,1,0,0:1:0:0:
181,292,53650,6,0,P|185:243|188:186,1,100,4|8,0:3|0:1,0:0:0:0:
151,157,54293,1,4,0:3:0:0:
167,58,54722,2,0,L|229:44,1,50,4|8,0:3|0:1,0:0:0:0:
255,77,55150,1,4,0:3:0:0:
295,48,55365,6,0,P|337:41|400:39,1,100,4|8,0:3|0:1,0:0:0:0:
442,24,56008,2,0,P|449:66|451:129,1,100,4|4,0:3|0:3,0:0:0:0:
405,143,56650,2,0,L|410:197,1,50,8|4,0:1|0:3,0:0:0:0:
455,213,57079,5,4,0:3:0:0:
472,311,57508,1,8,0:1:0:0:
379,274,57936,1,4,0:3:0:0:
396,372,58365,1,8,0:1:0:0:
300,342,58793,5,4,0:3:0:0:
252,325,59008,1,0,0:1:0:0:
202,317,59222,1,8,0:1:0:0:
153,327,59436,2,0,P|144:264|142:218,2,100,4|4|0,0:3|0:3|0:1,0:0:0:0:
103,337,60508,5,4,0:3:0:0:
29,278,60936,1,8,0:1:0:0:
29,278,61150,2,0,P|20:215|18:169,1,100,4|4,0:3|0:3,0:0:0:0:
66,167,61793,2,0,L|71:104,1,50,8|4,0:1|0:3,0:0:0:0:
37,78,62222,5,4,0:3:0:0:
121,25,62650,1,0,0:2:0:0:
170,35,62865,1,4,0:3:0:0:
219,45,63079,1,4,0:3:0:0:
260,136,63508,1,0,0:1:0:0:
309,146,63723,1,4,0:3:0:0:
358,156,63936,6,0,P|384:143|464:123,1,100,0|8,0:1|0:1,0:0:0:0:
448,224,64793,2,0,P|422:237|342:257,1,100,8|4,0:1|0:3,0:0:0:0:
328,298,65436,1,4,0:3:0:0:
303,341,65650,5,4,0:1:0:0:
203,327,66079,2,0,P|214:278|231:231,2,100,8|4|8,0:1|0:3|0:1,0:0:0:0:
127,261,67365,5,4,0:1:0:0:
27,272,67794,2,0,P|38:223|55:176,2,100,8|4|8,0:1|0:3|0:1,0:0:0:0:
60,365,69079,5,4,0:1:0:0:
155,335,69508,1,8,0:1:0:0:
252,312,69936,2,0,P|295:318|352:327,1,100,4|8,0:3|0:1,0:0:0:0:
443,289,70793,5,4,0:3:0:0:
480,196,71222,1,8,0:1:0:0:
382,172,71650,2,0,L|368:107,1,50,4|8,0:3|0:1,0:0:0:0:
409,90,72079,2,0,P|384:54|321:26,1,100,4|4,0:3|0:3,0:0:0:0:
236,43,72936,5,8,0:1:0:0:
187,52,73150,1,4,0:3:0:0:
137,59,73365,1,8,0:1:0:0:
38,43,73793,1,8,0:1:0:0:
71,137,74222,5,4,0:1:0:0:
107,230,74650,5,8,0:1:0:0:
156,221,74864,1,4,0:3:0:0:
206,214,75079,1,8,0:1:0:0:
303,191,75507,1,8,0:1:0:0:
333,285,75936,6,0,P|375:305|409:355,1,100,8|4,0:1|0:3,0:0:0:0:
441,311,76579,2,0,P|447:272|460:210,1,100,8|6,0:1|0:3,0:0:0:0:
411,196,77222,1,8,0:1:0:0:
408,146,77436,1,4,0:3:0:0:
436,49,77865,5,4,0:2:0:0:
388,35,78079,1,4,0:2:0:0:
338,33,78293,1,4,0:2:0:0:
290,49,78508,1,4,0:2:0:0:
238,134,78936,1,2,0:2:0:0:
143,99,79365,6,0,P|127:143|171:241,1,150,2|0,0:0|0:0,0:0:0:0:
249,285,80436,2,0,L|304:308,2,50,2|2|2,0:0|0:0|0:0,0:0:0:0:
214,321,81079,6,0,P|184:331|116:360,1,100,0|0,0:0|0:0,0:0:0:0:
51,295,81936,6,0,P|46:262|29:157,1,129.999994049073,2|2,0:0|0:0,0:0:0:0:
256,192,83154,12,0,88331,0:0:0:0:
