osu file format v14

[General]
AudioFilename: audio.mp3
AudioLeadIn: 0
PreviewTime: 43444
Countdown: 0
SampleSet: Normal
StackLeniency: 0.7
Mode: 0
LetterboxInBreaks: 0
WidescreenStoryboard: 1

[Editor]
Bookmarks: 30244,35729,72758
DistanceSpacing: 1.4
BeatDivisor: 4
GridSize: 8
TimelineZoom: 2.699999

[Metadata]
Title:adrenaline!!! j-core remix
TitleUnicode:adrenaline!!! j-core remix
Artist:TrySail
ArtistUnicode:TrySail
Creator:- Mari -
Version:Heiru's ADHD
Source:エロマンガ先生
Tags:eromanga sensei trysail j-core remix ed short ver hibi -xenos- nervecat mithrilforln
BeatmapID:1432062
BeatmapSetID:672944

[Difficulty]
HPDrainRate:6
CircleSize:4
OverallDifficulty:7.5
ApproachRate:9.6
SliderMultiplier:2
SliderTickRate:1

[Events]
//Background and Video events
0,0,"yanderesagiri.jpg",0,0
//Break Periods
//Storyboard Layer 0 (Background)
//Storyboard Layer 1 (Fail)
//Storyboard Layer 2 (Pass)
//Storyboard Layer 3 (Foreground)
//Storyboard Sound Samples

[TimingPoints]
73,342.857142857143,4,1,0,40,1,0
1444,342.857142857143,4,1,0,40,1,0
5044,-100,4,1,0,5,0,0
5386,-66.6666666666667,4,1,0,50,0,0
7101,-100,4,1,0,45,0,0
15672,-100,4,1,0,50,0,0
17215,-66.6666666666667,4,1,0,40,0,0
19444,-100,4,1,0,40,0,0
20815,-66.6666666666667,4,1,0,40,0,0
23558,-100,4,1,0,35,0,0
23901,-66.6666666666667,4,1,0,30,0,0
24244,-50,4,1,0,25,0,0
24586,-100,4,1,0,40,0,0
25444,-66.6666666666667,4,1,0,40,0,0
30244,-133.333333333333,4,1,0,40,0,0
43444,-133.333333333333,4,1,0,40,0,1
43958,-50,4,1,0,40,0,1
50129,-66.6666666666667,4,1,0,40,0,1
51158,-50,4,1,0,40,0,1
56301,-66.6666666666667,4,1,0,40,0,1
60758,-50,4,1,0,40,0,1
61786,-100,4,1,0,40,0,1
62129,-50,4,1,0,40,0,1
64701,-100,4,1,0,40,0,1
65729,-100,4,1,0,40,0,0
67272,-133.333333333333,4,1,0,40,0,0
67786,-100,4,1,0,40,0,0
72072,-66.6666666666667,4,1,0,40,0,0

[Colours]
Combo1 : 185,136,217
Combo2 : 91,201,54
Combo3 : 101,175,197
Combo4 : 223,219,159

[HitObjects]
135,292,1101,6,0,L|223:301,1,50
256,192,1273,12,0,5044,0:0:0:0:
92,282,5386,6,0,B|161:229|161:229|233:230,1,150.000005722046
245,323,5729,2,0,P|225:232|244:176,1,150.000005722046
368,248,6072,1,0,0:0:0:0:
342,166,6244,6,0,P|452:227|357:332,1,300.000011444092
181,286,6758,6,0,P|135:227|194:232,1,150.000005722046
335,238,7101,2,0,P|332:187|318:157,1,50
277,109,7272,1,0,0:0:0:0:
347,32,7444,1,0,0:0:0:0:
190,169,7615,2,0,B|175:95|175:95|203:34,1,100
378,170,7958,2,0,B|393:244|393:244|365:305,1,100
181,218,8301,6,0,L|192:169,1,50
270,231,8472,2,0,L|260:280,1,50
184,205,8644,2,0,L|209:162,1,50
266,243,8815,2,0,L|244:288,1,50
86,147,8986,2,0,L|86:28,1,100
268,100,9329,5,0,0:0:0:0:
86,147,9501,2,0,B|63:95|63:95|86:28,1,100
268,100,9844,1,0,0:0:0:0:
317,106,9929,1,0,0:0:0:0:
360,130,10015,1,0,0:0:0:0:
392,168,10101,1,0,0:0:0:0:
279,192,10186,2,0,L|326:233,1,50
303,309,10358,2,0,B|359:295|359:295|394:247,1,100
303,75,10701,2,0,B|359:89|359:89|394:137,1,100
311,239,11044,6,0,L|285:184,1,50
179,146,11215,2,0,L|205:201,1,50
323,212,11386,2,0,L|279:170,1,50
166,172,11557,2,0,L|210:214,1,50
402,334,11729,6,0,B|310:282,1,100
222,327,12072,2,0,L|322:281,1,100
313,285,12415,1,0,0:0:0:0:
170,233,12586,2,0,L|223:206,1,50
305,173,12757,1,0,0:0:0:0:
438,221,12929,5,0,0:0:0:0:
447,172,13014,1,0,0:0:0:0:
439,122,13100,1,0,0:0:0:0:
414,79,13186,1,0,0:0:0:0:
376,47,13271,1,0,0:0:0:0:
180,122,13444,2,0,P|207:204|243:224,1,100
332,215,13786,6,0,L|298:250,1,50
180,246,13958,2,0,L|215:210,1,50
330,252,14129,2,0,L|283:267,1,50
181,208,14301,2,0,L|229:193,1,50
278,132,14472,6,0,B|226:88|226:88|181:75,1,100
168,283,14815,2,0,B|220:327|220:327|265:340,1,100
236,210,15158,1,0,0:0:0:0:
144,78,15329,2,0,L|97:142,1,50
45,212,15501,1,0,0:0:0:0:
201,339,15672,5,0,0:0:0:0:
152,347,15757,1,0,0:0:0:0:
104,332,15843,1,0,0:0:0:0:
69,298,15929,1,0,0:0:0:0:
52,251,16014,1,0,0:0:0:0:
49,102,16186,2,0,P|113:129|173:95,1,100
346,91,16529,6,0,P|300:54|290:51,1,50
140,122,16701,2,0,P|186:159|196:162,1,50
331,51,16872,2,0,P|274:35|264:37,1,50
154,161,17044,2,0,P|211:177|221:175,1,50
361,122,17215,2,0,P|374:201|301:261,1,150.000005722046
267,186,17558,2,0,P|324:183|277:152,1,150.000005722046
81,216,17901,6,0,L|105:299,1,75.0000028610231
127,332,18072,1,0,0:0:0:0:
174,326,18157,1,0,0:0:0:0:
190,282,18243,1,0,0:0:0:0:
157,248,18329,1,0,0:0:0:0:
70,234,18415,2,0,P|126:166|154:152,1,75.0000028610231
288,128,18586,6,0,P|232:196|204:210,1,75.0000028610231
180,227,18758,1,0,0:0:0:0:
245,263,18843,1,0,0:0:0:0:
304,309,18929,2,0,P|187:309|304:216,1,300.000011444092
451,158,19444,6,0,L|358:174,1,50
243,187,19615,1,0,0:0:0:0:
393,49,19786,1,0,0:0:0:0:
242,48,19872,2,0,P|231:68|228:109,1,50
224,279,20129,2,0,P|244:269|271:238,1,50
288,105,20301,2,0,P|268:115|241:146,1,50
131,281,20472,6,0,P|179:263|227:281,1,100
180,347,20815,2,0,P|223:304|151:275,1,150.000005722046
283,248,21158,2,0,P|206:190|146:192,1,150.000005722046
187,290,21501,2,0,P|226:331|261:348,1,75.0000028610231
383,290,21672,1,0,0:0:0:0:
187,290,21844,2,0,P|226:249|261:232,1,75.0000028610231
383,159,22015,1,0,0:0:0:0:
241,239,22186,5,0,0:0:0:0:
206,191,22271,1,0,0:0:0:0:
197,132,22357,1,0,0:0:0:0:
383,159,22529,2,0,P|424:227|425:241,1,75.0000028610231
444,339,22701,1,0,0:0:0:0:
241,239,22872,2,0,P|200:171|199:157,1,75.0000028610231
180,59,23044,1,0,0:0:0:0:
381,160,23215,1,0,0:0:0:0:
245,239,23386,1,0,0:0:0:0:
94,131,23558,6,0,P|156:129|126:93,1,100
164,56,23901,2,0,P|196:147|128:220,1,150.000005722046
96,130,24244,2,0,B|158:122|158:122|226:133|226:133|299:127,1,200
414,118,24586,5,0,0:0:0:0:
241,217,24758,2,0,L|361:202,1,100
300,317,25101,1,0,0:0:0:0:
250,323,25186,1,0,0:0:0:0:
200,329,25272,1,0,0:0:0:0:
106,260,25444,6,0,B|169:214|169:214|242:217,1,150.000005722046
383,303,25786,2,0,P|439:260|424:191,1,150.000005722046
321,187,26129,2,0,B|372:105|372:105|431:90,1,150.000005722046
383,303,26472,2,0,L|431:229,1,75.0000028610231
471,165,26644,1,0,0:0:0:0:
284,76,26815,2,0,B|240:143|240:143|120:207,1,150.000005722046
130,109,27158,6,0,P|247:126|176:258,1,300.000011444092
178,175,27672,1,0,0:0:0:0:
228,242,27844,2,0,P|111:225|182:93,1,300.000011444092
284,76,28358,5,0,0:0:0:0:
178,175,28529,1,0,0:0:0:0:
325,130,28701,5,0,0:0:0:0:
147,123,28872,1,0,0:0:0:0:
315,52,29044,5,0,0:0:0:0:
155,199,29215,1,0,0:0:0:0:
371,131,29386,5,0,0:0:0:0:
100,121,29557,1,0,0:0:0:0:
315,52,29729,5,0,0:0:0:0:
332,76,29814,1,0,0:0:0:0:
349,100,29900,1,0,0:0:0:0:
367,125,29986,1,0,0:0:0:0:
384,149,30071,1,0,0:0:0:0:
402,174,30157,1,0,0:0:0:0:
457,255,30244,6,0,P|389:308|322:305,1,150.000005722046
242,243,30758,5,0,0:0:0:0:
212,223,30843,1,0,0:0:0:0:
183,242,30929,1,0,0:0:0:0:
189,276,31015,1,0,0:0:0:0:
223,284,31100,1,0,0:0:0:0:
344,227,31272,2,0,P|309:167|233:141,1,150.000005722046
121,350,31786,2,0,P|90:296|89:272,1,75.0000028610231
75,171,32129,5,0,0:0:0:0:
119,351,32301,1,0,0:0:0:0:
181,223,32472,5,0,0:0:0:0:
12,298,32644,1,0,0:0:0:0:
163,106,32815,1,0,0:0:0:0:
64,206,32986,6,0,P|108:132|171:105,1,150.000005722046
181,223,33501,1,0,0:0:0:0:
303,311,33672,2,0,L|181:223,1,150.000005722046
163,106,34186,1,0,0:0:0:0:
128,118,34271,1,0,0:0:0:0:
98,140,34357,1,0,0:0:0:0:
76,170,34443,1,0,0:0:0:0:
64,206,34528,1,0,0:0:0:0:
181,223,34701,6,0,L|223:184,1,37.5000014305115
280,123,34872,1,0,0:0:0:0:
308,97,35215,6,0,L|255:145,1,37.5000014305115
155,246,35386,2,0,L|207:197,1,37.5000014305115
335,71,35558,2,0,L|282:119,1,37.5000014305115
127,271,35729,1,0,0:0:0:0:
326,278,36072,6,0,L|288:249,1,37.5000014305115
186,106,36243,2,0,L|224:135,1,37.5000014305115
355,300,36415,1,0,0:0:0:0:
196,192,36758,6,0,L|147:192,1,37.5000014305115
90,191,36929,1,0,0:0:0:0:
240,192,37101,1,0,0:0:0:0:
256,192,37186,1,0,0:0:0:0:
272,192,37272,1,0,0:0:0:0:
340,192,37444,2,0,L|299:192,1,37.5000014305115
90,191,37615,2,0,L|131:191,1,37.5000014305115
393,191,37786,1,0,0:0:0:0:
256,191,37958,1,0,0:0:0:0:
90,191,38301,1,0,0:0:0:0:
197,279,38472,6,0,L|218:318,2,37.5000014305115
315,279,38815,2,0,L|294:318,2,37.5000014305115
124,254,39158,2,0,P|177:253|187:263,2,37.5000014305115
388,254,39501,2,0,P|335:253|325:263,2,37.5000014305115
99,181,39844,2,0,P|90:223|91:229,2,37.5000014305115
413,181,40186,2,0,P|422:223|421:229,2,37.5000014305115
107,94,40529,2,0,P|82:139|82:141,2,37.5000014305115
405,94,40872,2,0,P|430:139|430:141,2,37.5000014305115
196,69,41215,6,0,P|149:57|144:61,1,37.5000014305115
316,69,41386,2,0,P|363:57|368:61,1,37.5000014305115
200,158,41558,2,0,P|207:117|202:115,1,37.5000014305115
312,158,41729,2,0,P|305:117|310:115,1,37.5000014305115
121,142,41901,2,0,P|151:171|156:173,1,37.5000014305115
391,142,42072,2,0,P|361:171|356:173,1,37.5000014305115
126,72,42244,2,0,P|110:110|111:114,1,37.5000014305115
386,72,42415,2,0,P|402:110|401:114,1,37.5000014305115
203,58,42586,2,0,P|161:45|155:48,1,37.5000014305115
309,58,42758,2,0,P|351:45|357:48,1,37.5000014305115
200,93,42929,5,0,0:0:0:0:
197,129,43014,1,0,0:0:0:0:
216,160,43100,1,0,0:0:0:0:
251,172,43186,1,0,0:0:0:0:
286,161,43271,1,0,0:0:0:0:
307,130,43357,1,0,0:0:0:0:
304,94,43443,1,0,0:0:0:0:
46,288,43958,6,0,B|74:277|105:285|96:347|96:347|128:290|158:297|178:319,1,200
133,197,44301,1,0,0:0:0:0:
41,123,44472,2,0,P|135:78|216:114,1,200
403,233,44815,1,0,0:0:0:0:
133,197,44986,2,0,P|253:94|403:238,1,400
266,231,45501,1,0,0:0:0:0:
349,335,45672,2,0,B|346:294|346:294|383:250|402:126|263:64|158:142|164:243,1,400
238,374,46186,2,0,B|207:317|228:280|267:229|267:229|216:271|162:325|79:257|91:199,1,400
176,193,46701,2,0,B|238:142|238:142|289:148|289:148|353:98,1,200
415,37,47044,1,0,0:0:0:0:
348,221,47215,2,0,L|430:149,2,100
303,105,47558,5,0,0:0:0:0:
266,71,47643,1,0,0:0:0:0:
219,56,47729,1,0,0:0:0:0:
175,79,47815,1,0,0:0:0:0:
146,120,47901,1,0,0:0:0:0:
258,221,48072,6,0,B|227:254|218:314|218:314|206:255|179:221,1,200
259,221,48415,6,0,B|312:138|312:138|219:180,1,200
179,221,48758,6,0,B|125:138|125:138|218:180,1,200
401,258,49101,2,0,L|301:216,1,100
199,180,49272,1,0,0:0:0:0:
164,213,49357,1,0,0:0:0:0:
116,207,49443,1,0,0:0:0:0:
90,167,49529,1,0,0:0:0:0:
105,121,49614,1,0,0:0:0:0:
32,117,49786,6,0,B|53:213|53:213|155:282,1,200
289,294,50129,2,0,B|347:272|370:244|370:244|397:276|456:297,1,150.000005722046
393,148,50472,2,0,P|352:144|309:164,1,75.0000028610231
186,229,50644,1,0,0:0:0:0:
149,225,50729,1,0,0:0:0:0:
116,207,50815,1,0,0:0:0:0:
94,177,50901,1,0,0:0:0:0:
84,141,50986,1,0,0:0:0:0:
157,49,51158,6,0,B|262:82|262:82|307:174,1,200
352,328,51501,5,0,0:0:0:0:
301,162,51672,1,0,0:0:0:0:
248,328,51844,5,0,0:0:0:0:
195,164,52015,1,0,0:0:0:0:
64,280,52186,1,0,0:0:0:0:
280,232,52358,1,0,0:0:0:0:
149,348,52529,1,0,0:0:0:0:
195,164,52701,1,0,0:0:0:0:
272,352,52872,1,0,0:0:0:0:
472,256,53044,1,0,0:0:0:0:
395,68,53215,1,0,0:0:0:0:
242,232,53386,6,0,P|309:185|314:161,1,100
272,93,53558,2,0,P|168:161|291:106,1,400
241,160,54072,1,0,0:0:0:0:
161,293,54244,2,0,P|285:302|355:262,1,200
320,191,54586,5,0,0:0:0:0:
385,185,54671,1,0,0:0:0:0:
433,229,54757,1,0,0:0:0:0:
432,295,54843,1,0,0:0:0:0:
383,338,54928,1,0,0:0:0:0:
203,316,55101,5,0,0:0:0:0:
383,338,55272,1,0,0:0:0:0:
238,201,55444,1,0,0:0:0:0:
383,338,55615,1,0,0:0:0:0:
134,307,55786,1,0,0:0:0:0:
383,338,55958,1,0,0:0:0:0:
231,129,56129,1,0,0:0:0:0:
18,236,56301,2,0,B|123:96|204:345|344:156,1,300
270,117,56815,2,0,P|233:171|327:162,1,150.000005722046
291,210,57158,5,0,0:0:0:0:
301,245,57243,1,0,0:0:0:0:
312,281,57329,1,0,0:0:0:0:
322,317,57415,1,0,0:0:0:0:
333,353,57500,1,0,0:0:0:0:
375,194,57672,5,0,0:0:0:0:
412,328,57844,1,0,0:0:0:0:
440,209,58015,5,0,0:0:0:0:
346,312,58187,1,0,0:0:0:0:
461,273,58358,5,0,0:0:0:0:
325,248,58530,1,0,0:0:0:0:
403,176,58701,5,0,0:0:0:0:
266,150,58873,1,0,0:0:0:0:
414,37,59044,1,0,0:0:0:0:
277,11,59215,1,0,0:0:0:0:
301,233,59386,5,0,0:0:0:0:
175,68,59558,1,0,0:0:0:0:
301,233,59729,6,0,L|248:171,1,75.0000028610231
175,68,59901,1,0,0:0:0:0:
101,250,60072,2,0,P|169:202|212:227,1,75.0000028610231
229,245,60244,1,0,0:0:0:0:
226,299,60329,1,0,0:0:0:0:
184,333,60415,1,0,0:0:0:0:
130,325,60501,1,0,0:0:0:0:
101,279,60586,1,0,0:0:0:0:
49,189,60758,6,0,B|129:123|129:123|241:158,1,200
297,307,61101,5,0,0:0:0:0:
419,210,61272,1,0,0:0:0:0:
201,206,61444,1,0,0:0:0:0:
321,106,61615,1,0,0:0:0:0:
297,307,61786,2,0,L|310:198,1,100
227,123,62129,2,0,B|323:89|323:89|417:165,1,200
388,278,62472,6,0,L|298:197,2,100
456,348,62815,1,0,0:0:0:0:
257,276,62986,2,0,L|167:195,2,100
325,346,63329,1,0,0:0:0:0:
313,211,63501,1,0,0:0:0:0:
188,284,63672,1,0,0:0:0:0:
301,77,63844,5,0,0:0:0:0:
313,211,64016,1,0,0:0:0:0:
438,139,64187,1,0,0:0:0:0:
313,211,64358,1,0,0:0:0:0:
188,284,64529,1,0,0:0:0:0:
60,224,64701,2,0,P|82:178|115:172,1,50
238,49,64872,2,0,P|216:95|183:101,1,50
150,138,65044,1,0,0:0:0:0:
101,230,65215,5,0,0:0:0:0:
99,170,65300,1,0,0:0:0:0:
149,137,65386,1,0,0:0:0:0:
203,163,65472,1,0,0:0:0:0:
208,223,65557,1,0,0:0:0:0:
59,331,65729,6,0,P|18:266|16:238,2,100
132,240,66244,1,0,0:0:0:0:
200,136,66415,2,0,P|241:201|243:229,2,100
132,240,66929,1,0,0:0:0:0:
243,222,67101,1,0,0:0:0:0:
106,167,67272,6,0,B|159:152|181:179|181:179|194:144|247:141,1,150
357,127,67786,1,0,0:0:0:0:
388,33,67958,2,0,B|463:61|473:121|467:192|391:223|391:223|391:289,1,300
124,33,68815,2,0,B|49:61|39:121|45:192|121:223|121:223|121:289,1,300
159,124,69501,5,0,0:0:0:0:
183,90,69586,1,0,0:0:0:0:
217,68,69672,1,0,0:0:0:0:
258,60,69758,1,0,0:0:0:0:
299,69,69843,1,0,0:0:0:0:
333,92,69929,1,0,0:0:0:0:
356,126,70015,1,0,0:0:0:0:
255,307,70186,5,0,0:0:0:0:
255,282,70271,1,0,0:0:0:0:
255,257,70357,1,0,0:0:0:0:
255,232,70443,1,0,0:0:0:0:
255,207,70528,1,0,0:0:0:0:
255,182,70614,1,0,0:0:0:0:
255,157,70700,1,0,0:0:0:0:
256,56,70872,5,0,0:0:0:0:
392,160,71044,1,0,0:0:0:0:
120,160,71215,1,0,0:0:0:0:
202,282,71386,2,0,P|144:251|113:213,1,100
310,282,71729,2,0,P|368:251|399:213,1,100
256,56,72072,6,0,B|382:-34|414:158|311:144|265:177|258:213|258:213|249:176|181:147|96:158|120:-33|250:61,1,600.000022888185
