osu file format v14

[General]
AudioFilename: audio.mp3
AudioLeadIn: 0
PreviewTime: 47247
Countdown: 0
SampleSet: Soft
StackLeniency: 0.7
Mode: 0
LetterboxInBreaks: 0
WidescreenStoryboard: 0

[Editor]
DistanceSpacing: 1.12
BeatDivisor: 2
GridSize: 4
TimelineZoom: 1

[Metadata]
Title:adrenaline!!! -TV Ver-
TitleUnicode:adrenaline!!! -TV Ver-
Artist:TrySail
ArtistUnicode:TrySail
Creator:Left
Version:Normal
Source:エロマンガ先生
Tags:Eromanga Sensei ED Ending Linada Karen Gaia toybot Kisses
BeatmapID:1268849
BeatmapSetID:600297

[Difficulty]
HPDrainRate:4
CircleSize:3.5
OverallDifficulty:4.5
ApproachRate:5.3
SliderMultiplier:0.8
SliderTickRate:1

[Events]
//Background and Video events
0,0,"BG.jpg",0,0
Video,-190,"eromanga ending.avi"
//Break Periods
//Storyboard Layer 0 (Background)
//Storyboard Layer 1 (Fail)
//Storyboard Layer 2 (Pass)
//Storyboard Layer 3 (Foreground)
//Storyboard Sound Samples

[TimingPoints]
288,223.880597014925,4,2,1,40,1,0
736,223.880597014925,4,2,1,50,1,0
5213,-100,4,2,2,55,0,0
5437,-100,4,2,2,60,0,0
5661,-100,4,2,2,65,0,0
5885,-100,4,2,2,70,0,0
6109,-100,4,2,1,75,0,0
15288,-100,4,2,1,55,0,0
16855,-100,4,2,1,65,0,0
45512,-100,4,2,1,50,0,0
46407,-100,4,2,1,60,0,0
46631,-100,4,2,1,65,0,0
46855,-100,4,2,1,70,0,0
47079,-100,4,2,1,75,0,0
47303,-100,4,2,1,78,0,0
49094,-100,4,2,1,83,0,1
85810,-100,4,2,1,83,0,0

[Colours]
Combo1 : 77,166,255
Combo2 : 6,104,97
Combo3 : 255,255,196

[HitObjects]
62,85,735,6,0,B|103:71|134:96|134:96|174:130|227:100,1,160,2|0,0:0|0:0,0:0:0:0:
286,56,1407,1,2,0:0:0:0:
336,129,1631,2,0,P|352:186|340:227,1,80,0|2,0:0|0:0,0:0:0:0:
282,266,2079,2,0,P|266:323|278:364,1,80,2|0,0:0|0:0,0:0:0:0:
185,375,2527,6,0,B|151:331|151:331|180:198,1,160,2|0,0:0|0:0,0:0:0:0:
225,156,3198,1,2,0:0:0:0:
154,100,3422,2,0,P|107:90|58:98,2,80,0|2|2,0:0|0:0|0:0,0:0:0:0:
225,156,4094,1,0,0:0:0:0:
293,98,4318,6,0,L|314:199,1,80,2|0,0:0|0:0,0:0:0:0:
252,245,4765,2,0,L|231:346,1,80,2|0,0:0|0:0,0:0:0:0:
321,349,5213,2,0,P|390:364|418:358,1,80,4|4,0:3|0:3,0:0:0:0:
416,274,5661,2,0,P|345:258|317:264,1,80,8|8,0:3|0:0,0:0:0:0:
252,285,6109,6,0,B|212:287|212:287|173:273|173:273|112:274,2,120,10|10|2,1:2|1:2|1:2,0:0:0:0:
325,233,7004,2,0,P|348:174|287:88,1,160,10|4,0:0|0:0,0:0:0:0:
128,49,7900,6,0,B|103:43|85:22|85:22|103:165,1,160,2|2,1:2|1:2,0:0:0:0:
42,251,8683,2,0,P|91:265|141:255,1,80,2|0,0:0|0:0,0:0:0:0:
157,237,9019,2,0,P|206:223|256:233,2,80,10|2|10,0:0|1:2|0:0,0:0:0:0:
207,311,9691,6,0,B|258:315|258:315|310:293|310:293|385:300,1,160,2|2,1:2|1:2,0:0:0:0:
469,217,10474,2,0,L|453:116,1,80,2|0,0:0|0:0,0:0:0:0:
430,101,10810,2,0,P|390:85|329:102,1,80,10|2,0:0|1:2,0:0:0:0:
280,140,11258,1,10,0:0:0:0:
225,68,11482,6,0,B|173:65|173:65|147:50|147:50|118:63|118:63|66:63,1,160,2|2,1:2|1:2,0:0:0:0:
41,193,12265,2,0,P|36:233|56:287,1,80,2|0,0:0|0:0,0:0:0:0:
85,292,12601,2,0,P|90:332|70:386,2,80,10|2|10,0:0|1:2|0:0,0:0:0:0:
149,228,13273,6,0,B|195:225|195:225|252:242|252:242|334:234,1,160,2|2,1:2|1:2,0:0:0:0:
428,291,14056,2,0,P|441:245|431:196,1,80,2|4,0:0|0:3,0:0:0:0:
416,173,14392,1,4,0:3:0:0:
330,147,14616,2,0,P|317:101|327:52,1,80,8|8,0:3|0:0,0:0:0:0:
402,32,15064,6,0,P|326:43|234:16,1,160,4|10,1:2|0:0,0:0:0:0:
203,150,15847,2,0,P|126:129|75:142,1,120,2|0,1:2|0:0,0:0:0:0:
6,177,16407,1,10,0:0:0:0:
87,336,16855,6,0,L|259:323,1,160,0|2,1:0|1:2,0:0:0:0:
380,328,17638,2,0,B|394:294|394:294|372:211,1,120,2|10,0:0|0:0,0:0:0:0:
308,149,18198,2,0,P|345:126|392:127,1,80,2|10,1:2|0:0,0:0:0:0:
454,175,18646,2,0,L|482:276,2,80,2|10|2,1:2|0:0|1:2,0:0:0:0:
431,41,19430,2,0,P|387:29|330:36,1,80,2|0,0:0|0:0,0:0:0:0:
321,61,19765,2,0,P|260:74|219:53,2,80,8|2|10,0:0|1:2|0:0,0:0:0:0:
367,137,20437,5,0,1:2:0:0:
324,215,20661,2,0,L|312:294,2,80,10|2|8,0:0|1:2|0:0,0:0:0:0:
292,182,21221,2,0,P|232:163|168:184,1,120,2|10,0:0|0:0,0:0:0:0:
120,245,21780,2,0,P|65:259|20:243,1,80,2|10,1:2|0:0,0:0:0:0:
68,168,22228,2,0,B|71:109|71:109|52:69|52:69|56:-7,2,160,2|2|2,1:2|1:2|1:2,0:0:0:0:
43,254,23347,1,8,0:0:0:0:
9,337,23571,2,0,L|122:357,1,80,2|8,1:2|0:0,0:0:0:0:
176,363,24019,1,2,0:0:0:0:
227,289,24243,6,0,B|242:261|243:231|243:231|226:192|226:192|222:153|247:122,1,160,12|8,0:0|0:0,0:0:0:0:
207,103,24803,2,0,P|151:94|104:171,1,120,2|10,0:0|0:0,0:0:0:0:
76,218,25362,2,0,L|169:243,1,80,2|10,1:2|0:0,0:0:0:0:
227,289,25810,2,0,L|309:271,2,80,2|10|2,1:2|0:0|1:2,0:0:0:0:
96,333,26594,2,0,P|75:276|79:203,1,120,2|8,0:0|0:0,0:0:0:0:
113,136,27153,2,0,L|193:144,1,80,2|10,1:2|2:0,0:0:0:0:
277,175,27601,6,0,B|275:215|275:215|291:248|291:248|286:324,2,120,2|2|10,1:2|0:0|0:0,0:0:0:0:
336,107,28497,2,0,P|384:92|445:115,1,80,2|10,1:2|0:0,0:0:0:0:
472,163,28944,2,0,L|530:158,2,40,2|0|8,1:2|0:0|0:0,0:0:0:0:
432,243,29392,2,0,P|388:254|329:235,1,80,0|8,0:0|0:0,0:0:0:0:
271,282,29840,2,0,L|261:218,1,40,0|4,1:0|0:3,0:0:0:0:
202,177,30176,2,0,P|141:165|112:174,1,80,8|8,0:0|0:0,0:0:0:0:
91,199,30512,2,0,B|58:212|58:212|-13:199,2,80,4|8|8,0:3|0:3|0:0,0:0:0:0:
46,121,31183,6,0,L|57:23,1,80,6|8,1:2|0:0,0:0:0:0:
144,44,31631,2,0,L|133:142,1,80,2|8,1:2|0:0,0:0:0:0:
199,186,32079,2,0,L|188:284,1,80,2|8,1:2|0:0,0:0:0:0:
280,262,32527,2,0,L|291:164,1,80,2|8,1:2|0:0,0:0:0:0:
355,125,32974,2,0,P|398:115|447:128,2,80,2|8|0,1:2|0:0|1:2,0:0:0:0:
275,82,33646,1,10,0:0:0:0:
213,147,33870,2,0,L|118:138,1,80,2|10,1:2|0:0,0:0:0:0:
74,205,34318,2,0,P|62:260|74:304,1,80,2|10,1:2|0:0,0:0:0:0:
121,350,34765,6,0,L|216:341,1,80,2|8,1:2|0:0,0:0:0:0:
275,291,35213,2,0,L|370:300,1,80,2|8,1:2|0:0,0:0:0:0:
429,348,35661,2,0,P|443:300|428:240,1,80,2|8,1:2|0:0,0:0:0:0:
372,211,36109,2,0,P|358:163|373:103,1,80,2|8,1:2|0:0,0:0:0:0:
389,48,36556,2,0,L|483:55,2,80,2|8|0,1:2|0:0|1:2,0:0:0:0:
301,69,37228,1,8,0:0:0:0:
214,44,37452,2,0,L|207:2,2,40,0|8|10,1:2|0:0|0:0,0:0:0:0:
233,131,37900,2,0,L|211:244,1,80,10|10,0:0|0:0,0:0:0:0:
137,249,38347,6,0,P|211:233|235:322,1,160,6|10,1:2|0:0,0:0:0:0:
376,176,39243,2,0,P|410:110|483:126,1,160,2|8,1:2|0:0,0:0:0:0:
407,289,40138,2,0,B|360:293|360:293|306:269|306:269|226:269,1,160,2|8,1:2|0:0,0:0:0:0:
77,228,41034,2,0,P|61:280|106:340,2,120,2|2|2,1:2|1:2|1:2,0:0:0:0:
135,159,41930,6,0,L|320:143,1,160,6|8,1:2|0:0,0:0:0:0:
377,178,42601,1,2,0:0:0:0:
306,234,42825,2,0,L|121:250,1,160,10|8,0:0|0:0,0:0:0:0:
77,305,43497,1,2,0:0:0:0:
158,341,43721,2,0,L|343:325,1,160,10|8,0:0|0:0,0:0:0:0:
398,289,44392,1,2,0:0:0:0:
342,218,44616,2,0,P|319:147|346:91,1,120,10|2,0:0|1:2,0:0:0:0:
371,81,45064,2,0,B|384:54|384:54|377:-3,1,80,8|0,0:0|0:0,0:0:0:0:
292,32,45512,6,0,P|210:82|435:286,1,560,2|4,0:0|0:3,0:0:0:0:
370,224,47303,6,0,P|360:173|372:128,1,80,10|0,1:2|0:0,0:0:0:0:
403,122,47638,2,0,P|413:71|401:26,1,80,10|0,1:2|0:0,0:0:0:0:
371,17,47974,1,10,1:2:0:0:
292,61,48198,2,0,L|182:50,1,80,4|8,1:2|0:0,0:0:0:0:
141,108,48646,2,0,L|79:114,2,40,8|8|4,0:0|0:3|0:3,0:0:0:0:
223,144,49094,6,0,P|235:196|236:241,1,80,6|8,1:2|0:0,0:0:0:0:
321,251,49541,2,0,P|324:211|334:172,1,80,2|8,1:2|0:0,0:0:0:0:
362,136,49877,2,0,L|483:154,1,120,2|10,0:2|0:0,0:0:0:0:
479,63,50437,2,0,L|367:46,1,80,2|10,1:2|0:0,0:0:0:0:
315,18,50885,6,0,P|292:35|224:37,1,80,2|0,1:2|0:0,0:0:0:0:
200,25,51221,2,0,L|216:153,1,120,2|10,0:0|0:0,0:0:0:0:
275,210,51780,2,0,L|256:318,2,80,0|8|2,1:0|0:0|1:2,0:0:0:0:
329,138,52452,1,8,0:0:0:0:
392,200,52676,6,0,P|443:215|494:215,1,80,2|8,1:2|0:0,0:0:0:0:
507,298,53124,2,0,P|456:313|405:313,1,80,2|8,1:2|0:0,0:0:0:0:
387,299,53459,2,0,B|354:277|354:277|255:290,1,120,2|8,0:2|0:0,0:0:0:0:
195,331,54019,2,0,L|96:313,1,80,2|10,1:2|0:0,0:0:0:0:
44,263,54467,6,0,B|54:204|54:204|37:165|37:165|53:93,1,160,2|0,1:2|1:0,0:0:0:0:
109,41,55138,1,8,0:0:0:0:
176,99,55362,2,0,P|229:109|282:111,1,80,2|8,1:2|0:0,0:0:0:0:
328,59,55810,2,0,P|381:49|434:47,1,80,2|10,1:2|0:0,0:0:0:0:
467,113,56258,6,0,L|451:211,1,80,4|8,1:2|0:0,0:0:0:0:
506,265,56706,2,0,B|448:207|448:207|372:234,1,160,2|2,1:2|1:2,0:0:0:0:
302,286,57377,2,0,P|286:238|299:189,2,80,10|2|10,0:0|1:2|0:0,0:0:0:0:
214,305,58049,6,0,L|114:295,1,80,4|8,1:2|0:0,0:0:0:0:
71,361,58497,2,0,B|118:295|118:295|79:213,1,160,2|0,1:2|1:2,0:0:0:0:
35,148,59168,1,10,0:2:0:0:
124,141,59392,2,0,P|175:126|210:108,1,80,0|10,1:2|0:2,0:0:0:0:
263,51,59840,6,0,P|337:83|452:87,2,160,6|2|2,1:2|1:2|1:2,0:0:0:0:
199,114,60959,1,8,0:0:0:0:
264,175,61183,2,0,L|279:272,1,80,2|8,1:2|0:0,0:0:0:0:
214,320,61631,6,0,P|166:332|99:276,2,120,6|2|2,1:2|0:2|0:0,0:0:0:0:
276,254,62527,2,0,P|318:231|358:241,1,80,2|0,0:0|0:0,0:0:0:0:
431,269,62974,1,8,0:3:0:0:
444,180,63198,1,4,0:3:0:0:
458,91,63422,6,0,L|375:81,1,80,6|8,1:2|0:0,0:0:0:0:
307,137,63870,2,0,L|224:147,1,80,2|8,1:2|0:0,0:0:0:0:
190,172,64206,2,0,P|168:92|165:42,1,120,2|10,0:2|0:0,0:0:0:0:
79,81,64765,2,0,P|71:131|69:170,1,80,2|10,1:2|0:0,0:0:0:0:
49,248,65213,6,0,B|135:239,1,80,2|0,1:2|0:0,0:0:0:0:
158,274,65549,2,0,L|293:260,1,120,2|10,0:0|0:0,0:0:0:0:
348,207,66109,2,0,P|365:251|356:301,2,80,0|10|2,1:0|0:0|1:2,0:0:0:0:
287,140,66780,1,10,0:2:0:0:
211,91,67004,6,0,L|115:84,1,80,2|8,1:2|0:0,0:0:0:0:
120,174,67452,2,0,L|216:181,1,80,2|8,1:2|0:0,0:0:0:0:
232,211,67788,2,0,P|247:255|248:334,1,120,2|8,0:2|0:0,0:0:0:0:
336,347,68347,2,0,P|347:302|364:265,1,80,2|10,1:2|0:0,0:0:0:0:
438,226,68795,6,0,B|462:186|462:186|427:69,1,160,2|0,1:2|1:0,0:0:0:0:
350,34,69467,1,8,0:0:0:0:
288,98,69691,2,0,P|244:106|176:101,2,80,2|8|2,1:2|0:0|1:2,0:0:0:0:
366,140,70362,1,10,0:0:0:0:
319,216,70586,6,0,L|309:308,1,80,4|8,1:2|0:0,0:0:0:0:
229,336,71034,2,0,L|197:154,1,160,2|2,1:2|1:2,0:0:0:0:
147,106,71706,1,10,0:2:0:0:
214,46,71930,2,0,P|281:37|305:37,1,80,2|10,1:2|0:0,0:0:0:0:
337,115,72377,6,0,P|405:137|513:138,2,160,4|2|4,1:2|1:2|1:2,0:0:0:0:
277,183,73497,1,8,0:0:0:0:
355,227,73721,2,0,L|346:327,1,80,2|8,1:2|0:0,0:0:0:0:
265,342,74168,6,0,L|277:176,1,160,4|0,1:2|1:0,0:0:0:0:
198,137,74840,1,10,0:0:0:0:
124,189,75064,2,0,P|80:196|37:192,1,80,2|8,1:2|0:0,0:0:0:0:
39,103,75512,2,0,P|83:96|126:100,1,80,2|10,1:2|0:0,0:0:0:0:
198,137,75959,6,0,B|208:198|208:198|197:232|197:232|212:323,1,160,2|0,1:2|1:0,0:0:0:0:
295,310,76631,1,8,0:0:0:0:
383,325,76855,2,0,L|393:391,2,40,0|8|2,1:0|0:0|0:0,0:0:0:0:
443,258,77303,2,0,L|453:162,1,80,8|4,0:0|0:3,0:0:0:0:
420,94,77750,6,0,P|336:85|251:86,1,160,6|10,1:2|0:0,0:0:0:0:
101,168,78646,2,0,P|185:177|270:176,1,160,2|10,1:2|0:0,0:0:0:0:
358,326,79541,6,0,P|286:316|193:316,1,160,2|8,1:2|0:0,0:0:0:0:
127,262,80213,1,2,0:0:0:0:
180,190,80437,2,0,L|188:103,1,80,0|8,0:0|1:2,0:0:0:0:
264,63,80885,2,0,P|321:79|366:73,1,80,8|8,1:2|1:2,0:0:0:0:
431,84,81333,6,0,P|340:145|476:184,2,320,4|4|4,1:2|1:2|1:2,0:0:0:0:
256,192,83235,12,6,85810,1:2:0:0:
