osu file format v14

[General]
AudioFilename: audio.mp3
AudioLeadIn: 0
PreviewTime: 47247
Countdown: 0
SampleSet: Soft
StackLeniency: 0.7
Mode: 0
LetterboxInBreaks: 0
WidescreenStoryboard: 0

[Editor]
DistanceSpacing: 0.8
BeatDivisor: 4
GridSize: 8
TimelineZoom: 2.6

[Metadata]
Title:adrenaline!!! -TV Ver-
TitleUnicode:adrenaline!!! -TV Ver-
Artist:TrySail
ArtistUnicode:TrySail
Creator:Left
Version:Karen's Extra
Source:エロマンガ先生
Tags:Eromanga Sensei ED Ending Linada Karen Gaia toybot Kisses
BeatmapID:1271434
BeatmapSetID:600297

[Difficulty]
HPDrainRate:6
CircleSize:3.5
OverallDifficulty:8
ApproachRate:9.3
SliderMultiplier:2.2
SliderTickRate:1

[Events]
//Background and Video events
0,0,"BG.jpg",0,0
Video,-190,"eromanga ending.avi"
//Break Periods
//Storyboard Layer 0 (Background)
//Storyboard Layer 1 (Fail)
//Storyboard Layer 2 (Pass)
//Storyboard Layer 3 (Foreground)
//Storyboard Sound Samples

[TimingPoints]
288,223.880597014925,4,2,1,40,1,0
288,-133.333333333333,4,2,1,40,0,0
455,-133.333333333333,4,2,1,65,0,0
736,223.880597014925,4,2,2,50,1,0
5213,-100,4,2,2,55,0,0
5437,-100,4,2,2,60,0,0
5661,-100,4,2,2,65,0,0
5885,-100,4,2,2,70,0,0
6109,-100,4,2,1,75,0,0
6333,-100,4,2,1,5,0,0
6444,-100,4,2,1,75,0,0
6668,-100,4,2,1,5,0,0
6780,-100,4,2,1,75,0,0
6892,-100,4,2,1,5,0,0
7004,-83.3333333333333,4,2,1,75,0,0
7396,-83.3333333333333,4,2,1,5,0,0
7452,-76.9230769230769,4,2,1,75,0,0
7788,-76.9230769230769,4,2,1,5,0,0
7900,-100,4,2,1,75,0,0
8068,-100,4,2,1,5,0,0
8124,-100,4,2,1,75,0,0
11650,-100,4,2,1,5,0,0
11706,-100,4,2,1,75,0,0
15064,-133.333333333333,4,2,1,75,0,0
15176,-133.333333333333,4,2,1,55,0,0
16855,-133.333333333333,4,2,1,65,0,0
17247,-133.333333333333,4,2,1,5,0,0
17303,-133.333333333333,4,2,1,65,0,0
18814,-133.333333333333,4,2,1,5,0,0
18870,-133.333333333333,4,2,1,65,0,0
20157,-133.333333333333,4,2,1,5,0,0
20213,-133.333333333333,4,2,1,65,0,0
21053,-133.333333333333,4,2,1,5,0,0
21109,-133.333333333333,4,2,1,65,0,0
23124,-105.263157894737,4,2,1,65,0,0
23571,-86.9565217391303,4,2,1,65,0,0
24019,-133.333333333333,4,2,1,65,0,0
24243,-79.9999999999999,4,2,1,65,0,0
24467,-133.333333333333,4,2,1,65,0,0
25978,-133.333333333333,4,2,1,5,0,0
26034,-133.333333333333,4,2,1,65,0,0
37956,-133.333333333333,4,2,1,5,0,0
38012,-133.333333333333,4,2,1,65,0,0
38795,-79.9999999999999,4,2,1,65,0,0
38963,-79.9999999999999,4,2,1,5,0,0
39019,-133.333333333333,4,2,1,65,0,0
39691,-79.9999999999999,4,2,1,65,0,0
39859,-79.9999999999999,4,2,1,5,0,0
39915,-133.333333333333,4,2,1,65,0,0
40586,-79.9999999999999,4,2,1,65,0,0
40810,-133.333333333333,4,2,1,65,0,0
41034,-105.263157894737,4,2,1,65,0,0
41258,-105.263157894737,4,2,1,5,0,0
41370,-105.263157894737,4,2,1,65,0,0
41594,-105.263157894737,4,2,1,5,0,0
41706,-105.263157894737,4,2,1,65,0,0
41818,-105.263157894737,4,2,1,5,0,0
41930,-133.333333333333,4,2,1,65,0,0
42321,-133.333333333333,4,2,1,5,0,0
42377,-133.333333333333,4,2,1,65,0,0
45512,-133.333333333333,4,2,1,50,0,0
46407,-133.333333333333,4,2,1,60,0,0
46631,-133.333333333333,4,2,1,65,0,0
46855,-133.333333333333,4,2,1,70,0,0
47079,-133.333333333333,4,2,1,75,0,0
47303,-79.9999999999999,4,2,1,78,0,0
47359,-79.9999999999999,4,2,1,5,0,0
47638,-79.9999999999999,4,2,1,78,0,0
47694,-79.9999999999999,4,2,1,5,0,0
47974,-79.9999999999999,4,2,1,78,0,0
48030,-79.9999999999999,4,2,1,5,0,0
48198,-79.9999999999999,4,2,1,78,0,0
48982,-79.9999999999999,4,2,1,5,0,0
49094,-100,4,2,1,83,0,1
49261,-100,4,2,1,5,0,1
49318,-100,4,2,1,83,0,1
49709,-100,4,2,1,5,0,1
49765,-100,4,2,1,83,0,1
53291,-100,4,2,1,5,0,1
53347,-100,4,2,1,83,0,1
55530,-100,4,2,1,5,0,1
55586,-100,4,2,1,83,0,1
56426,-100,4,2,1,5,0,1
56482,-100,4,2,1,83,0,1
58217,-100,4,2,1,5,0,1
58273,-100,4,2,1,83,0,1
62750,-100,4,2,1,83,0,0
63310,-100,4,2,1,5,0,0
63422,-100,4,2,1,83,0,1
63590,-100,4,2,1,5,0,1
63646,-100,4,2,1,83,0,1
64038,-100,4,2,1,5,0,1
64094,-100,4,2,1,83,0,1
67172,-100,4,2,1,5,0,1
67228,-100,4,2,1,83,0,1
69859,-100,4,2,1,5,0,1
69915,-100,4,2,1,83,0,1
70754,-100,4,2,1,5,0,1
70810,-100,4,2,1,83,0,1
77750,-100,4,2,1,83,0,0
80157,-100,4,2,1,5,0,0
80213,-100,4,2,1,83,0,0
80437,-83.3333333333333,4,2,1,83,0,0
80605,-83.3333333333333,4,2,1,5,0,0
80661,-83.3333333333333,4,2,1,83,0,0
81333,-133.333333333333,4,2,1,83,0,0
83124,-181.818181818181,4,2,1,83,0,0
83571,-133.333333333333,4,2,1,83,0,0
84915,-79.9999999999999,4,2,1,83,0,0
85138,-79.9999999999999,4,2,1,5,0,0
85250,-79.9999999999999,4,2,1,83,0,0
85474,-79.9999999999999,4,2,1,5,0,0
85586,-79.9999999999999,4,2,1,83,0,0
85698,-79.9999999999999,4,2,1,5,0,0
85810,-200,4,2,1,83,0,0
86258,-200,4,2,1,5,0,0

[Colours]
Combo1 : 255,128,128
Combo2 : 128,191,255
Combo3 : 255,255,72
Combo4 : 255,179,217

[HitObjects]
227,227,399,5,0,1:0:0:0:
85,217,511,2,0,L|216:209,1,123.750004720688,8|0,0:0|0:0,0:0:0:0:
194,188,736,5,2,0:0:0:0:
188,166,959,1,0,0:0:0:0:
190,144,1183,1,0,0:0:0:0:
199,124,1407,1,2,0:0:0:0:
295,69,1631,5,0,0:0:0:0:
198,15,1855,1,2,0:0:0:0:
105,75,2079,1,2,0:0:0:0:
115,194,2303,1,0,0:0:0:0:
115,194,2415,1,0,0:0:0:0:
115,194,2527,5,2,0:0:0:0:
144,322,2750,1,0,0:0:0:0:
273,294,2974,1,0,0:0:0:0:
245,164,3198,1,2,0:0:0:0:
84,174,3422,5,0,0:0:0:0:
124,352,3645,1,2,0:0:0:0:
303,313,3869,1,2,0:0:0:0:
264,133,4093,1,0,0:0:0:0:
203,250,4318,5,2,0:0:0:0:
203,250,4430,1,0,0:0:0:0:
203,250,4541,1,0,0:0:0:0:
104,74,4765,1,2,0:0:0:0:
264,133,4989,1,0,0:0:0:0:
285,128,5101,1,4,0:3:0:0:
306,124,5213,5,4,0:3:0:0:
272,217,5325,1,4,0:3:0:0:
297,312,5437,1,4,0:3:0:0:
393,332,5549,1,4,0:3:0:0:
494,266,5661,5,8,0:3:0:0:
474,146,5773,1,8,0:3:0:0:
358,110,5885,1,8,0:0:0:0:
266,189,5997,1,8,0:0:0:0:
297,312,6109,6,0,P|278:255|405:253,1,220,10|0,1:2|0:0,0:0:0:0:
297,312,6444,2,0,P|268:235|353:117,1,220,10|0,1:2|0:0,0:0:0:0:
297,312,6780,2,0,P|233:294|199:242,1,110,2|0,1:2|0:0,0:0:0:0:
120,0,7004,6,0,B|128:67|93:115|93:115|130:181|96:235|96:235|141:293|107:376,1,395.999987915039,10|0,0:0|0:0,0:0:0:0:
20,179,7452,6,0,B|71:112|152:119|190:186|190:186|290:173|290:173|369:203|369:203|481:188,1,500.499977088929,4|0,0:0|0:0,0:0:0:0:
476,188,7900,6,0,P|430:129|451:47,1,165,2|0,1:2|0:0,0:0:0:0:
473,10,8124,2,0,L|357:22,1,110,10|0,0:0|0:0,0:0:0:0:
208,140,8347,1,2,1:2:0:0:
208,140,8459,2,0,P|219:184|197:260,1,110,0|8,0:0|0:0,0:0:0:0:
34,353,8683,6,0,B|88:353|130:318|130:318|166:356|244:351,1,220,2|0,0:0|0:0,0:0:0:0:
400,280,9019,2,0,P|345:259|281:287,1,110,10|0,0:0|0:0,0:0:0:0:
51,250,9243,2,0,L|40:123,1,110,2|0,1:2|0:0,0:0:0:0:
313,61,9467,2,0,L|303:170,1,110,10|0,0:0|0:0,0:0:0:0:
163,368,9691,6,0,P|145:309|169:253,1,110,2|0,1:2|0:0,0:0:0:0:
219,5,9915,2,0,P|176:50|116:57,1,110,10|0,0:0|0:0,0:0:0:0:
206,175,10138,1,2,1:2:0:0:
206,175,10250,2,0,L|331:153,1,110,0|8,0:0|0:0,0:0:0:0:
512,267,10474,6,0,P|419:269|438:391,1,220,2|0,0:0|0:0,0:0:0:0:
425,166,10810,2,0,L|432:46,1,110,10|0,0:0|0:0,0:0:0:0:
314,237,11034,2,0,L|321:117,1,110,2|0,1:2|0:0,0:0:0:0:
182,29,11258,1,10,0:0:0:0:
182,29,11370,1,0,0:0:0:0:
94,95,11482,6,0,P|136:156|98:258,1,165,2|0,1:2|0:0,0:0:0:0:
135,264,11706,2,0,L|5:268,1,110,10|0,0:0|0:0,0:0:0:0:
168,381,11930,1,2,1:2:0:0:
168,381,12041,2,0,L|277:377,1,110,0|8,0:0|0:0,0:0:0:0:
482,206,12265,6,0,B|455:158|455:158|344:173|344:173|336:228,1,220,2|0,0:0|0:0,0:0:0:0:
439,384,12601,2,0,P|444:325|416:273,1,110,10|0,0:0|0:0,0:0:0:0:
289,106,12825,2,0,P|336:128|399:123,1,110,2|0,1:2|0:0,0:0:0:0:
346,347,13049,2,0,L|222:345,1,110,10|0,0:0|0:0,0:0:0:0:
192,137,13273,6,0,P|206:73|181:17,1,110,2|0,1:2|0:0,0:0:0:0:
147,235,13497,2,0,P|205:247|265:216,1,110,10|0,0:0|0:0,0:0:0:0:
107,87,13721,1,2,1:2:0:0:
107,87,13833,2,0,L|-14:99,1,110,0|8,0:0|0:0,0:0:0:0:
36,336,14056,6,0,L|171:343,1,110,2|0,0:0|0:0,0:0:0:0:
326,237,14280,1,4,0:3:0:0:
326,237,14392,1,4,0:3:0:0:
326,237,14504,1,4,0:3:0:0:
379,140,14616,5,8,0:3:0:0:
341,36,14728,1,8,0:3:0:0:
231,23,14840,1,8,0:0:0:0:
170,115,14952,1,8,0:0:0:0:
217,227,15064,6,0,P|242:299|201:381,1,165.000006294251,4|2,1:2|0:0,0:0:0:0:
206,376,15400,1,0,0:0:0:0:
206,376,15512,2,0,P|255:318|347:312,1,165.000006294251,10|0,0:0|0:0,0:0:0:0:
339,309,15847,5,2,1:2:0:0:
319,195,16071,1,2,0:0:0:0:
132,288,16295,1,0,1:0:0:0:
132,288,16407,2,0,L|25:285,1,82.5000031471254,10|0,0:0|0:0,0:0:0:0:
9,184,16631,1,0,0:0:0:0:
9,184,16743,1,0,0:0:0:0:
9,184,16855,6,0,L|17:88,1,82.5000031471254,0|0,1:0|0:0,0:0:0:0:
156,100,17079,2,0,L|162:182,1,82.5000031471254,10|0,0:0|0:0,0:0:0:0:
305,181,17303,2,0,L|311:98,1,82.5000031471254,2|0,1:2|0:0,0:0:0:0:
415,19,17527,1,8,0:0:0:0:
415,19,17638,6,0,P|463:31|505:152,1,165.000006294251,2|0,0:0|0:0,0:0:0:0:
399,228,17974,2,0,L|481:235,1,82.5000031471254,10|0,0:0|0:0,0:0:0:0:
387,325,18198,2,0,L|304:332,1,82.5000031471254,2|0,1:2|0:0,0:0:0:0:
286,117,18422,2,0,L|368:124,1,82.5000031471254,10|0,0:0|0:0,0:0:0:0:
230,255,18646,6,0,P|169:233|83:286,1,165.000006294251,2|10,1:2|0:0,0:0:0:0:
162,147,18982,1,0,0:0:0:0:
162,147,19094,2,0,L|150:43,1,82.5000031471254,2|0,1:2|0:0,0:0:0:0:
327,218,19318,1,8,0:0:0:0:
327,218,19430,6,0,L|321:383,1,165.000006294251,2|0,0:0|0:0,0:0:0:0:
487,347,19765,1,8,0:0:0:0:
487,347,19877,1,0,0:0:0:0:
487,347,19989,2,0,P|493:288|481:246,1,82.5000031471254,2|0,1:2|0:0,0:0:0:0:
344,107,20213,2,0,P|376:132|415:146,1,82.5000031471254,10|0,0:0|0:0,0:0:0:0:
392,307,20437,5,0,1:2:0:0:
392,307,20661,2,0,L|286:316,1,82.5000031471254,10|0,0:0|0:0,0:0:0:0:
143,171,20885,2,0,L|249:180,1,82.5000031471254,2|0,1:2|0:0,0:0:0:0:
344,107,21109,1,8,0:0:0:0:
344,107,21221,6,0,P|374:37|466:22,1,165.000006294251,2|0,0:0|0:0,0:0:0:0:
445,199,21556,2,0,L|440:95,1,82.5000031471254,10|0,0:0|0:0,0:0:0:0:
250,1,21780,2,0,L|246:83,1,82.5000031471254,2|0,1:2|0:0,0:0:0:0:
327,284,22004,2,0,L|323:201,1,82.5000031471254,10|0,0:0|0:0,0:0:0:0:
156,138,22228,6,0,B|43:120|43:120|-9:163,1,165.000006294251,2|8,1:2|0:0,0:0:0:0:
138,250,22564,5,0,0:0:0:0:
138,250,22676,2,0,P|143:293|127:353,1,82.5000031471254,2|0,1:2|0:0,0:0:0:0:
260,350,22900,5,8,0:0:0:0:
260,350,23012,1,0,0:0:0:0:
260,350,23124,2,0,P|251:298|274:239,1,104.499997209549,2|0,1:2|0:0,0:0:0:0:
113,235,23347,5,8,0:0:0:0:
113,235,23459,1,0,0:0:0:0:
113,235,23571,2,0,P|135:303|110:361,1,126.500002412796,2|0,1:2|0:0,0:0:0:0:
284,373,23795,5,8,0:0:0:0:
284,373,23907,1,0,0:0:0:0:
284,373,24019,2,0,L|380:371,1,82.5000031471254,2|0,0:0|0:0,0:0:0:0:
484,304,24243,6,0,P|476:192|396:272,1,275,12|0,0:0|1:0,0:0:0:0:
228,279,24579,2,0,L|220:187,1,82.5000031471254,2|8,0:0|0:0,0:0:0:0:
360,127,24803,6,0,B|309:130|309:130|251:93|251:93|185:94,1,165.000006294251,2|0,0:0|0:0,0:0:0:0:
331,30,25138,2,0,L|414:28,1,82.5000031471254,10|0,0:0|0:0,0:0:0:0:
220,196,25362,2,0,L|137:194,1,82.5000031471254,2|0,1:2|0:0,0:0:0:0:
327,339,25586,2,0,L|410:337,1,82.5000031471254,10|0,0:0|0:0,0:0:0:0:
500,187,25810,6,0,P|425:187|379:105,1,165.000006294251,2|10,1:2|0:0,0:0:0:0:
237,70,26146,1,0,0:0:0:0:
237,70,26258,2,0,L|122:63,1,82.5000031471254,2|0,1:2|0:0,0:0:0:0:
39,202,26482,1,8,0:0:0:0:
39,202,26594,6,0,L|216:177,1,165.000006294251,2|0,0:0|0:0,0:0:0:0:
297,326,26930,2,0,P|305:276|285:233,1,82.5000031471254,8|0,0:0|0:0,0:0:0:0:
237,70,27153,2,0,P|276:101|323:106,1,82.5000031471254,2|0,1:2|2:0,0:0:0:0:
449,18,27377,2,0,L|436:119,1,82.5000031471254,10|0,2:0|2:0,0:0:0:0:
491,256,27601,6,0,B|456:294|420:301|420:301|456:304|501:351,1,165.000006294251,2|8,1:2|0:0,0:0:0:0:
324,336,27937,2,0,P|319:293|340:235,1,82.5000031471254,2|0,0:0|1:0,0:0:0:0:
241,130,28161,1,0,0:0:0:0:
241,130,28273,2,0,P|246:173|225:231,1,82.5000031471254,10|0,0:0|0:0,0:0:0:0:
93,47,28497,6,0,L|196:33,1,82.5000031471254,2|0,1:2|0:0,0:0:0:0:
389,47,28721,2,0,L|286:33,1,82.5000031471254,10|0,0:0|0:0,0:0:0:0:
355,194,28944,1,2,1:2:0:0:
355,194,29056,2,0,L|353:284,1,82.5000031471254,0|8,0:0|0:0,0:0:0:0:
465,261,29280,1,2,0:0:0:0:
465,261,29392,6,0,L|448:352,1,82.5000031471254
283,367,29616,2,0,L|195:357,1,82.5000031471254,8|0,0:0|0:0,0:0:0:0:
25,253,29840,1,0,1:0:0:0:
76,175,29952,2,0,L|157:184,1,82.5000031471254,4|0,0:3|0:0,0:0:0:0:
278,247,30176,6,0,P|260:165|324:106,1,165.000006294251,8|8,0:0|0:0,0:0:0:0:
206,22,30512,1,4,0:3:0:0:
180,42,30624,1,4,0:3:0:0:
147,47,30735,1,8,0:3:0:0:
114,40,30847,1,8,0:3:0:0:
20,72,30959,1,8,0:0:0:0:
1,169,31071,1,8,0:3:0:0:
77,232,31183,6,0,L|212:224,1,123.750004720688,6|0,1:2|0:0,0:0:0:0:
98,210,31407,2,0,L|196:204,1,82.5000031471254,8|0,0:0|0:0,0:0:0:0:
338,348,31631,2,0,L|203:340,1,123.750004720688,2|0,1:2|0:0,0:0:0:0:
317,326,31855,2,0,L|219:320,1,82.5000031471254,8|0,0:0|0:0,0:0:0:0:
294,91,32079,6,0,L|287:219,1,123.750004720688,2|0,1:2|0:0,0:0:0:0:
312,118,32303,2,0,L|307:200,1,82.5000031471254,8|0,0:0|0:0,0:0:0:0:
468,341,32527,2,0,L|461:217,1,123.750004720688,2|0,1:2|0:0,0:0:0:0:
447,326,32751,2,0,L|442:243,1,82.5000031471254,8|0,0:0|0:0,0:0:0:0:
379,105,32974,6,0,L|249:91,1,123.750004720688,2|0,1:2|0:0,0:0:0:0:
136,137,33198,2,0,L|259:123,1,123.750004720688,10|0,0:0|0:0,0:0:0:0:
375,77,33422,2,0,L|245:63,1,123.750004720688,2|0,1:2|0:0,0:0:0:0:
139,167,33646,2,0,L|262:153,1,123.750004720688,10|0,0:0|0:0,0:0:0:0:
356,207,33870,6,0,P|356:261|422:313,1,123.750004720688,2|0,1:2|0:0,0:0:0:0:
402,308,34094,2,0,P|348:308|295:374,1,123.750004720688,10|0,0:0|0:0,0:0:0:0:
299,354,34318,2,0,P|297:293|253:252,1,123.750004720688,2|0,1:2|0:0,0:0:0:0:
250,248,34541,2,0,P|304:248|357:182,1,123.750004720688,10|0,0:0|0:0,0:0:0:0:
281,36,34765,6,0,P|257:92|274:170,1,123.750004720688,2|0,1:2|0:0,0:0:0:0:
251,51,34989,2,0,P|238:89|243:137,1,82.5000031471254,8|0,0:0|0:0,0:0:0:0:
441,247,35213,2,0,P|449:187|425:131,1,123.750004720688,2|0,1:2|0:0,0:0:0:0:
464,225,35437,2,0,P|468:184|455:146,1,82.5000031471254,8|0,0:0|0:0,0:0:0:0:
217,243,35661,6,0,P|277:251|333:226,1,123.750004720688,2|0,1:2|0:0,0:0:0:0:
239,266,35885,2,0,P|279:269|318:256,1,82.5000031471254,8|0,0:0|0:0,0:0:0:0:
494,58,36109,2,0,P|438:34|360:51,1,123.750004720688,2|0,1:2|0:0,0:0:0:0:
479,27,36333,2,0,P|441:14|392:19,1,82.5000031471254,8|0,0:0|0:0,0:0:0:0:
201,133,36556,6,0,L|65:124,1,123.750004720688,2|0,1:2|0:0,0:0:0:0:
182,161,36780,2,0,L|318:152,1,123.750004720688,10|0,0:0|0:0,0:0:0:0:
218,104,37004,2,0,L|82:95,1,123.750004720688,2|0,1:2|0:0,0:0:0:0:
164,190,37228,2,0,L|300:181,1,123.750004720688,10|0,0:0|0:0,0:0:0:0:
447,146,37452,5,0,1:2:0:0:
476,240,37564,1,8,0:0:0:0:
435,330,37676,2,0,L|332:325,1,82.5000031471254,10|0,0:0|0:0,0:0:0:0:
465,164,37900,5,10,0:0:0:0:
494,258,38012,1,0,0:0:0:0:
453,348,38124,2,0,L|350:343,1,82.5000031471254,10|0,0:0|0:0,0:0:0:0:
183,204,38347,5,6,1:2:0:0:
186,220,38459,1,0,0:0:0:0:
189,236,38571,1,0,1:0:0:0:
191,252,38683,1,0,0:0:0:0:
186,339,38795,6,0,L|196:123,1,206.25,8|0,0:0|0:0,0:0:0:0:
195,132,39019,2,0,P|148:140|105:129,1,82.5000031471254,0|2,0:0|0:0,0:0:0:0:
163,236,39243,5,2,1:2:0:0:
179,233,39355,1,0,0:0:0:0:
195,230,39467,1,0,1:2:0:0:
211,228,39579,1,0,0:0:0:0:
298,233,39691,6,0,L|82:223,1,206.25,8|0,0:0|0:0,0:0:0:0:
91,224,39915,2,0,P|99:270|88:313,1,82.5000031471254,0|0,0:0|0:0,0:0:0:0:
191,252,40138,5,2,1:2:0:0:
193,236,40250,1,0,0:0:0:0:
196,220,40362,1,0,1:2:0:0:
199,204,40474,1,2,0:0:0:0:
138,118,40586,6,0,L|280:120,1,137.5,8|0,0:0|0:0,0:0:0:0:
442,313,40810,1,8,0:0:0:0:
442,313,40922,1,10,0:0:0:0:
507,231,41034,6,0,P|423:264|319:188,1,208.999994419098,2|0,1:2|0:0,0:0:0:0:
431,104,41370,2,0,L|442:332,1,208.999994419098,2|0,1:2|0:0,0:0:0:0:
225,262,41706,2,0,L|236:150,1,104.499997209549,10|0,1:2|0:0,0:0:0:0:
340,30,41930,6,0,B|281:30|281:30|237:52|237:52|169:50,1,165.000006294251,6|0,1:2|0:0,0:0:0:0:
180,50,42377,1,8,0:0:0:0:
34,172,42601,1,2,0:0:0:0:
34,172,42825,6,0,L|206:154,1,165.000006294251,10|0,0:0|0:0,0:0:0:0:
199,155,43273,1,8,0:0:0:0:
285,329,43497,1,2,0:0:0:0:
285,329,43721,6,0,L|113:311,1,165.000006294251,10|0,0:0|0:0,0:0:0:0:
120,311,44168,1,8,0:0:0:0:
307,223,44392,1,2,0:0:0:0:
307,223,44616,6,0,L|479:205,1,165.000006294251,10|0,0:0|0:0,0:0:0:0:
471,205,45064,1,8,0:0:0:0:
404,319,45288,1,0,0:0:0:0:
347,121,45512,5,2,0:0:0:0:
353,136,45735,1,2,0:0:0:0:
357,151,45959,1,2,0:0:0:0:
361,166,46183,5,4,0:3:0:0:
380,246,46295,1,4,0:3:0:0:
461,226,46407,1,4,0:3:0:0:
441,146,46519,1,8,0:3:0:0:
342,150,46631,5,8,0:3:0:0:
277,225,46743,1,8,0:3:0:0:
178,235,46855,1,8,0:3:0:0:
102,171,46967,1,4,0:3:0:0:
93,72,47079,1,4,0:3:0:0:
162,0,47191,1,0,0:3:0:0:
229,78,47303,6,0,L|218:154,1,68.75,10|0,1:2|0:0,0:0:0:0:
243,69,47638,2,0,L|232:145,1,68.75,10|0,1:2|0:0,0:0:0:0:
257,61,47974,2,0,L|246:137,1,68.75,10|0,1:2|0:0,0:0:0:0:
252,294,48198,6,0,P|335:248|295:359,1,275,4|8,1:2|0:0,0:0:0:0:
138,383,48534,1,0,0:0:0:0:
133,286,48646,1,8,0:0:0:0:
123,190,48758,1,8,0:3:0:0:
123,102,48870,1,4,0:3:0:0:
123,102,49094,6,0,P|191:123|265:44,1,165,6|0,1:2|0:0,0:0:0:0:
259,68,49318,2,0,L|402:59,1,110,8|0,0:0|0:0,0:0:0:0:
459,239,49541,2,0,L|345:225,1,110,2|0,1:2|0:0,0:0:0:0:
172,305,49765,1,8,0:0:0:0:
254,373,49877,6,0,B|271:302|271:302|251:226|251:226|267:157,1,220,2|0,0:2|0:0,0:0:0:0:
299,11,50213,2,0,P|241:35|182:26,1,110,10|0,0:0|0:0,0:0:0:0:
368,127,50437,2,0,P|426:103|485:112,1,110,2|0,1:2|0:0,0:0:0:0:
318,266,50661,2,0,L|206:257,1,110,10|0,0:0|0:0,0:0:0:0:
62,59,50885,6,0,B|13:113|13:113|31:278,1,220,2|8,1:2|0:0,0:0:0:0:
124,189,51221,2,0,L|119:327,1,110,2|0,0:2|1:0,0:0:0:0:
120,298,51444,1,0,0:0:0:0:
210,381,51556,2,0,P|125:326|21:367,1,220,10|0,0:0|1:0,0:0:0:0:
77,203,51892,5,0,0:0:0:0:
77,203,52004,2,0,P|136:217|191:197,1,110,8|0,0:0|0:0,0:0:0:0:
300,33,52228,2,0,P|258:77|248:134,1,110,2|0,1:2|0:0,0:0:0:0:
333,311,52452,2,0,P|315:252|270:215,1,110,8|0,0:0|0:0,0:0:0:0:
129,114,52676,6,0,L|139:248,1,110,2|0,1:2|0:0,0:0:0:0:
407,230,52900,2,0,L|415:120,1,110,8|0,0:0|0:0,0:0:0:0:
209,310,53124,2,0,L|347:308,1,110,2|0,1:2|0:0,0:0:0:0:
265,188,53347,1,8,0:0:0:0:
155,326,53459,6,0,L|375:323,1,220,2|0,0:2|0:0,0:0:0:0:
511,250,53795,2,0,P|486:304|495:361,1,110,8|0,0:0|0:0,0:0:0:0:
444,159,54019,2,0,P|469:105|460:48,1,110,2|0,1:2|0:0,0:0:0:0:
265,188,54243,2,0,L|281:314,1,110,10|0,0:0|0:0,0:0:0:0:
314,99,54467,6,0,P|220:93|164:193,1,220,2|8,1:2|0:0,0:0:0:0:
371,243,54803,1,0,0:0:0:0:
371,243,54915,2,0,L|486:233,1,110,0|0,1:0|0:0,0:0:0:0:
339,384,55138,2,0,L|224:374,1,110,8|0,0:0|0:0,0:0:0:0:
53,287,55362,6,0,P|73:205|16:121,1,165,2|0,1:2|0:0,0:0:0:0:
37,136,55586,2,0,P|79:177|144:173,1,110,8|0,0:0|0:0,0:0:0:0:
288,266,55810,2,0,L|154:261,1,110,2|0,1:2|0:0,0:0:0:0:
127,81,56034,1,10,0:0:0:0:
127,81,56146,1,0,0:0:0:0:
237,175,56258,6,0,L|224:366,1,165,4|0,1:2|0:0,0:0:0:0:
239,359,56482,2,0,L|248:244,1,110,8|0,0:0|0:0,0:0:0:0:
391,49,56706,2,0,L|404:240,1,165,2|0,1:2|0:0,0:0:0:0:
389,233,56930,2,0,L|380:118,1,110,8|0,0:0|0:0,0:0:0:0:
186,2,57153,6,0,P|148:51|174:148,1,165,2|0,1:2|0:0,0:0:0:0:
170,144,57377,2,0,P|124:102|75:104,1,110,10|0,0:0|0:0,0:0:0:0:
147,281,57601,2,0,L|265:266,1,110,2|0,1:2|0:0,0:0:0:0:
458,234,57825,1,10,0:0:0:0:
458,234,57937,1,0,0:0:0:0:
322,186,58049,6,0,P|361:254|326:344,1,165,6|0,1:2|0:0,0:0:0:0:
349,346,58273,2,0,P|378:290|375:231,1,110,8|0,0:0|0:0,0:0:0:0:
189,186,58497,2,0,P|150:254|185:344,1,165,2|0,1:2|0:0,0:0:0:0:
163,346,58721,2,0,P|134:290|137:231,1,110,8|0,0:0|0:0,0:0:0:0:
188,76,58944,6,0,L|58:66,1,110,0|0,1:2|0:0,0:0:0:0:
324,76,59168,2,0,L|454:66,1,110,10|0,0:2|0:0,0:0:0:0:
200,43,59392,2,0,L|70:33,1,110,0|0,1:2|0:0,0:0:0:0:
312,47,59616,2,0,L|442:37,1,110,10|0,0:2|0:0,0:0:0:0:
401,223,59840,6,0,P|306:175|213:224,1,220,6|8,1:2|0:0,0:0:0:0:
401,223,60176,1,0,0:0:0:0:
341,147,60288,6,0,P|235:152|179:242,1,220,2|8,1:2|0:0,0:0:0:0:
341,147,60624,1,0,0:0:0:0:
252,110,60735,6,0,P|163:167|159:273,1,220,2|8,1:2|0:0,0:0:0:0:
252,110,61071,1,0,0:0:0:0:
154,124,61183,6,0,P|106:218|155:311,1,220,2|8,1:2|0:0,0:0:0:0:
154,124,61519,1,0,0:0:0:0:
220,212,61631,6,0,L|-15:195,1,220,6|8,1:2|0:0,0:0:0:0:
49,332,61967,2,0,B|95:300|103:239|103:239|109:298|151:335,1,220,2|0,0:2|0:0,0:0:0:0:
322,347,62303,1,2,0:0:0:0:
394,264,62415,1,8,0:0:0:0:
365,157,62527,1,0,0:0:0:0:
261,121,62638,1,8,0:0:0:0:
162,214,62750,5,2,0:0:0:0:
193,205,62862,1,4,0:3:0:0:
299,249,62974,5,8,0:3:0:0:
284,220,63086,1,4,0:3:0:0:
221,307,63198,5,4,0:3:0:0:
221,307,63422,6,0,L|409:302,1,165,6|0,1:2|0:0,0:0:0:0:
385,302,63646,2,0,P|386:244|421:200,1,110,8|0,0:0|0:0,0:0:0:0:
358,69,63870,2,0,L|244:55,1,110,2|0,1:2|0:0,0:0:0:0:
225,250,64094,1,8,0:0:0:0:
80,146,64206,6,0,B|150:205|183:156|209:113|313:184,1,220,2|0,0:2|0:0,0:0:0:0:
273,344,64541,2,0,P|215:357|157:336,1,110,10|0,0:0|0:0,0:0:0:0:
58,251,64765,2,0,P|76:312|55:371,1,110,2|0,0:0|0:0,0:0:0:0:
181,219,64990,2,0,L|181:92,1,110,10|0,0:0|0:0,0:0:0:0:
28,29,65213,6,0,B|96:39|96:39|162:5|162:5|250:16,1,220,2|8,1:2|0:0,0:0:0:0:
383,217,65550,2,0,P|323:202|263:224,1,110,2|0,0:2|1:0,0:0:0:0:
277,214,65773,1,0,0:0:0:0:
181,109,65885,2,0,P|298:106|350:15,1,220,10|0,0:0|1:0,0:0:0:0:
489,174,66221,5,0,0:0:0:0:
489,174,66333,2,0,L|476:298,1,110,10|0,0:0|0:0,0:0:0:0:
329,304,66556,2,0,L|340:194,1,110,2|0,1:2|0:0,0:0:0:0:
188,221,66780,2,0,L|176:330,1,110,10|0,0:2|0:0,0:0:0:0:
41,167,67004,6,0,P|21:104|35:52,1,110,2|0,1:2|0:0,0:0:0:0:
237,23,67228,2,0,P|257:86|243:138,1,110,8|0,0:0|0:0,0:0:0:0:
120,244,67452,2,0,P|174:216|232:241,1,110,2|0,1:2|0:0,0:0:0:0:
176,330,67676,1,8,0:0:0:0:
78,256,67788,6,0,P|167:195|271:258,1,220,2|0,0:2|0:0,0:0:0:0:
410,365,68124,2,0,L|278:351,1,110,8|0,0:0|0:0,0:0:0:0:
375,152,68347,2,0,L|361:275,1,110,2|0,1:2|0:0,0:0:0:0:
176,330,68572,2,0,L|167:220,1,110,10|0,0:0|0:0,0:0:0:0:
251,49,68795,6,0,P|149:81|60:7,1,220,2|8,1:2|0:0,0:0:0:0:
17,172,69132,1,0,0:0:0:0:
17,172,69244,2,0,B|77:167|77:167|58:228,1,110,0|0,1:0|0:0,0:0:0:0:
79,353,69467,2,0,B|18:357|18:357|38:297,1,110,8|0,0:0|0:0,0:0:0:0:
177,267,69691,6,0,L|364:257,1,165,2|0,1:2|0:0,0:0:0:0:
341,258,69915,2,0,P|383:299|450:298,1,110,8|0,0:0|0:0,0:0:0:0:
433,94,70138,2,0,L|421:219,1,110,2|0,1:2|0:0,0:0:0:0:
283,348,70363,1,10,0:0:0:0:
283,348,70475,1,0,0:0:0:0:
177,267,70586,6,0,L|161:66,1,165,0|0,1:0|0:0,0:0:0:0:
150,178,70810,2,0,L|159:307,1,110,8|0,0:0|0:0,0:0:0:0:
22,203,71034,2,0,L|38:2,1,165,4|0,1:2|0:0,0:0:0:0:
49,114,71258,2,0,L|40:243,1,110,8|0,0:0|0:0,0:0:0:0:
269,184,71482,6,0,P|242:108|284:41,1,165,2|0,1:2|0:0,0:0:0:0:
284,41,71706,2,0,L|408:34,1,110,10|0,0:2|0:0,0:0:0:0:
333,286,71930,2,0,L|208:275,1,110,2|0,1:2|0:0,0:0:0:0:
72,250,72154,1,10,0:0:0:0:
72,250,72266,1,0,0:0:0:0:
111,367,72377,6,0,L|109:142,1,220,4|8,1:2|0:0,0:0:0:0:
111,367,72713,1,0,0:0:0:0:
72,250,72825,6,0,L|182:54,1,220,4|8,1:2|0:0,0:0:0:0:
72,250,73161,1,0,0:0:0:0:
109,147,73273,6,0,L|302:32,1,220,4|8,1:2|0:0,0:0:0:0:
109,147,73609,1,0,0:0:0:0:
180,58,73721,6,0,L|405:55,1,220,4|8,1:2|0:0,0:0:0:0:
180,58,74056,1,0,0:0:0:0:
279,7,74168,6,0,L|272:121,1,110,4|0,1:2|0:0,0:0:0:0:
77,114,74392,2,0,L|70:4,1,110,8|0,0:0|0:0,0:0:0:0:
118,220,74616,2,0,L|1:202,1,110,0|0,1:0|0:0,0:0:0:0:
220,221,74840,2,0,L|337:203,1,110,10|0,0:0|0:0,0:0:0:0:
459,82,75064,6,0,P|431:132|449:198,1,110,2|0,1:2|0:0,0:0:0:0:
423,378,75288,2,0,P|430:324|402:277,1,110,8|0,0:0|0:0,0:0:0:0:
225,105,75512,2,0,L|338:108,1,110,2|0,1:2|0:0,0:0:0:0:
327,347,75735,2,0,L|214:350,1,110,10|0,0:0|0:0,0:0:0:0:
0,242,75959,6,0,P|74:230|139:300,1,165,2|0,1:2|0:0,0:0:0:0:
135,287,76183,2,0,P|133:226|173:175,1,110,8|0,0:0|0:0,0:0:0:0:
307,223,76407,1,0,1:0:0:0:
307,223,76519,1,0,0:0:0:0:
225,105,76631,2,0,L|104:100,1,110,8|0,0:0|0:0,0:0:0:0:
42,325,76855,5,0,1:0:0:0:
112,384,76967,1,8,0:0:0:0:
170,317,77079,1,2,0:0:0:0:
276,360,77191,1,8,0:0:0:0:
343,273,77303,1,10,0:0:0:0:
284,179,77415,1,0,0:0:0:0:
178,208,77527,1,10,0:0:0:0:
170,317,77638,1,0,0:0:0:0:
254,269,77750,6,0,L|110:259,1,110,6|0,1:2|0:0,0:0:0:0:
138,365,77974,2,0,L|247:372,1,110,0|0,1:2|0:0,0:0:0:0:
389,332,78198,2,0,L|161:316,1,220,10|0,0:0|0:0,0:0:0:0:
100,145,78534,1,0,0:0:0:0:
48,64,78646,6,0,P|96:47|155:64,1,110,2|0,1:2|0:0,0:0:0:0:
151,229,78870,2,0,P|102:245|43:228,1,110,0|0,1:2|0:0,0:0:0:0:
205,146,79094,2,0,L|439:143,1,220,10|0,0:0|0:0,0:0:0:0:
342,242,79430,1,0,0:0:0:0:
298,103,79541,6,0,L|306:221,1,110,2|0,1:2|0:0,0:0:0:0:
383,375,79765,2,0,L|375:265,1,110,0|0,1:0|0:0,0:0:0:0:
487,327,79989,2,0,L|268:330,1,220,8|2,0:0|0:0,0:0:0:0:
119,288,80325,1,0,0:0:0:0:
33,344,80437,6,0,P|18:267|97:188,1,197.99999395752,8|0,1:2|0:0,0:0:0:0:
96,188,80661,2,0,P|168:126|159:32,1,197.99999395752,8|0,1:2|0:0,0:0:0:0:
159,32,80885,2,0,L|290:36,1,131.99999597168,8|0,1:2|0:0,0:0:0:0:
446,112,81109,1,8,1:2:0:0:
446,112,81221,1,8,0:0:0:0:
452,214,81333,6,0,B|411:216|387:207|368:183|368:183|337:220|333:274|381:323|381:323|416:293|472:308,1,330.000012588501,4|0,1:2|0:0,0:0:0:0:
60,214,82228,2,0,B|101:216|125:207|144:183|144:183|175:220|179:274|131:323|131:323|96:293|40:308,1,330.000012588501,4|0,1:2|0:0,0:0:0:0:
256,368,83124,6,0,L|256:112,1,242.000007385254,4|8,1:2|0:0,0:0:0:0:
204,17,83683,1,0,0:0:0:0:
204,17,83795,2,0,P|156:9|108:25,1,82.5000031471254,0|0,0:0|0:0,0:0:0:0:
0,127,84019,6,0,L|170:111,1,165.000006294251,2|0,0:0|0:0,0:0:0:0:
225,219,84355,1,0,0:0:0:0:
225,219,84467,2,0,L|135:208,1,82.5000031471254,8|0,0:0|0:0,0:0:0:0:
112,329,84691,2,0,L|202:318,1,82.5000031471254,0|0,0:0|0:0,0:0:0:0:
440,224,84915,6,0,P|478:126|367:170,1,275,10|0,1:2|0:0,0:0:0:0:
195,218,85250,2,0,P|166:110|270:152,1,275,10|0,1:2|0:0,0:0:0:0:
317,378,85586,2,0,L|319:229,1,137.5,2|0,1:2|0:0,0:0:0:0:
320,20,85810,6,0,L|319:248,1,220,12|0,1:2|0:0,0:0:0:0:
