osu file format v14

[General]
AudioFilename: audio.mp3
AudioLeadIn: 0
PreviewTime: 47247
Countdown: 0
SampleSet: Soft
StackLeniency: 0.3
Mode: 0
LetterboxInBreaks: 0
WidescreenStoryboard: 0

[Editor]
DistanceSpacing: 1.4
BeatDivisor: 4
GridSize: 4
TimelineZoom: 1.7

[Metadata]
Title:adrenaline!!! -TV Ver-
TitleUnicode:adrenaline!!! -TV Ver-
Artist:TrySail
ArtistUnicode:TrySail
Creator:Left
Version:Gaia's Hard
Source:エロマンガ先生
Tags:Eromanga Sensei ED Ending Linada Karen Gaia toybot Kisses
BeatmapID:1268627
BeatmapSetID:600297

[Difficulty]
HPDrainRate:5
CircleSize:4
OverallDifficulty:6
ApproachRate:8
SliderMultiplier:1.1
SliderTickRate:1

[Events]
//Background and Video events
0,0,"BG.jpg",0,0
Video,-190,"eromanga ending.avi"
//Break Periods
//Storyboard Layer 0 (Background)
//Storyboard Layer 1 (Fail)
//Storyboard Layer 2 (Pass)
//Storyboard Layer 3 (Foreground)
//Storyboard Sound Samples

[TimingPoints]
288,223.880597014925,4,2,1,40,1,0
288,-100,4,2,1,40,0,0
455,-100,4,2,1,35,0,0
736,223.880597014925,4,2,2,50,1,0
736,-100,4,2,2,50,0,0
5213,-100,4,2,2,55,0,0
5437,-100,4,2,2,60,0,0
5661,-100,4,2,2,65,0,0
5885,-100,4,2,2,70,0,0
6109,-83.3333333333333,4,2,1,75,0,0
6333,-100,4,2,1,5,0,0
6444,-83.3333333333333,4,2,1,75,0,0
6668,-100,4,2,1,5,0,0
6780,-83.3333333333333,4,2,1,75,0,0
6892,-100,4,2,1,5,0,0
7004,-83.3333333333333,4,2,1,75,0,0
7396,-100,4,2,1,5,0,0
7452,-76.9230769230769,4,2,1,75,0,0
7788,-100,4,2,1,5,0,0
7900,-100,4,2,1,75,0,0
8068,-100,4,2,1,5,0,0
8124,-100,4,2,1,75,0,0
11650,-100,4,2,1,5,0,0
11706,-100,4,2,1,75,0,0
15064,-125,4,2,1,75,0,0
15176,-125,4,2,1,55,0,0
16855,-100,4,2,1,65,0,0
18814,-100,4,2,1,5,0,0
18870,-100,4,2,1,65,0,0
22564,-100,4,2,1,65,0,0
23012,-100,4,2,1,65,0,0
23459,-100,4,2,1,65,0,0
24243,-100,4,2,1,65,0,0
24579,-100,4,2,1,65,0,0
25978,-100,4,2,1,5,0,0
26034,-100,4,2,1,65,0,0
37956,-100,4,2,1,5,0,0
38012,-100,4,2,1,65,0,0
38795,-100,4,2,1,65,0,0
38963,-100,4,2,1,5,0,0
39019,-100,4,2,1,65,0,0
39691,-100,4,2,1,65,0,0
39859,-100,4,2,1,5,0,0
39915,-100,4,2,1,65,0,0
40586,-76.9230769230769,4,2,1,65,0,0
41370,-76.9230769230769,4,2,1,65,0,0
41706,-76.9230769230769,4,2,1,65,0,0
41930,-125,4,2,1,65,0,0
45512,-111.111111111111,4,2,1,50,0,0
46407,-100,4,2,1,60,0,0
46631,-100,4,2,1,65,0,0
46855,-100,4,2,1,70,0,0
47079,-100,4,2,1,75,0,0
47303,-76.9230769230769,4,2,1,78,0,0
47527,-100,4,2,1,5,0,0
47638,-76.9230769230769,4,2,1,78,0,0
47862,-100,4,2,1,5,0,0
47974,-76.9230769230769,4,2,1,78,0,0
48086,-100,4,2,1,5,0,0
48198,-76.9230769230769,4,2,1,78,0,0
48366,-100,4,2,1,5,0,0
48422,-100,4,2,1,78,0,0
48870,-100,4,2,1,78,0,0
48982,-100,4,2,1,5,0,0
49094,-90.9090909090909,4,2,1,83,0,1
49261,-90.9090909090909,4,2,1,5,0,1
49318,-90.9090909090909,4,2,1,83,0,1
55530,-90.9090909090909,4,2,1,5,0,1
55586,-90.9090909090909,4,2,1,83,0,1
56426,-90.9090909090909,4,2,1,5,0,1
56482,-90.9090909090909,4,2,1,83,0,1
56705,-90.9090909090909,4,2,1,83,0,1
57153,-90.9090909090909,4,2,1,83,0,1
58217,-90.9090909090909,4,2,1,5,0,1
58273,-90.9090909090909,4,2,1,83,0,1
58497,-90.9090909090909,4,2,1,83,0,1
58944,-90.9090909090909,4,2,1,83,0,1
59840,-90.9090909090909,4,2,1,53,0,1
60288,-90.9090909090909,4,2,1,63,0,1
60735,-90.9090909090909,4,2,1,73,0,1
61183,-90.9090909090909,4,2,1,83,0,1
61631,-90.9090909090909,4,2,1,93,0,1
61967,-90.9090909090909,4,2,1,83,0,1
63198,-90.9090909090909,4,2,1,83,0,1
63422,-90.9090909090909,4,2,1,83,0,1
63590,-90.9090909090909,4,2,1,5,0,1
63646,-90.9090909090909,4,2,1,83,0,1
67172,-90.9090909090909,4,2,1,5,0,1
67228,-90.9090909090909,4,2,1,83,0,1
69859,-90.9090909090909,4,2,1,5,0,1
69915,-90.9090909090909,4,2,1,83,0,1
70754,-90.9090909090909,4,2,1,5,0,1
70810,-90.9090909090909,4,2,1,83,0,1
71034,-90.9090909090909,4,2,1,83,0,1
71482,-90.9090909090909,4,2,1,83,0,1
72377,-90.9090909090909,4,2,1,83,0,1
72825,-90.9090909090909,4,2,1,83,0,1
73273,-90.9090909090909,4,2,1,83,0,1
73720,-90.9090909090909,4,2,1,83,0,1
74168,-90.9090909090909,4,2,1,83,0,1
74728,-90.9090909090909,4,2,1,83,0,1
77750,-90.9090909090909,4,2,1,63,0,1
77806,-90.9090909090909,4,2,1,83,0,1
80157,-90.9090909090909,4,2,1,5,0,1
80213,-90.9090909090909,4,2,1,83,0,1
80437,-90.9090909090909,4,2,1,83,0,1
80605,-90.9090909090909,4,2,1,5,0,1
80661,-90.9090909090909,4,2,1,83,0,1
80885,-90.9090909090909,4,2,1,83,0,1
81108,-90.9090909090909,4,2,1,83,0,1
81332,-90.9090909090909,4,2,1,83,0,1
84914,-90.9090909090909,4,2,1,83,0,1
85138,-90.9090909090909,4,2,1,5,0,1
85250,-90.9090909090909,4,2,1,83,0,1
85474,-90.9090909090909,4,2,1,5,0,1
85586,-90.9090909090909,4,2,1,83,0,1
85698,-90.9090909090909,4,2,1,5,0,1
85810,-100,4,2,1,83,0,0
86258,-100,4,2,1,5,0,0

[Colours]
Combo1 : 77,166,255
Combo2 : 6,104,97
Combo3 : 255,255,196

[HitObjects]
204,144,399,6,0,L|195:213,1,55,4|8,0:3|0:0,0:0:0:0:
199,213,736,6,0,P|260:220|314:232,1,110,6|0,0:0|0:0,0:0:0:0:
296,317,1183,2,0,P|242:306|187:299,1,110,0|2,0:0|0:0,0:0:0:0:
118,244,1631,2,0,P|106:188|88:126,1,110,0|2,0:0|0:0,0:0:0:0:
87,48,2079,2,0,P|140:73|198:89,1,110,2|0,0:0|0:0,0:0:0:0:
254,147,2527,5,6,0:0:0:0:
323,93,2750,1,0,0:0:0:0:
410,97,2974,1,0,0:0:0:0:
464,166,3198,1,2,0:0:0:0:
454,179,3422,5,0,0:0:0:0:
400,110,3646,1,2,0:0:0:0:
313,106,3870,1,2,0:0:0:0:
244,160,4093,1,0,0:0:0:0:
275,242,4318,6,0,P|305:250|339:253,2,55,6|0|0,0:0|0:0|0:0,0:0:0:0:
216,307,4765,1,2,0:0:0:0:
130,326,4989,1,0,0:0:0:0:
57,275,5213,2,0,L|66:209,3,55,4|4|4|4,0:3|0:3|0:3|0:3,0:0:0:0:
28,194,5661,2,0,L|20:117,3,55,8|8|8|8,0:3|0:3|0:0|0:0,0:0:0:0:
37,102,6109,6,0,P|94:57|171:69,1,131.99999597168,10|0,1:2|0:0,0:0:0:0:
234,128,6444,2,0,P|282:170|347:171,1,131.99999597168,10|0,1:2|0:0,0:0:0:0:
425,33,6780,2,0,P|413:63|416:120,1,65.9999979858399,2|0,1:2|0:0,0:0:0:0:
444,185,7004,6,0,L|471:325,1,131.99999597168,10|0,0:0|0:0,0:0:0:0:
264,365,7452,2,0,B|129:336|129:336|181:328|197:275,1,214.49999018097,4|0,0:0|0:0,0:0:0:0:
253,229,7900,5,2,1:2:0:0:
77,244,8124,2,0,L|-13:226,1,55,10|0,0:0|0:0,0:0:0:0:
20,152,8347,1,2,1:2:0:0:
20,152,8459,2,0,P|8:120|9:83,1,55,0|8,0:0|0:0,0:0:0:0:
88,104,8683,6,0,L|209:82,1,110,2|0,0:0|0:0,0:0:0:0:
256,24,9019,2,0,P|295:35|326:54,1,55,10|0,0:0|0:0,0:0:0:0:
392,36,9243,2,0,P|397:71|395:118,1,55,2|0,1:2|0:0,0:0:0:0:
464,140,9467,2,0,L|446:204,1,55,10|0,0:0|0:0,0:0:0:0:
480,272,9691,5,2,1:2:0:0:
329,370,9915,2,0,P|312:314|360:264,1,110,10|2,0:0|1:2,0:0:0:0:
371,177,10250,2,0,P|343:182|317:188,1,55,0|8,0:0|0:0,0:0:0:0:
256,244,10474,6,0,P|190:259|134:203,1,110,2|0,0:0|0:0,0:0:0:0:
80,204,10810,2,0,L|69:120,1,55,10|0,0:0|0:0,0:0:0:0:
152,56,11034,2,0,L|159:110,1,55,2|0,1:2|0:0,0:0:0:0:
207,178,11258,2,0,L|341:190,1,110,10|2,0:0|1:2,0:0:0:0:
439,39,11706,6,0,P|397:66|395:134,1,110,10|2,0:0|1:2,0:0:0:0:
448,180,12041,2,0,P|455:204|455:253,1,55,0|8,0:0|0:0,0:0:0:0:
480,316,12265,2,0,L|371:300,1,110,2|0,0:0|0:0,0:0:0:0:
300,344,12601,2,0,P|269:351|225:354,1,55,10|0,0:0|0:0,0:0:0:0:
176,308,12825,2,0,P|153:303|97:288,1,55,2|0,1:2|0:0,0:0:0:0:
80,224,13049,2,0,P|71:193|64:143,1,55,10|0,0:0|0:0,0:0:0:0:
76,88,13273,5,2,1:2:0:0:
250,171,13497,2,0,P|306:180|386:192,1,110,10|2,0:0|1:2,0:0:0:0:
440,192,13833,2,0,P|434:164|429:124,1,55,0|8,0:0|0:0,0:0:0:0:
424,56,14056,6,0,P|373:78|306:85,1,110,2|4,0:0|0:3,0:0:0:0:
232,24,14392,2,0,L|242:79,1,55,4|4,0:3|0:3,0:0:0:0:
157,120,14616,2,0,L|147:65,1,55,8|8,0:3|0:3,0:0:0:0:
53,25,14840,2,0,L|62:79,1,55,8|8,0:0|0:0,0:0:0:0:
17,152,15064,6,0,P|1:195|40:249,1,88,4|2,1:2|0:0,0:0:0:0:
123,350,15512,2,0,P|138:306|99:252,1,88,10|0,0:0|0:0,0:0:0:0:
114,190,15847,6,0,L|211:216,1,88,2|2,1:2|0:0,0:0:0:0:
247,276,16183,2,0,L|300:264,1,44,0|0,0:0|1:0,0:0:0:0:
361,230,16407,2,0,P|398:192|340:116,1,132,10|0,0:0|0:0,0:0:0:0:
311,48,16855,5,0,1:0:0:0:
129,31,17079,2,0,P|136:67|151:169,1,110,10|2,0:0|1:2,0:0:0:0:
196,204,17415,2,0,P|174:217|133:229,1,55,0|8,0:0|0:0,0:0:0:0:
96,292,17638,6,0,P|166:304|242:323,1,110,2|0,0:0|0:0,0:0:0:0:
264,256,17974,2,0,P|299:300|378:293,2,110,10|2|10,0:0|1:2|0:0,0:0:0:0:
300,180,18534,1,0,0:0:0:0:
300,180,18646,6,0,P|358:172|429:154,1,110,2|10,1:2|0:0,0:0:0:0:
248,96,19094,2,0,P|189:88|119:70,1,110,2|8,1:2|0:0,0:0:0:0:
64,116,19430,6,0,P|29:167|75:232,1,110,2|0,0:0|0:0,0:0:0:0:
24,296,19765,2,0,P|73:283|138:269,1,110,8|2,0:0|1:2,0:0:0:0:
196,220,20101,1,0,0:0:0:0:
196,220,20213,2,0,P|209:251|210:294,1,55,10|0,0:0|0:0,0:0:0:0:
252,344,20437,5,0,1:2:0:0:
340,190,20661,2,0,P|348:125|354:53,1,110,10|2,0:0|1:2,0:0:0:0:
292,24,20997,2,0,P|276:50|272:90,1,55,0|8,0:0|0:0,0:0:0:0:
200,116,21221,6,0,P|141:110|122:47,1,110,2|0,0:0|0:0,0:0:0:0:
40,52,21556,2,0,P|103:38|169:20,2,110,10|2|10,0:0|1:2|0:0,0:0:0:0:
48,136,22116,1,0,0:0:0:0:
48,136,22228,6,0,P|64:197|74:268,1,110,2|8,1:2|0:0,0:0:0:0:
214,351,22676,2,0,P|246:362|294:368,2,55,2|0|8,1:2|0:0|0:0,0:0:0:0:
68,268,23124,6,0,P|33:278|-10:295,2,55,2|0|8,1:2|0:0|0:0,0:0:0:0:
224,212,23571,2,0,P|221:183|210:135,1,55,2|0,1:2|0:0,0:0:0:0:
136,132,23795,2,0,P|138:104|143:77,1,55,8|0,0:0|0:0,0:0:0:0:
202,18,24019,5,2,0:0:0:0:
335,164,24243,2,0,P|382:158|458:136,1,110,12|0,0:0|1:0,0:0:0:0:
500,80,24579,2,0,P|480:66|439:59,1,55,2|8,0:0|0:0,0:0:0:0:
456,168,24803,6,0,P|450:223|444:301,1,110,2|0,0:0|0:0,0:0:0:0:
398,345,25138,2,0,P|440:359|513:327,2,110,10|2|10,0:0|1:2|0:0,0:0:0:0:
348,278,25698,1,0,0:0:0:0:
271,246,25810,6,0,L|126:272,1,110,2|10,1:2|0:0,0:0:0:0:
22,151,26258,2,0,P|46:88|118:96,1,110,2|8,1:2|0:0,0:0:0:0:
182,32,26594,2,0,P|169:83|159:160,1,110,2|0,0:0|0:0,0:0:0:0:
214,203,26930,2,0,P|248:214|304:223,1,55,8|0,0:0|0:0,0:0:0:0:
296,141,27153,2,0,P|328:136|379:134,1,55,2|0,1:2|2:0,0:0:0:0:
433,135,27377,2,0,P|423:162|414:200,1,55,10|0,2:0|2:0,0:0:0:0:
486,265,27601,6,0,P|480:332|426:352,1,110,6|8,1:2|0:0,0:0:0:0:
365,367,27937,2,0,L|239:351,1,110,2|0,0:0|0:0,0:0:0:0:
179,319,28273,2,0,P|152:336|100:342,1,55,10|0,0:0|0:0,0:0:0:0:
109,248,28497,6,0,L|100:180,1,55,6|0,1:2|0:0,0:0:0:0:
35,143,28721,2,0,L|48:62,1,55,10|0,0:0|0:0,0:0:0:0:
90,20,28944,1,2,1:2:0:0:
90,20,29056,2,0,P|115:45|125:74,1,55,0|8,0:0|0:0,0:0:0:0:
199,94,29280,6,0,P|255:84|320:76,1,110,2|0,0:0|0:0,0:0:0:0:
394,0,29616,2,0,P|429:46|405:115,1,110,12|0,0:0|1:0,0:0:0:0:
380,166,29952,2,0,P|378:196|393:231,1,55,4|0,0:3|0:0,0:0:0:0:
416,296,30176,6,0,L|278:280,1,110,8|8,0:0|0:0,0:0:0:0:
225,263,30512,2,0,P|225:300|233:349,1,55,4|4,0:3|0:3,0:0:0:0:
138,351,30735,2,0,P|135:323|136:296,1,55,8|8,0:3|0:3,0:0:0:0:
54,264,30959,2,0,P|60:227|79:178,1,55,8|8,0:0|0:3,0:0:0:0:
43,102,31183,6,0,P|106:122|186:139,1,110,6|8,1:2|0:0,0:0:0:0:
292,21,31631,2,0,P|302:57|307:85,1,55,2|0,1:2|0:0,0:0:0:0:
369,127,31855,2,0,L|352:201,1,55,8|0,0:0|0:0,0:0:0:0:
377,261,32079,6,0,P|321:252|247:244,1,110,2|8,1:2|0:0,0:0:0:0:
107,285,32527,2,0,P|104:316|124:360,2,55,2|0|8,1:2|0:0|0:0,0:0:0:0:
171,233,32862,1,0,0:0:0:0:
189,152,32974,6,0,P|138:163|68:172,2,110,2|8|0,1:2|0:0|1:2,0:0:0:0:
239,85,33534,1,0,0:0:0:0:
239,85,33646,2,0,P|276:92|308:115,1,55,10|0,0:0|0:0,0:0:0:0:
369,128,33870,6,0,L|352:202,1,55,2|0,1:2|0:0,0:0:0:0:
392,256,34094,2,0,P|400:290|403:345,1,55,10|0,0:0|0:0,0:0:0:0:
337,362,34318,2,0,L|251:342,1,55,2|0,1:2|0:0,0:0:0:0:
208,314,34541,2,0,L|130:335,1,55,10|0,0:0|0:0,0:0:0:0:
79,292,34765,6,0,P|48:259|94:185,1,110,2|8,1:2|0:0,0:0:0:0:
136,43,35213,2,0,P|168:58|198:67,1,55,2|0,1:2|0:0,0:0:0:0:
243,124,35437,2,0,P|211:137|187:156,1,55,8|0,0:0|0:0,0:0:0:0:
256,204,35661,6,0,L|249:332,1,110,2|8,1:2|0:0,0:0:0:0:
408,362,36109,2,0,P|442:360|468:350,2,55,2|0|8,1:2|0:0|0:0,0:0:0:0:
368,289,36444,1,0,0:0:0:0:
368,289,36556,6,0,P|424:266|501:293,2,110,2|8|0,1:2|0:0|1:2,0:0:0:0:
288,264,37116,1,0,0:0:0:0:
288,264,37228,2,0,P|271:237|262:190,1,55,8|0,0:0|0:0,0:0:0:0:
198,124,37452,6,0,L|211:45,1,55,0|8,1:2|0:0,0:0:0:0:
128,40,37676,2,0,L|119:94,1,55,10|0,0:0|0:0,0:0:0:0:
53,145,37900,2,0,P|21:212|70:262,1,110,10|10,0:0|0:0,0:0:0:0:
101,286,38235,1,0,0:0:0:0:
53,352,38347,6,0,P|20:362|-25:371,3,55,6|0|0|0,1:2|0:0|1:0|0:0,0:0:0:0:
101,286,38795,2,0,P|159:299|238:312,1,110,14|0,0:0|0:0,0:0:0:0:
280,264,39131,1,2,0:0:0:0:
341,319,39243,6,0,L|332:379,3,55,2|0|0|0,1:2|0:0|1:2|0:0,0:0:0:0:
280,264,39691,2,0,P|266:209|305:163,1,110,12|2,0:0|0:0,0:0:0:0:
340,98,40027,1,0,0:0:0:0:
340,98,40138,6,0,P|314:90|288:79,1,55,2|0,1:2|0:0,0:0:0:0:
226,23,40362,2,0,P|199:37|160:54,1,55,0|2,1:2|0:0,0:0:0:0:
92,29,40586,2,0,P|18:61|29:130,1,142.99999345398,12|8,0:0|0:0,0:0:0:0:
37,198,40922,1,10,0:0:0:0:
108,249,41034,6,0,B|201:227|201:227|206:202|222:170,1,142.99999345398,6|8,1:2|0:0,0:0:0:0:
293,79,41370,2,0,P|297:135|310:224,1,142.99999345398,6|2,1:2|0:0,0:0:0:0:
333,327,41706,2,0,P|308:315|256:310,1,71.4999967269899,6|2,1:2|0:0,0:0:0:0:
335,229,41930,6,0,L|453:208,1,88,6|0,1:2|0:0,0:0:0:0:
477,103,42377,2,0,L|390:118,1,88,8|2,0:0|0:0,0:0:0:0:
291,44,42825,2,0,P|228:27|181:51,1,88,10|0,0:0|0:0,0:0:0:0:
86,10,43273,2,0,P|99:61|109:117,1,88,8|2,0:0|0:0,0:0:0:0:
41,201,43721,6,0,P|84:192|126:181,1,88,10|0,0:0|0:0,0:0:0:0:
240,110,44168,2,0,L|224:228,1,88,8|2,0:0|0:0,0:0:0:0:
151,294,44616,2,0,P|195:311|255:326,1,88,10|0,0:0|0:0,0:0:0:0:
333,248,45064,2,0,P|379:241|441:225,1,88,8|0,0:0|0:0,0:0:0:0:
500,131,45512,6,0,P|471:86|425:81,1,98.9999969787599,6|0,0:0|0:0,0:0:0:0:
364,134,45847,1,0,0:0:0:0:
364,134,45959,2,0,P|335:127|307:116,3,49.4999984893799,2|0|4|4,0:0|0:0|0:3|0:3,0:0:0:0:
244,59,46407,6,0,P|214:73|178:81,1,55,4|8,0:3|0:3,0:0:0:0:
110,34,46631,2,0,P|89:26|46:18,1,55,8|8,0:3|0:3,0:0:0:0:
6,99,46855,2,0,L|29:166,1,55,8|4,0:3|0:3,0:0:0:0:
77,228,47079,2,0,L|60:317,1,55,4|0,0:3|0:3,0:0:0:0:
155,366,47303,6,0,B|254:348|254:348|246:324|241:293,1,142.99999345398,10|0,1:2|0:0,0:0:0:0:
329,221,47638,2,0,B|230:203|230:203|238:179|243:148,1,142.99999345398,10|0,1:2|0:0,0:0:0:0:
313,47,47974,2,0,P|333:75|328:129,1,71.4999967269899,10|0,1:2|0:0,0:0:0:0:
223,148,48198,6,0,L|75:128,1,142.99999345398,4|8,1:2|0:0,0:0:0:0:
18,58,48534,1,0,0:0:0:0:
18,58,48646,2,0,P|23:25|44:-6,2,55,8|8|4,0:0|0:3|0:3,0:0:0:0:
0,252,49094,6,0,P|55:240|147:227,1,121.000003692627,6|8,1:2|0:0,0:0:0:0:
261,138,49541,2,0,P|293:199|267:271,1,121.000003692627,2|8,1:2|0:0,0:0:0:0:
281,333,49877,6,0,P|329:343|415:350,1,121.000003692627,2|0,0:2|0:0,0:0:0:0:
456,284,50213,2,0,P|449:255|442:217,1,60.5000018463135,10|0,0:0|0:0,0:0:0:0:
389,158,50437,2,0,L|408:86,1,60.5000018463135,2|0,1:2|0:0,0:0:0:0:
328,61,50661,2,0,L|312:119,1,60.5000018463135,10|0,0:0|0:0,0:0:0:0:
227,150,50885,6,0,P|116:173|86:144,1,121.000003692627,2|8,1:2|0:0,0:0:0:0:
32,127,51221,2,0,P|44:178|57:262,1,121.000003692627,2|0,0:2|0:0,0:0:0:0:
117,319,51556,2,0,P|130:295|172:251,1,60.5000018463135,10|0,0:0|0:0,0:0:0:0:
234,252,51780,6,0,P|288:294|376:307,1,121.000003692627,0|8,1:0|0:0,0:0:0:0:
414,269,52116,1,0,0:0:0:0:
461,198,52228,2,0,P|455:169|426:135,1,60.5000018463135,2|0,1:2|0:0,0:0:0:0:
371,89,52452,2,0,P|337:102|295:115,1,60.5000018463135,8|0,0:0|0:0,0:0:0:0:
266,38,52676,6,0,B|208:21|208:54|135:37,1,121.000003692627,2|8,1:2|0:0,0:0:0:0:
15,148,53124,2,0,P|29:207|42:291,1,121.000003692627,2|8,1:2|0:0,0:0:0:0:
115,349,53459,6,0,P|125:289|139:230,1,121.000003692627,2|0,0:2|0:0,0:0:0:0:
166,149,53795,2,0,P|197:161|242:166,1,60.5000018463135,8|0,0:0|0:0,0:0:0:0:
285,106,54019,2,0,P|316:93|361:89,1,60.5000018463135,2|0,1:2|0:0,0:0:0:0:
427,93,54243,2,0,P|417:121|407:168,1,60.5000018463135,10|0,0:0|0:0,0:0:0:0:
425,234,54467,6,0,P|447:287|452:376,2,121.000003692627,2|8|0,1:2|0:0|1:0,0:0:0:0:
344,206,55027,1,0,0:0:0:0:
344,206,55138,2,0,P|304:220|264:239,1,60.5000018463135,8|0,0:0|0:0,0:0:0:0:
228,288,55362,6,0,L|134:268,1,60.5000018463135,2|0,1:2|0:0,0:0:0:0:
137,196,55586,2,0,P|125:165|124:127,1,60.5000018463135,8|0,0:0|0:0,0:0:0:0:
189,84,55810,2,0,P|188:51|200:14,1,60.5000018463135,2|0,1:2|0:0,0:0:0:0:
278,46,56034,2,0,P|277:78|289:115,1,60.5000018463135,10|0,0:0|0:0,0:0:0:0:
343,170,56258,6,0,L|467:151,1,121.000003692627,4|8,1:2|0:0,0:0:0:0:
330,346,56706,2,0,P|264:346|220:279,1,121.000003692627,2|8,1:2|0:0,0:0:0:0:
158,259,57041,1,0,0:0:0:0:
158,259,57153,6,0,P|150:296|142:352,1,60.5000018463135,2|0,1:2|0:0,0:0:0:0:
64,293,57377,2,0,P|56:255|48:200,1,60.5000018463135,10|0,0:0|0:0,0:0:0:0:
108,169,57601,2,0,P|114:142|117:99,1,60.5000018463135,2|0,1:2|0:0,0:0:0:0:
158,34,57825,2,0,P|191:55|225:69,1,60.5000018463135,10|0,0:0|0:0,0:0:0:0:
294,78,58049,6,0,P|361:47|419:62,1,121.000003692627,6|8,1:2|0:0,0:0:0:0:
358,237,58497,2,0,P|298:242|246:213,1,121.000003692627,2|8,1:2|0:0,0:0:0:0:
182,156,58833,1,0,0:0:0:0:
98,146,58944,2,0,P|68:161|31:186,1,60.5000018463135,0|0,1:2|0:0,0:0:0:0:
14,255,59168,2,0,P|31:290|38:320,1,60.5000018463135,10|0,0:2|0:0,0:0:0:0:
114,345,59392,2,0,P|121:313|126:276,1,60.5000018463135,0|0,1:2|0:0,0:0:0:0:
176,216,59616,2,0,L|183:139,1,60.5000018463135,10|0,0:2|0:0,0:0:0:0:
126,57,59840,6,0,P|185:45|244:33,1,121.000003692627,6|8,1:2|0:0,0:0:0:0:
427,100,60288,2,0,P|367:111|308:123,1,121.000003692627,6|8,1:2|0:0,0:0:0:0:
127,236,60735,6,0,P|186:224|245:212,1,121.000003692627,6|8,1:2|0:0,0:0:0:0:
442,306,61183,2,0,P|382:317|323:329,1,121.000003692627,6|8,1:2|0:0,0:0:0:0:
177,141,61631,6,0,P|237:109|310:150,1,121.000003692627,6|8,1:2|0:0,0:0:0:0:
347,210,61967,2,0,P|335:261|321:338,1,121.000003692627,2|0,0:2|0:0,0:0:0:0:
235,373,62303,2,0,P|229:340|219:301,1,60.5000018463135,2|8,0:0|0:0,0:0:0:0:
131,349,62527,6,0,P|100:345|49:333,1,60.5000018463135,0|8,0:0|0:0,0:0:0:0:
20,256,62750,2,0,P|50:252|102:240,1,60.5000018463135,2|4,0:0|0:3,0:0:0:0:
136,166,62974,2,0,L|126:102,1,60.5000018463135,8|4,0:3|0:3,0:0:0:0:
202,45,63198,2,0,L|211:104,1,60.5000018463135,4|0,0:3|0:0,0:0:0:0:
306,149,63422,6,0,P|392:129|468:138,1,121.000003692627,6|8,1:2|0:0,0:0:0:0:
446,323,63870,2,0,P|360:343|284:334,1,121.000003692627,2|8,1:2|0:0,0:0:0:0:
254,297,64206,6,0,L|120:275,1,121.000003692627,2|0,0:2|0:0,0:0:0:0:
73,219,64541,2,0,P|63:193|64:150,1,60.5000018463135,10|0,0:0|0:0,0:0:0:0:
45,76,64765,2,0,L|127:90,1,60.5000018463135,2|0,1:2|0:0,0:0:0:0:
188,103,64989,2,0,P|217:93|251:83,1,60.5000018463135,10|0,0:0|0:0,0:0:0:0:
318,39,65213,6,0,P|332:98|298:148,1,121.000003692627,2|8,1:2|0:0,0:0:0:0:
225,186,65549,2,0,L|92:166,1,121.000003692627,2|0,0:2|0:0,0:0:0:0:
32,212,65885,2,0,P|35:254|60:285,1,60.5000018463135,10|0,0:0|0:0,0:0:0:0:
118,332,66109,6,0,P|134:268|106:218,2,121.000003692627,0|10|2,1:0|0:0|1:2,0:0:0:0:
194,369,66668,1,0,0:0:0:0:
194,369,66780,2,0,P|220:364|270:342,1,60.5000018463135,10|0,0:2|0:0,0:0:0:0:
313,292,67004,6,0,P|385:307|445:317,1,121.000003692627,2|8,1:2|0:0,0:0:0:0:
395,148,67452,2,0,P|335:137|276:124,1,121.000003692627,2|8,1:2|0:0,0:0:0:0:
216,63,67788,6,0,P|135:79|122:136,1,121.000003692627,2|0,0:2|0:0,0:0:0:0:
52,157,68124,2,0,P|59:178|68:227,1,60.5000018463135,8|0,0:0|0:0,0:0:0:0:
133,273,68347,2,0,P|122:307|115:347,1,60.5000018463135,2|0,1:2|0:0,0:0:0:0:
188,378,68571,2,0,P|214:373|264:351,1,60.5000018463135,10|0,0:0|0:0,0:0:0:0:
273,280,68795,6,0,P|262:245|247:143,1,121.000003692627,2|8,1:2|0:0,0:0:0:0:
414,54,69243,2,0,P|411:88|385:135,1,60.5000018463135,0|0,1:0|0:0,0:0:0:0:
375,193,69467,2,0,P|392:227|395:272,1,60.5000018463135,8|0,0:0|0:0,0:0:0:0:
348,327,69691,6,0,P|412:332|444:384,2,121.000003692627,2|8|2,1:2|0:0|1:2,0:0:0:0:
270,360,70250,1,0,0:0:0:0:
270,360,70362,2,0,P|236:351|204:335,1,60.5000018463135,10|0,0:0|0:0,0:0:0:0:
168,267,70586,6,0,L|42:292,1,121.000003692627,4|8,1:2|0:0,0:0:0:0:
102,96,71034,2,0,P|161:56|221:100,1,121.000003692627,6|8,1:2|0:0,0:0:0:0:
286,56,71370,1,0,0:0:0:0:
286,56,71482,6,0,L|266:153,1,60.5000018463135,2|0,1:2|0:0,0:0:0:0:
345,162,71706,2,0,P|364:194|365:247,1,60.5000018463135,10|0,0:2|0:0,0:0:0:0:
338,296,71930,2,0,P|313:284|267:273,1,60.5000018463135,2|0,1:2|0:0,0:0:0:0:
201,247,72153,2,0,L|133:270,1,60.5000018463135,10|0,0:0|0:0,0:0:0:0:
49,200,72377,6,0,P|41:136|95:98,1,121.000003692627,4|8,1:2|0:0,0:0:0:0:
255,47,72825,2,0,L|226:185,1,121.000003692627,4|8,1:2|0:0,0:0:0:0:
201,247,73161,1,0,0:0:0:0:
263,303,73273,6,0,P|330:296|386:231,1,121.000003692627,4|8,1:2|0:0,0:0:0:0:
230,165,73721,2,0,P|172:156|87:139,1,121.000003692627,4|8,1:2|0:0,0:0:0:0:
66,71,74056,1,0,0:0:0:0:
1,129,74168,6,0,P|15:181|35:279,1,121.000003692627,4|8,1:2|0:0,0:0:0:0:
180,325,74616,2,0,P|215:329|256:311,2,60.5000018463135,0|0|10,1:0|0:0|0:0,0:0:0:0:
201,247,74952,1,0,0:0:0:0:
285,251,75064,6,0,P|311:278|320:323,1,60.5000018463135,2|0,1:2|0:0,0:0:0:0:
392,342,75288,2,0,L|411:273,1,60.5000018463135,8|0,0:0|0:0,0:0:0:0:
368,208,75512,2,0,P|359:169|351:108,1,60.5000018463135,2|0,1:2|0:0,0:0:0:0:
362,64,75735,2,0,P|328:75|287:89,1,60.5000018463135,10|0,0:0|0:0,0:0:0:0:
237,30,75959,5,2,1:2:0:0:
73,152,76183,2,0,L|99:296,1,121.000003692627,12|0,0:0|1:0,0:0:0:0:
157,328,76519,1,0,0:0:0:0:
157,328,76631,2,0,P|172:299|179:259,1,60.5000018463135,8|0,0:0|0:0,0:0:0:0:
252,228,76855,6,0,P|280:244|313:258,1,60.5000018463135,0|8,1:0|0:0,0:0:0:0:
379,212,77079,2,0,L|444:192,1,60.5000018463135,2|8,0:0|0:0,0:0:0:0:
436,108,77303,2,0,L|378:125,1,60.5000018463135,10|0,0:0|0:0,0:0:0:0:
310,72,77527,2,0,P|287:59|250:57,1,60.5000018463135,10|0,0:0|0:0,0:0:0:0:
178,95,77750,6,0,P|100:125|45:97,1,121.000003692627,6|0,1:2|1:2,0:0:0:0:
13,180,78086,1,0,0:0:0:0:
13,180,78198,2,0,P|28:230|48:324,1,121.000003692627,14|0,0:0|0:0,0:0:0:0:
197,370,78646,6,0,P|219:288|175:246,1,121.000003692627,2|0,1:2|1:2,0:0:0:0:
158,191,78982,1,0,0:0:0:0:
158,191,79094,2,0,P|226:212|305:228,1,121.000003692627,14|0,0:0|0:0,0:0:0:0:
404,88,79541,6,0,P|321:74|295:118,1,121.000003692627,2|0,1:2|1:0,0:0:0:0:
358,159,79877,1,0,0:0:0:0:
358,159,79989,2,0,P|367:210|370:299,1,121.000003692627,12|2,0:0|0:0,0:0:0:0:
224,365,80437,6,0,P|193:359|140:336,1,60.5000018463135
91,307,80661,2,0,L|75:230,1,60.5000018463135,8|0,1:2|0:0,0:0:0:0:
97,164,80885,2,0,P|125:148|173:148,1,60.5000018463135,12|0,1:2|0:0,0:0:0:0:
224,190,81109,2,0,P|256:199|296:202,1,60.5000018463135,8|0,1:2|0:0,0:0:0:0:
358,159,81333,5,4,1:2:0:0:
256,192,81444,12,4,82228,0:0:0:0:
256,192,82340,12,4,83124,0:0:0:0:
256,192,83235,12,0,84691,0:0:0:0:
178,66,84915,6,0,P|186:111|202:221,1,121.000003692627,10|0,1:2|0:0,0:0:0:0:
265,292,85250,2,0,P|218:281|123:269,1,121.000003692627,10|0,1:2|0:0,0:0:0:0:
308,193,85586,2,0,P|346:185|406:164,1,60.5000018463135,10|0,1:2|0:0,0:0:0:0:
408,101,85810,5,12,1:2:0:0:
