osu file format v14

[General]
AudioFilename: audio.mp3
AudioLeadIn: 1500
PreviewTime: 47839
Countdown: 0
SampleSet: Soft
StackLeniency: 0.7
Mode: 0
LetterboxInBreaks: 0
WidescreenStoryboard: 0

[Editor]
DistanceSpacing: 0.7
BeatDivisor: 4
GridSize: 32
TimelineZoom: 2.899999

[Metadata]
Title:adrenaline!!! -TV Ver-
TitleUnicode:adrenaline!!! -TV Ver-
Artist:TrySail
ArtistUnicode:TrySail
Creator:Lami
Version:Flask's Extra
Source:エロマンガ先生
Tags:eromanga sensei ed ending flask meg iMage-- intoon Yuria Akitoshi Doormat tv size pentori xxdeathx
BeatmapID:1281079
BeatmapSetID:604847

[Difficulty]
HPDrainRate:6
CircleSize:4
OverallDifficulty:9
ApproachRate:9.5
SliderMultiplier:1.8
SliderTickRate:1

[Events]
//Background and Video events
0,0,"bg.jpg",0,0
Video,-484,"eromanga ending.avi"
//Break Periods
//Storyboard Layer 0 (Background)
//Storyboard Layer 1 (Fail)
//Storyboard Layer 2 (Pass)
//Storyboard Layer 3 (Foreground)
//Storyboard Sound Samples

[TimingPoints]
402,223.880597014925,4,2,1,30,1,0
402,-100,4,2,1,30,0,0
1969,-133.333333333333,4,2,1,30,0,0
2193,-125,4,2,1,30,0,0
2360,-125,4,2,1,5,0,0
2416,-125,4,2,1,30,0,0
2584,-125,4,2,1,5,0,0
2640,-125,4,2,1,30,0,0
2808,-125,4,2,1,5,0,0
2864,-125,4,2,1,30,0,0
3032,-125,4,2,1,5,0,0
3088,-125,4,2,1,30,0,0
3256,-125,4,2,1,5,0,0
3312,-125,4,2,1,30,0,0
3480,-125,4,2,1,5,0,0
3536,-125,4,2,1,30,0,0
3704,-125,4,2,1,5,0,0
3760,-100,4,2,1,30,0,0
4207,-133.333333333333,4,2,1,30,0,0
4879,-133.333333333333,4,2,1,40,0,0
5327,-133.333333333333,4,2,1,55,0,0
5775,-100,4,2,1,70,0,0
6894,-133.333333333333,4,2,1,50,0,0
7118,-66.6666666666667,4,2,1,70,0,0
7510,-100,4,2,1,70,0,0
7734,-100,4,2,1,5,0,0
7790,-100,4,2,1,70,0,0
8349,-83.3333333333333,4,2,1,70,0,0
8685,-100,4,2,1,70,0,0
9525,-100,4,2,1,5,0,0
9581,-100,4,2,1,70,0,0
10140,-83.3333333333333,4,2,1,70,0,0
10476,-100,4,2,1,70,0,0
11931,-83.3333333333333,4,2,1,70,0,0
12267,-100,4,2,1,70,0,0
14730,-133.333333333333,4,2,1,50,0,0
16521,-100,4,2,1,70,0,0
18480,-100,4,2,1,5,0,0
18536,-100,4,2,1,70,0,0
19655,-83.3333333333333,4,2,1,70,0,0
19823,-83.3333333333333,4,2,1,5,0,0
19879,-83.3333333333333,4,2,1,70,0,0
20047,-83.3333333333333,4,2,1,5,0,0
20103,-100,4,2,1,70,0,0
20271,-100,4,2,1,5,0,0
20327,-100,4,2,1,70,0,0
22062,-100,4,2,1,5,0,0
22118,-100,4,2,1,70,0,0
23685,-133.333333333333,4,2,1,70,0,0
23853,-133.333333333333,4,2,1,5,0,0
23909,-66.6666666666667,4,2,1,70,0,0
24077,-66.6666666666667,4,2,1,5,0,0
24133,-100,4,2,1,70,0,0
25644,-100,4,2,1,5,0,0
25700,-100,4,2,1,70,0,0
25868,-100,4,2,1,5,0,0
25924,-100,4,2,1,70,0,0
26092,-100,4,2,1,5,0,0
26148,-100,4,2,1,70,0,0
29450,-100,4,2,1,5,0,0
29506,-100,4,2,1,70,0,0
29562,-100,4,2,1,5,0,0
29618,-100,4,2,1,70,0,0
29786,-100,4,2,1,5,0,0
29842,-100,4,2,1,70,0,0
30625,-83.3333333333333,4,2,1,70,0,0
30793,-83.3333333333333,4,2,1,70,0,0
30849,-100,4,2,1,70,0,0
38013,-133.333333333333,4,2,1,70,0,0
38461,-66.6666666666667,4,2,1,70,0,0
38629,-66.6666666666667,4,2,1,5,0,0
38685,-66.6666666666667,4,2,1,70,0,0
38909,-133.333333333333,4,2,1,70,0,0
39357,-66.6666666666667,4,2,1,70,0,0
39525,-66.6666666666667,4,2,1,5,0,0
39581,-133.333333333333,4,2,1,70,0,0
40252,-66.6666666666667,4,2,1,70,0,0
40420,-66.6666666666667,4,2,1,5,0,0
40476,-100,4,2,1,70,0,0
40700,-66.6666666666667,4,2,1,70,0,0
41540,-66.6666666666667,4,2,1,5,0,0
41596,-133.333333333333,4,2,1,70,0,0
45737,-133.333333333333,4,2,1,30,0,0
46073,-133.333333333333,4,2,1,50,0,0
46521,-133.333333333333,4,2,1,70,0,0
46969,-66.6666666666667,4,2,1,70,0,0
47864,-50,4,2,1,70,0,0
48032,-50,4,2,1,5,0,0
48088,-76.9230769230769,4,2,1,70,0,0
48536,-133.333333333333,4,2,1,70,0,0
48704,-133.333333333333,4,2,1,5,0,0
48760,-83.3333333333333,4,2,1,80,0,1
52510,-83.3333333333333,4,2,1,5,0,1
52566,-83.3333333333333,4,2,1,80,0,1
61297,-66.6666666666667,4,2,1,80,0,1
62864,-100,4,2,1,60,0,1
63088,-83.3333333333333,4,2,1,80,0,1
66838,-83.3333333333333,4,2,1,5,0,1
66894,-83.3333333333333,4,2,1,80,0,1
68629,-83.3333333333333,4,2,1,5,0,1
68685,-83.3333333333333,4,2,1,80,0,1
75793,-83.3333333333333,4,2,1,5,0,1
75849,-66.6666666666667,4,2,1,80,0,1
76185,-83.3333333333333,4,2,1,80,0,1
77193,-125,4,2,1,80,0,1
77360,-125,4,2,1,5,0,1
77416,-100,4,2,1,50,0,0
80999,-125,4,2,1,50,0,0
84581,-76.9230769230769,4,2,1,70,0,0
85476,-200,4,2,1,70,0,0
85924,-200,4,2,1,5,0,0

[Colours]
Combo1 : 225,206,236
Combo2 : 255,113,113
Combo3 : 255,233,115
Combo4 : 45,215,234

[HitObjects]
96,56,66,5,8,0:1:0:0:
72,200,178,1,8,0:0:0:0:
93,50,402,5,14,0:1:0:0:
188,98,625,1,0,0:0:0:0:
182,235,849,1,0,0:0:0:0:
283,197,1073,1,0,0:0:0:0:
355,69,1297,1,0,0:0:0:0:
434,257,1521,1,0,0:0:0:0:
259,351,1745,1,0,0:0:0:0:
177,177,1969,6,0,L|156:102,1,67.5000025749208,8|0,0:1|0:0,0:0:0:0:
118,46,2193,6,0,P|84:82|86:147,1,108,14|0,0:1|0:0,0:0:0:0:
235,113,2416,2,0,P|220:65|163:34,1,108,2|0,0:0|0:0,0:0:0:0:
119,179,2640,2,0,P|167:190|222:156,1,108,2|0,0:0|0:0,0:0:0:0:
158,111,2864,2,0,L|182:238,1,108,2|0,0:0|0:0,0:0:0:0:
355,340,3088,6,0,B|375:358|375:358|410:335|397:265,1,108,2|0,0:0|0:0,0:0:0:0:
327,152,3312,2,0,B|301:160|301:160|303:202|370:225,1,108,2|0,0:0|0:0,0:0:0:0:
506,219,3536,2,0,B|511:192|511:192|474:173|420:220,1,108,2|0,0:0|0:0,0:0:0:0:
303,282,3760,6,0,B|267:275|267:275|232:283|232:283|169:273,1,135,10|0,0:1|0:0,0:0:0:0:
121,342,3984,5,14,0:1:0:0:
110,270,4096,1,0,0:0:0:0:
99,198,4207,2,0,L|88:128,1,67.5000025749208,10|8,0:0|0:0,0:0:0:0:
223,33,4431,5,10,0:0:0:0:
268,19,4543,1,8,0:0:0:0:
314,27,4655,1,10,0:0:0:0:
345,62,4767,1,8,0:0:0:0:
350,108,4879,5,10,0:0:0:0:
317,183,4991,1,8,0:0:0:0:
378,237,5103,1,10,0:0:0:0:
448,195,5215,1,8,0:0:0:0:
429,115,5327,5,10,0:0:0:0:
350,108,5439,1,8,0:0:0:0:
271,103,5551,1,10,0:0:0:0:
195,100,5663,1,8,0:0:0:0:
113,96,5775,6,0,B|102:147|54:159|54:159|9:127|11:77,1,180,10|0,1:0|0:0,0:0:0:0:
230,9,6110,2,0,B|279:-6|314:28|314:28|308:83|264:106,1,180,10|0,1:0|0:0,0:0:0:0:
76,332,6446,2,0,L|69:243,1,90,10|0,1:0|0:0,0:0:0:0:
237,99,6670,6,0,B|235:149|235:149|248:177|248:177|241:251,1,135,10|0,1:0|0:0,0:0:0:0:
246,238,6894,6,0,P|285:271|345:267,1,101.250003862381,8|0,0:1|0:0,0:0:0:0:
374,351,7118,6,0,B|421:324|443:283|421:204|367:190|367:190|327:165|323:102|354:68|354:68|390:94|438:68,1,405.000015449525,14|0,0:0|0:0,0:0:0:0:
490,284,7566,6,0,L|350:270,1,135,12|0,0:1|0:0,0:0:0:0:
344,272,7790,2,0,P|306:297|294:347,1,90,8|0,0:0|0:0,0:0:0:0:
144,210,8013,1,10,0:1:0:0:
203,148,8125,2,0,P|224:187|225:234,1,90,10|8,0:1|0:0,0:0:0:0:
49,332,8349,6,0,B|56:279|56:279|45:243|45:243|57:108,1,215.999993408203,2|0,0:0|0:0,0:0:0:0:
152,37,8685,2,0,L|244:29,1,90,10|0,0:0|0:0,0:0:0:0:
326,161,8909,2,0,L|237:154,1,90,10|8,0:1|0:1,0:0:0:0:
208,298,9133,1,10,0:0:0:0:
208,298,9245,1,0,0:0:0:0:
346,358,9357,6,0,P|397:375|458:314,1,135,10|0,0:1|0:0,0:0:0:0:
455,318,9581,2,0,L|452:220,1,90,10|0,0:0|0:0,0:0:0:0:
310,97,9804,1,10,0:1:0:0:
244,160,9916,2,0,P|201:169|148:152,1,90,10|8,0:1|0:0,0:0:0:0:
373,41,10140,6,0,B|400:19|400:19|399:169|399:169|366:153,1,215.999993408203,2|0,0:0|0:0,0:0:0:0:
199,334,10476,2,0,B|181:302|181:302|194:240,1,90,10|0,0:0|0:0,0:0:0:0:
161,71,10700,2,0,B|198:72|198:72|245:114,1,90,10|8,0:1|0:1,0:0:0:0:
407,170,10924,2,0,B|388:201|388:201|328:221,1,90,10|0,0:0|0:0,0:0:0:0:
110,346,11148,6,0,B|158:349|190:304|190:304|238:311|250:368,2,180,8|8|10,0:1|0:0|0:1,0:0:0:0:
30,173,11707,2,0,L|42:269,1,90,10|8,0:1|0:0,0:0:0:0:
197,2,11931,6,0,L|179:225,1,215.999993408203,2|0,0:0|0:0,0:0:0:0:
324,342,12267,6,0,P|368:347|410:326,1,90,10|0,0:0|0:0,0:0:0:0:
438,152,12491,2,0,P|394:147|352:168,1,90,10|8,0:1|0:1,0:0:0:0:
159,290,12715,1,10,0:0:0:0:
159,290,12827,1,0,0:0:0:0:
243,220,12939,6,0,L|234:117,1,90,10|0,0:1|0:0,0:0:0:0:
388,3,13163,2,0,L|397:106,1,90,10|0,0:0|0:0,0:0:0:0:
454,320,13387,1,10,0:1:0:0:
509,252,13499,2,0,P|473:229|421:235,1,90,10|8,0:1|0:0,0:0:0:0:
226,345,13722,6,0,L|130:334,1,90,2|0,0:0|0:0,0:0:0:0:
280,157,13946,6,0,L|287:253,1,90,8|10,0:0|0:1,0:0:0:0:
75,133,14170,1,8,0:0:0:0:
17,64,14282,1,10,1:0:0:0:
105,49,14394,1,8,1:0:0:0:
193,32,14506,2,0,L|296:13,1,90,10|0,1:3|1:0,0:0:0:0:
455,160,14730,6,0,P|412:194|332:180,1,135.000005149842,14|0,0:1|0:0,0:0:0:0:
269,131,15066,1,0,0:0:0:0:
259,215,15178,2,0,P|216:249|136:235,1,135.000005149842,8|0,0:0|0:0,0:0:0:0:
67,356,15513,6,0,P|105:346|127:310,1,67.5000025749208,8|0,0:1|0:0,0:0:0:0:
25,198,15737,1,8,0:1:0:0:
23,205,15849,2,0,P|33:243|69:265,1,67.5000025749208,0|8,0:0|0:1,0:0:0:0:
195,91,16073,6,0,P|144:93|103:169,1,135.000005149842,12|0,0:0|0:0,0:0:0:0:
320,169,16409,1,0,0:0:0:0:
290,371,16521,6,0,L|305:270,1,90,12|0,0:1|0:0,0:0:0:0:
386,237,16745,2,0,B|336:232|306:273|306:273|286:231|228:208,2,180,10|10|10,0:0|0:1|0:0,0:0:0:0:
466,287,17304,2,0,P|477:245|470:198,1,90,2|0,0:0|0:0,0:0:0:0:
423,116,17528,1,0,0:0:0:0:
341,153,17640,2,0,L|248:139,1,90,10|0,0:0|0:0,0:0:0:0:
171,255,17864,2,0,L|264:269,1,90,10|8,0:1|0:1,0:0:0:0:
175,41,18088,1,10,0:0:0:0:
175,41,18200,1,0,0:0:0:0:
175,41,18312,6,0,B|128:12|79:37|79:37|36:17,1,135,10|0,0:1|0:0,0:0:0:0:
55,33,18536,2,0,P|59:82|42:127,1,90,10|0,0:0|0:0,0:0:0:0:
191,239,18760,2,0,P|169:205|161:144,1,90,10|8,0:1|0:1,0:0:0:0:
50,255,18984,1,10,0:0:0:0:
63,348,19096,1,2,0:0:0:0:
50,255,19207,5,0,0:0:0:0:
163,357,19319,2,0,L|264:344,1,90,0|8,0:0|0:0,0:0:0:0:
311,227,19543,1,0,0:0:0:0:
265,57,19655,6,0,P|216:92|222:198,1,161.999995056153,10|0,0:1|0:0,0:0:0:0:
311,227,19879,2,0,P|360:192|354:86,1,161.999995056153,14|0,0:0|0:0,0:0:0:0:
271,0,20103,6,0,L|289:146,1,135,8|0,0:1|0:0,0:0:0:0:
289,140,20327,2,0,P|326:171|378:175,1,90,10|0,0:0|0:0,0:0:0:0:
393,284,20551,2,0,P|438:267|467:224,1,90,10|8,0:1|0:1,0:0:0:0:
186,249,20775,1,10,0:0:0:0:
317,355,20887,6,0,B|254:350|254:350|223:362|223:362|130:351,1,180,2|0,0:0|0:0,0:0:0:0:
159,171,21222,2,0,P|185:202|183:257,1,90,10|0,0:0|0:0,0:0:0:0:
30,359,21446,2,0,L|21:257,1,90,10|8,0:1|0:1,0:0:0:0:
293,281,21670,2,0,L|302:179,1,90,10|0,0:0|0:0,0:0:0:0:
147,28,21894,6,0,L|161:175,1,135,10|0,0:1|0:0,0:0:0:0:
159,171,22118,2,0,P|119:190|64:174,1,90,8|0,0:0|0:0,0:0:0:0:
264,39,22342,5,10,0:1:0:0:
321,127,22454,1,0,0:0:0:0:
252,209,22566,2,0,L|256:309,1,90,8|0,0:0|0:0,0:0:0:0:
264,39,22790,5,10,0:1:0:0:
321,127,22901,1,0,0:0:0:0:
408,71,23013,2,0,L|503:63,1,90,8|0,0:0|0:0,0:0:0:0:
493,331,23237,5,10,0:1:0:0:
412,258,23349,1,0,0:0:0:0:
317,322,23461,2,0,L|208:310,1,90,8|0,0:0|0:0,0:0:0:0:
97,365,23685,6,0,P|118:337|76:350,1,101.250003862381,8|0,0:1|0:0,0:0:0:0:
99,339,23909,6,0,B|92:261|92:261|103:222|103:222|93:131,1,202.500007724762,14|0,0:0|0:0,0:0:0:0:
61,74,24133,6,0,P|97:90|153:86,1,90,10|8,0:1|0:1,0:0:0:0:
235,46,24357,1,10,0:0:0:0:
267,221,24469,2,0,P|229:235|178:229,1,90,2|0,0:0|0:0,0:0:0:0:
391,364,24693,1,0,0:0:0:0:
391,364,24804,6,0,L|400:263,1,90,10|0,0:0|0:0,0:0:0:0:
486,140,25028,2,0,P|462:101|418:82,1,90,10|8,0:1|0:1,0:0:0:0:
242,221,25252,2,0,P|289:212|319:180,1,90,10|0,0:0|0:0,0:0:0:0:
211,20,25476,6,0,B|159:63|159:63|171:146,1,135,10|0,0:1|0:0,0:0:0:0:
52,148,25700,2,0,B|115:171|115:171|181:119,1,135,10|0,0:0|0:0,0:0:0:0:
242,221,25924,2,0,B|230:154|230:154|152:123,1,135,10|0,0:1|0:0,0:0:0:0:
49,260,26148,1,10,0:0:0:0:
97,346,26260,2,0,L|187:333,1,90,2|0,0:0|0:0,0:0:0:0:
329,195,26484,5,0,0:0:0:0:
259,137,26596,2,0,P|237:175|241:220,1,90,10|0,0:0|0:0,0:0:0:0:
413,165,26819,2,0,P|389:127|349:108,1,90,10|8,0:1|0:1,0:0:0:0:
314,282,27043,2,0,P|358:280|394:255,1,90,14|0,0:0|0:0,0:0:0:0:
411,40,27267,6,0,B|353:27|353:27|306:42|306:42|217:25,1,180,14|8,0:1|0:0,0:0:0:0:
64,73,27603,2,0,L|162:89,1,90,2|0,0:0|0:0,0:0:0:0:
227,225,27827,1,8,0:1:0:0:
227,225,27939,2,0,P|246:186|233:135,1,90,10|0,0:0|0:0,0:0:0:0:
128,360,28163,6,0,L|111:258,1,90,14|0,0:1|0:0,0:0:0:0:
337,352,28387,2,0,L|354:250,1,90,10|0,0:0|0:0,0:0:0:0:
219,134,28610,1,10,0:1:0:0:
227,225,28722,1,10,0:1:0:0:
219,134,28834,2,0,L|211:34,1,90,8|2,0:0|0:0,0:0:0:0:
448,99,29058,6,0,L|441:189,1,90,8|0,0:1|0:0,0:0:0:0:
305,326,29282,6,0,P|251:346|184:304,1,135,14|0,0:0|0:0,0:0:0:0:
249,221,29506,2,0,L|253:266,1,45,10|0,0:1|0:0,0:0:0:0:
304,335,29618,6,0,P|250:355|183:313,1,135,10|0,0:0|0:0,0:0:0:0:
275,139,29842,2,0,P|231:133|192:154,1,90,10|0,0:0|0:0,0:0:0:0:
24,216,30066,2,0,P|65:235|109:230,1,90,8|2,0:0|0:0,0:0:0:0:
179,302,30290,1,8,0:0:0:0:
267,251,30401,1,10,1:0:0:0:
341,320,30513,1,8,0:0:0:0:
425,271,30625,6,0,B|466:257|502:277|502:277|471:247|425:257,1,161.999995056153,10|0,0:3|0:0,0:0:0:0:
425,271,30849,6,0,L|400:86,2,180,14|8|10,0:1|0:0|0:1,0:0:0:0:
365,202,31409,1,8,0:1:0:0:
275,212,31521,2,0,P|235:229|210:271,1,90,8|0,0:0|0:0,0:0:0:0:
90,358,31745,6,0,P|30:344|16:233,1,180,10|8,0:1|0:0,0:0:0:0:
167,35,32081,1,0,0:0:0:0:
167,35,32193,2,0,B|161:117|161:117|174:151|174:151|161:230,1,180,10|8,0:1|0:0,0:0:0:0:
250,383,32528,1,0,0:0:0:0:
373,319,32640,6,0,B|338:294|338:294|190:302,2,180,10|8|8,0:1|0:0|0:1,0:0:0:0:
454,366,33200,1,8,0:1:0:0:
454,366,33312,2,0,P|471:325|458:276,1,90,10|0,0:0|0:0,0:0:0:0:
412,102,33536,6,0,P|407:150|403:197,1,90,10|0,0:1|0:0,0:0:0:0:
178,34,33760,2,0,P|183:84|187:129,1,90,10|0,0:0|0:0,0:0:0:0:
264,350,33984,2,0,P|268:306|274:254,1,90,10|8,0:1|0:1,0:0:0:0:
66,255,34207,2,0,P|60:215|56:159,1,90,10|0,0:0|0:0,0:0:0:0:
246,45,34431,6,0,B|297:65|297:65|182:125,1,180,10|8,0:1|0:0,0:0:0:0:
273,260,34767,1,0,0:0:0:0:
273,260,34879,2,0,B|285:234|285:234|275:161,1,90,10|8,0:1|0:1,0:0:0:0:
106,76,35103,2,0,B|94:102|94:102|104:175,1,90,8|0,0:0|0:0,0:0:0:0:
132,341,35327,6,0,P|160:310|170:254,1,90,10|0,0:1|0:0,0:0:0:0:
106,76,35551,2,0,P|80:43|26:23,1,90,8|0,0:0|0:0,0:0:0:0:
309,147,35775,2,0,P|266:132|222:142,1,90,10|8,0:1|0:1,0:0:0:0:
53,218,35999,2,0,P|30:257|32:302,1,90,8|0,0:0|0:0,0:0:0:0:
302,364,36222,6,0,L|323:183,2,180,10|8|8,0:1|0:0|0:1,0:0:0:0:
412,144,36782,1,8,0:1:0:0:
482,316,36894,2,0,P|489:271|474:226,1,90,8|0,0:0|0:0,0:0:0:0:
252,118,37118,5,8,0:1:0:0:
244,28,37230,2,0,B|230:70|251:117|251:117|208:138|160:95,1,180,8|0,0:0|0:0,0:0:0:0:
81,35,37566,1,10,0:0:0:0:
69,124,37678,1,8,0:1:0:0:
111,203,37790,1,10,0:0:0:0:
102,291,37901,1,0,0:0:0:0:
151,369,38013,6,0,L|220:361,1,67.5000025749208,14|0,0:1|0:0,0:0:0:0:
296,314,38237,2,0,L|365:306,1,67.5000025749208,0|8,0:0|0:1,0:0:0:0:
452,326,38461,6,0,P|504:277|448:173,1,202.500007724762,12|0,0:0|0:0,0:0:0:0:
452,174,38685,1,2,0:0:0:0:
374,229,38797,1,8,0:0:0:0:
291,181,38909,6,0,L|222:171,1,67.5000025749208,10|0,0:1|0:0,0:0:0:0:
143,211,39133,2,0,L|74:201,1,67.5000025749208,0|8,0:0|0:1,0:0:0:0:
17,96,39357,6,0,P|48:32|173:40,1,202.500007724762,12|0,0:0|0:0,0:0:0:0:
166,33,39581,6,0,P|199:50|241:46,1,67.5000025749208,2|0,0:0|0:0,0:0:0:0:
297,159,39804,5,10,0:1:0:0:
363,149,39916,1,0,0:0:0:0:
429,139,40028,1,0,0:0:0:0:
495,129,40140,1,10,0:1:0:0:
454,41,40252,6,0,B|449:130|449:130|467:165|467:165|459:257,1,202.500007724762,12|0,0:0|0:0,0:0:0:0:
460,238,40476,2,0,P|491:273|494:333,1,90,10|8,0:0|0:0,0:0:0:0:
403,313,40700,6,0,B|333:308|333:308|290:365|290:365|259:237,1,270.000010299683,14|8,0:1|0:0,0:0:0:0:
320,62,41036,2,0,B|447:104|447:104|309:159,1,270.000010299683,14|8,0:1|0:1,0:0:0:0:
79,89,41372,2,0,B|87:45|87:45|221:154,1,202.500007724762,14|0,0:0|0:0,0:0:0:0:
210,145,41596,5,14,0:1:0:0:
98,320,41819,1,8,0:1:0:0:
17,312,41931,1,0,0:0:0:0:
64,240,42043,1,8,0:0:0:0:
290,351,42267,5,2,0:0:0:0:
122,162,42491,1,10,0:0:0:0:
316,88,42715,1,8,0:1:0:0:
304,169,42827,1,0,0:0:0:0:
380,140,42939,1,8,0:0:0:0:
202,317,43163,5,10,0:1:0:0:
204,54,43387,1,10,1:0:0:0:
423,212,43610,1,8,0:1:0:0:
482,156,43722,1,0,0:0:0:0:
475,75,43834,1,8,0:0:0:0:
338,352,44058,5,2,0:0:0:0:
204,146,44282,1,10,0:0:0:0:
62,349,44506,1,8,0:1:0:0:
50,268,44618,1,2,0:0:0:0:
38,187,44730,1,8,0:0:0:0:
269,282,44954,1,10,0:1:0:0:
465,141,45178,6,0,P|417:9|357:135,1,337.500012874604,14|8,0:1|0:0,0:0:0:0:
415,84,45849,1,8,0:0:0:0:
419,103,45961,1,8,0:0:0:0:
425,140,46073,5,8,0:0:0:0:
380,199,46185,1,8,0:0:0:0:
305,197,46297,1,8,0:0:0:0:
260,137,46409,1,8,0:0:0:0:
181,110,46521,5,8,0:0:0:0:
91,157,46633,1,8,0:0:0:0:
107,257,46745,1,8,0:0:0:0:
207,272,46857,1,8,0:0:0:0:
252,181,46969,6,0,B|354:94|354:94|436:213,1,270.000010299683,10|0,1:0|0:0,0:0:0:0:
418,293,47304,2,0,B|316:380|316:380|238:269,1,270.000010299683,10|0,1:0|0:0,0:0:0:0:
350,98,47640,2,0,L|337:233,1,135.000005149842,10|0,1:0|0:0,0:0:0:0:
143,334,47864,6,0,B|68:377|-5:290|-5:290|34:240|94:244,1,270,14|0,1:0|0:0,0:0:0:0:
79,243,48088,6,0,L|89:123,1,116.999994644165,10|0,0:0|0:0,0:0:0:0:
42,11,48312,1,10,0:0:0:0:
158,19,48424,1,8,0:0:0:0:
80,123,48536,6,0,L|72:231,1,101.250003862381,10|0,0:3|0:0,0:0:0:0:
79,243,48760,6,0,P|113:278|174:279,1,107.999996704102,14|0,0:1|0:0,0:0:0:0:
282,165,48984,2,0,L|276:41,1,107.999996704102,10|0,0:0|0:0,0:0:0:0:
440,141,49207,1,10,0:1:0:0:
383,260,49319,1,8,0:1:0:0:
440,141,49431,1,10,0:0:0:0:
271,69,49543,6,0,L|276:176,1,107.999996704102,2|0,0:0|0:0,0:0:0:0:
200,297,49767,1,0,0:0:0:0:
312,359,49879,2,0,P|354:364|414:326,1,107.999996704102,10|0,0:0|0:0,0:0:0:0:
473,102,50103,2,0,P|431:97|371:135,1,107.999996704102,10|8,0:1|0:1,0:0:0:0:
286,258,50327,1,10,0:0:0:0:
174,169,50439,1,0,0:0:0:0:
286,258,50551,6,0,L|291:146,1,107.999996704102,10|0,0:1|0:0,0:0:0:0:
154,356,50775,1,8,0:0:0:0:
70,175,50887,2,0,L|53:60,1,107.999996704102,2|0,0:0|0:0,0:0:0:0:
266,268,51110,1,8,0:1:0:0:
405,114,51222,2,0,L|427:2,1,107.999996704102,10|0,0:0|0:0,0:0:0:0:
456,255,51446,5,8,0:1:0:0:
440,338,51558,1,0,0:0:0:0:
359,364,51670,2,0,L|250:350,1,107.999996704102,10|0,0:0|0:0,0:0:0:0:
16,136,51894,5,10,0:1:0:0:
32,219,52006,1,8,0:1:0:0:
113,245,52118,2,0,L|222:231,1,107.999996704102,10|0,0:0|0:0,0:0:0:0:
470,110,52342,6,0,P|435:45|341:46,1,161.999995056153,10|0,0:1|0:0,0:0:0:0:
343,44,52566,2,0,L|330:162,1,107.999996704102,10|0,0:0|0:0,0:0:0:0:
397,241,52790,1,10,0:1:0:0:
239,160,52901,1,8,0:1:0:0:
343,44,53013,1,10,0:0:0:0:
344,329,53125,6,0,P|309:298|306:229,1,107.999996704102,2|0,0:0|0:0,0:0:0:0:
441,46,53349,1,0,0:0:0:0:
441,46,53461,2,0,P|431:91|373:128,1,107.999996704102,10|0,0:0|0:0,0:0:0:0:
136,113,53685,2,0,P|180:98|241:130,1,107.999996704102,10|8,0:1|0:1,0:0:0:0:
308,163,53909,1,10,0:0:0:0:
172,201,54021,1,0,0:0:0:0:
90,38,54133,6,0,B|87:124|87:124|68:150|68:150|65:261,2,215.999993408203,10|8|8,0:1|0:0|0:1,0:0:0:0:
172,201,54693,1,8,0:1:0:0:
22,333,54804,2,0,P|67:344|127:318,1,107.999996704102,10|0,0:0|0:0,0:0:0:0:
57,163,55028,6,0,L|44:50,1,107.999996704102,10|0,0:1|0:0,0:0:0:0:
348,257,55252,2,0,L|324:363,1,107.999996704102,10|0,0:0|0:0,0:0:0:0:
188,363,55476,2,0,L|161:246,1,107.999996704102,10|8,0:1|0:1,0:0:0:0:
467,55,55700,2,0,L|455:163,1,107.999996704102,10|0,0:0|0:0,0:0:0:0:
195,168,55924,6,0,B|122:89|122:89|208:24,1,215.999993408203,14|8,0:1|0:0,0:0:0:0:
311,120,56260,1,0,0:0:0:0:
290,252,56372,2,0,L|410:237,1,107.999996704102,10|8,0:1|0:1,0:0:0:0:
201,384,56596,2,0,P|166:340|175:268,1,107.999996704102,10|0,0:0|0:0,0:0:0:0:
335,34,56819,6,0,P|398:110|334:210,1,215.999993408203,10|10,0:1|0:0,0:0:0:0:
241,130,57155,1,0,0:0:0:0:
148,191,57267,2,0,B|128:140|128:140|141:88,1,107.999996704102,10|8,0:1|0:1,0:0:0:0:
251,281,57491,2,0,B|216:323|216:323|165:338,1,107.999996704102,10|0,0:0|0:0,0:0:0:0:
301,146,57715,6,0,B|389:167|389:167|462:289,2,215.999993408203,10|8|10,0:1|0:0|0:1,0:0:0:0:
239,69,58275,1,8,0:1:0:0:
242,222,58387,2,0,L|253:338,1,107.999996704102,10|0,0:0|0:0,0:0:0:0:
301,146,58610,5,10,0:1:0:0:
159,261,58722,1,0,0:0:0:0:
342,350,58834,2,0,L|332:241,1,107.999996704102,10|0,0:0|0:0,0:0:0:0:
156,109,59058,1,10,0:1:0:0:
242,222,59170,1,8,0:1:0:0:
398,168,59282,2,0,P|443:137|495:135,1,107.999996704102,10|0,0:0|0:0,0:0:0:0:
342,350,59506,6,0,B|258:346|258:346|231:367|231:367|130:361,1,215.999993408203,14|8,0:1|0:0,0:0:0:0:
297,177,59842,1,0,0:0:0:0:
7,232,59954,6,0,B|91:228|91:228|118:249|118:249|219:243,1,215.999993408203,14|8,0:1|0:0,0:0:0:0:
257,83,60290,1,0,0:0:0:0:
114,23,60401,6,0,B|42:28|31:95|31:95|63:150|123:141,1,215.999993408203,14|8,0:1|0:0,0:0:0:0:
257,83,60737,1,0,0:0:0:0:
403,142,60849,6,0,B|449:150|481:95|481:95|470:28|398:23,1,215.999993408203,14|8,0:1|0:0,0:0:0:0:
255,195,61185,1,0,0:0:0:0:
372,351,61297,6,0,B|416:375|453:337|453:337|448:273|382:258|382:258|354:286|308:287,1,270.000010299683,14|8,0:1|0:0,0:0:0:0:
140,351,61633,2,0,B|96:375|59:337|59:337|64:273|130:258|130:258|158:286|187:285,1,270.000010299683,2|8,0:0|0:1,0:0:0:0:
131,67,61969,1,10,0:0:0:0:
126,177,62081,1,8,0:0:0:0:
133,41,62193,5,8,0:1:0:0:
122,203,62304,1,8,0:0:0:0:
269,128,62416,1,2,0:0:0:0:
84,123,62528,5,8,0:0:0:0:
219,210,62639,1,10,0:1:0:0:
227,47,62751,1,8,0:0:0:0:
176,127,62864,6,0,L|182:286,1,135,10|0,0:1|0:0,0:0:0:0:
104,284,63088,6,0,P|129:325|187:347,1,107.999996704102,14|0,0:1|0:0,0:0:0:0:
347,190,63312,2,0,P|322:149|264:127,1,107.999996704102,10|0,0:0|0:0,0:0:0:0:
348,364,63536,2,0,L|455:344,1,107.999996704102,10|8,0:1|0:1,0:0:0:0:
435,188,63760,1,10,0:0:0:0:
282,288,63872,6,0,L|389:268,1,107.999996704102,2|0,0:0|0:0,0:0:0:0:
512,159,64096,1,0,0:0:0:0:
362,67,64207,2,0,L|337:191,1,107.999996704102,10|0,0:0|0:0,0:0:0:0:
196,360,64431,2,0,L|174:254,1,107.999996704102,10|0,0:1|0:0,0:0:0:0:
154,82,64655,1,10,0:0:0:0:
248,159,64767,1,0,0:0:0:0:
78,176,64879,6,0,P|40:135|31:77,1,107.999996704102,10|0,0:1|0:0,0:0:0:0:
245,72,65103,1,8,0:0:0:0:
277,258,65215,2,0,P|222:270|167:249,1,107.999996704102,2|0,0:0|0:0,0:0:0:0:
154,82,65439,1,8,0:1:0:0:
352,8,65551,2,0,L|331:136,1,107.999996704102,10|0,0:0|0:0,0:0:0:0:
491,335,65775,5,8,0:1:0:0:
443,258,65887,1,0,0:0:0:0:
354,285,65999,2,0,L|242:269,1,107.999996704102,10|0,0:0|0:0,0:0:0:0:
35,130,66222,5,10,0:1:0:0:
83,53,66334,1,8,0:1:0:0:
172,80,66446,2,0,L|284:64,1,107.999996704102,10|0,0:0|0:0,0:0:0:0:
93,353,66670,6,0,P|39:328|47:229,1,161.999995056153,10|0,0:1|0:0,0:0:0:0:
46,228,66894,2,0,P|60:183|33:128,1,107.999996704102,10|0,0:0|0:0,0:0:0:0:
284,289,67118,2,0,L|177:294,1,107.999996704102,10|8,0:1|0:1,0:0:0:0:
294,135,67342,1,10,0:0:0:0:
136,70,67454,2,0,L|151:186,1,107.999996704102,2|0,0:0|0:0,0:0:0:0:
302,141,67678,1,0,0:0:0:0:
249,376,67790,6,0,B|221:349|221:349|232:275,1,107.999996704102,10|0,0:0|0:0,0:0:0:0:
379,99,68013,2,0,B|407:126|407:126|396:200,1,107.999996704102,10|8,0:1|0:1,0:0:0:0:
141,255,68237,2,0,P|174:209|235:193,1,107.999996704102,10|0,0:0|0:0,0:0:0:0:
485,210,68461,6,0,P|432:275|351:273,1,161.999995056153,10|0,0:1|0:0,0:0:0:0:
318,342,68685,2,0,L|299:234,1,107.999996704102,8|0,0:0|0:0,0:0:0:0:
119,85,68909,2,0,P|165:73|223:102,1,107.999996704102,8|8,0:1|0:1,0:0:0:0:
301,140,69133,1,10,0:0:0:0:
167,202,69245,1,0,0:0:0:0:
301,140,69357,6,0,L|314:31,1,107.999996704102,10|0,0:1|0:0,0:0:0:0:
65,158,69581,2,0,L|52:267,1,107.999996704102,10|0,0:0|0:0,0:0:0:0:
432,247,69804,2,0,L|445:138,1,107.999996704102,10|8,0:1|0:1,0:0:0:0:
196,265,70028,2,0,L|183:374,1,107.999996704102,10|0,0:0|0:0,0:0:0:0:
428,336,70252,6,0,P|497:310|495:184,1,215.999993408203,14|8,0:1|0:0,0:0:0:0:
381,118,70588,1,0,0:0:0:0:
305,295,70700,2,0,L|284:189,1,107.999996704102,10|8,0:1|0:1,0:0:0:0:
87,351,70924,2,0,P|133:369|201:356,1,107.999996704102,10|0,0:0|0:0,0:0:0:0:
151,69,71148,6,0,B|141:128|141:128|159:171|159:171|146:287,1,215.999993408203,10|10,0:1|0:0,0:0:0:0:
70,195,71484,1,0,0:0:0:0:
231,114,71596,2,0,P|279:92|331:104,1,107.999996704102,10|8,0:1|0:1,0:0:0:0:
199,339,71819,2,0,P|151:361|100:350,1,107.999996704102,10|0,0:0|0:0,0:0:0:0:
417,155,72043,6,0,B|459:203|424:254|424:254|364:260|335:200,1,215.999993408203,14|8,0:1|0:0,0:0:0:0:
104,127,72379,5,0,0:0:0:0:
104,127,72491,2,0,B|98:63|156:43|156:43|208:73|197:134,1,215.999993408203,14|8,0:1|0:0,0:0:0:0:
340,333,72827,5,0,0:0:0:0:
340,333,72939,2,0,B|308:388|248:370|248:370|224:315|269:272,1,215.999993408203,14|8,0:1|0:0,0:0:0:0:
270,27,73275,5,0,0:0:0:0:
270,27,73387,2,0,B|329:2|366:51|366:51|354:110|292:118,1,215.999993408203,14|8,0:1|0:0,0:0:0:0:
147,316,73722,5,0,0:0:0:0:
147,316,73834,2,0,B|85:302|83:240|83:240|128:200|183:229,2,215.999993408203,14|8|8,0:1|0:0|0:1,0:0:0:0:
258,155,74394,1,8,0:1:0:0:
316,370,74506,2,0,L|305:259,1,107.999996704102,10|0,0:0|0:0,0:0:0:0:
434,85,74730,6,0,P|422:135|378:173,1,107.999996704102,10|0,0:1|0:0,0:0:0:0:
334,78,74954,1,10,0:0:0:0:
447,239,75066,1,0,0:0:0:0:
283,166,75178,2,0,P|236:160|177:202,1,107.999996704102,10|8,0:1|0:1,0:0:0:0:
287,357,75401,2,0,P|334:363|393:321,1,107.999996704102,10|0,0:0|0:0,0:0:0:0:
121,110,75625,6,0,L|134:289,1,161.999995056153,10|0,0:1|0:0,0:0:0:0:
125,355,75849,6,0,P|48:258|145:189,1,270.000010299683,12|8,0:0|0:1,0:0:0:0:
246,268,76185,1,8,0:1:0:0:
322,158,76297,2,0,P|345:118|333:47,1,107.999996704102,8|0,0:0|0:0,0:0:0:0:
339,370,76521,5,8,0:1:0:0:
506,249,76633,2,0,P|458:234|405:257,1,107.999996704102,8|2,0:0|0:0,0:0:0:0:
217,183,76857,1,8,0:0:0:0:
197,344,76969,1,10,0:1:0:0:
329,267,77081,1,8,1:0:0:0:
246,268,77193,6,0,L|135:250,1,108,10|0,0:3|0:0,0:0:0:0:
139,250,77416,6,0,P|110:284|111:337,1,90,14|0,0:1|0:0,0:0:0:0:
203,185,77640,1,8,0:1:0:0:
194,314,77752,1,8,0:1:0:0:
209,95,77864,2,0,L|203:185,1,90,14|0,0:0|0:0,0:0:0:0:
139,250,78088,1,0,0:0:0:0:
139,250,78200,1,0,0:0:0:0:
323,256,78312,6,0,P|372:252|412:282,1,90,10|0,0:1|0:0,0:0:0:0:
391,180,78536,1,8,0:1:0:0:
353,327,78648,1,8,0:1:0:0:
385,90,78760,2,0,L|390:179,1,90,14|0,0:0|0:0,0:0:0:0:
481,223,78984,1,0,0:0:0:0:
481,223,79096,1,0,0:0:0:0:
318,240,79207,6,0,B|284:224|246:247|246:247|205:229|205:229|175:255|140:244,2,180,10|8|12,0:1|0:1|0:0,0:0:0:0:
354,148,79767,1,0,0:0:0:0:
263,36,79879,2,0,P|248:84|266:128,1,90,2|0,0:0|0:0,0:0:0:0:
438,204,80103,6,0,L|450:108,1,90,10|0,0:1|0:0,0:0:0:0:
244,374,80327,2,0,L|340:386,1,90,10|8,0:1|0:1,0:0:0:0:
74,180,80551,2,0,L|62:276,1,90,14|0,0:0|0:0,0:0:0:0:
268,10,80775,2,0,L|172:-2,1,90,10|8,0:0|0:0,0:0:0:0:
295,372,80999,6,0,B|324:277|324:277|303:237,1,144,14|0,0:1|0:0,0:0:0:0:
118,69,81334,5,0,0:0:0:0:
118,69,81446,2,0,B|150:162|150:162|190:182,1,144,2|0,0:0|0:0,0:0:0:0:
439,210,81782,5,0,0:0:0:0:
439,210,81894,2,0,B|358:153|358:153|313:161,1,144,14|0,0:1|0:0,0:0:0:0:
96,284,82230,5,0,0:0:0:0:
96,284,82342,2,0,B|195:283|195:283|227:251,1,144,2|0,0:0|0:0,0:0:0:0:
330,23,82678,5,0,0:0:0:0:
330,23,82790,2,0,B|251:82|251:82|244:127,1,144,14|0,0:1|0:0,0:0:0:0:
176,207,83125,1,0,0:0:0:0:
88,145,83237,2,0,L|77:73,1,72,10|0,0:0|0:0,0:0:0:0:
265,289,83461,2,0,L|276:217,1,72,2|0,0:0|0:0,0:0:0:0:
44,346,83685,6,0,B|97:336|97:336|135:352|135:352|203:340,1,144,2|0,0:0|0:0,0:0:0:0:
352,245,84021,1,8,0:1:0:0:
252,174,84133,1,10,0:0:0:0:
256,224,84245,1,8,0:0:0:0:
261,274,84357,1,10,0:0:0:0:
265,324,84469,1,8,0:0:0:0:
271,368,84581,6,0,B|381:344|381:344|411:224,1,233.999989288331,14|0,1:0|0:0,0:0:0:0:
282,75,84916,2,0,B|172:99|172:99|142:219,1,233.999989288331,14|0,1:0|0:0,0:0:0:0:
472,155,85252,2,0,P|418:133|355:151,1,116.999994644165,14|0,1:0|0:0,0:0:0:0:
79,294,85476,6,0,B|128:288|160:320|160:320|175:273|232:257,1,180,14|0,1:0|0:0,0:0:0:0:
