osu file format v14

[General]
AudioFilename: audio.mp3
AudioLeadIn: 1500
PreviewTime: 47839
Countdown: 0
SampleSet: Soft
StackLeniency: 0.7
Mode: 0
LetterboxInBreaks: 0
WidescreenStoryboard: 0

[Editor]
DistanceSpacing: 1.1
BeatDivisor: 2
GridSize: 4
TimelineZoom: 1.199999

[Metadata]
Title:adrenaline!!! -TV Ver-
TitleUnicode:adrenaline!!! -TV Ver-
Artist:TrySail
ArtistUnicode:TrySail
Creator:Lami
Version:Doormat's Normal
Source:エロマンガ先生
Tags:eromanga sensei ed ending flask meg iMage-- intoon Yuria Akitoshi Doormat tv size pentori xxdeathx
BeatmapID:1312517
BeatmapSetID:604847

[Difficulty]
HPDrainRate:4
CircleSize:3.3
OverallDifficulty:4
ApproachRate:5.5
SliderMultiplier:0.8
SliderTickRate:1

[Events]
//Background and Video events
0,0,"bg.jpg",0,0
Video,-484,"eromanga ending.avi"
//Break Periods
//Storyboard Layer 0 (Background)
//Storyboard Layer 1 (Fail)
//Storyboard Layer 2 (Pass)
//Storyboard Layer 3 (Foreground)
//Storyboard Sound Samples

[TimingPoints]
402,223.880597014925,4,2,1,50,1,0
402,-100,4,2,1,50,0,0
2193,-100,4,2,1,55,0,0
4431,-100,4,2,1,35,0,0
4879,-100,4,2,1,50,0,0
5327,-100,4,2,1,60,0,0
5775,-100,4,2,1,70,0,0
45625,-100,4,2,1,45,0,0
46073,-100,4,2,1,65,0,0
46521,-100,4,2,1,75,0,0
46969,-100,4,2,1,80,0,0
48760,-100,4,2,1,80,0,1
77416,-100,4,2,1,70,0,0
80999,-100,4,2,1,60,0,0
82790,-100,4,2,1,70,0,0
84581,-100,4,2,1,80,0,0

[Colours]
Combo1 : 225,206,236
Combo2 : 255,113,113
Combo3 : 255,233,115
Combo4 : 45,215,234

[HitObjects]
352,180,402,6,0,L|348:280,1,80,14|0,0:1|0:0,0:0:0:0:
284,320,849,2,0,L|184:316,1,80,0|0,0:0|0:0,0:0:0:0:
144,252,1297,2,0,L|148:152,1,80,0|0,0:0|0:0,0:0:0:0:
212,112,1745,2,0,L|312:116,1,80,0|8,0:0|0:1,0:0:0:0:
351,180,2193,6,0,P|327:259|358:337,1,160,14|2,0:1|0:0,0:0:0:0:
432,372,2864,1,2,0:0:0:0:
474,293,3088,2,0,L|464:208,1,80,2|2,0:0|0:0,0:0:0:0:
428,132,3536,2,0,L|437:52,1,80,2|10,0:0|0:1,0:0:0:0:
352,32,3984,5,14,0:1:0:0:
276,76,4207,1,10,0:0:0:0:
199,32,4431,1,10,0:0:0:0:
123,76,4655,1,10,0:0:0:0:
123,163,4879,2,0,P|128:202|144:239,1,80,10|10,0:0|0:0,0:0:0:0:
232,260,5327,2,0,P|247:223|253:183,1,80,10|10,0:0|0:0,0:0:0:0:
200,116,5775,6,0,P|248:96|320:132,2,120,10|10|10,1:0|1:0|1:0,0:0:0:0:
122,163,6670,2,0,P|48:177|9:112,1,160,10|14,1:0|0:0,0:0:0:0:
148,4,7566,6,0,L|244:16,1,80,12|8,0:1|0:0,0:0:0:0:
304,56,8013,2,0,P|284:104|308:180,2,120,10|2|10,0:1|0:0|0:0,0:0:0:0:
388,28,8909,2,0,L|484:40,1,80,10|10,0:1|0:0,0:0:0:0:
508,116,9357,5,10,0:1:0:0:
460,190,9581,1,10,0:0:0:0:
499,268,9804,2,0,P|442:277|392:246,2,120,10|2|10,0:1|0:0|0:0,0:0:0:0:
460,190,10700,1,10,0:1:0:0:
420,111,10924,1,10,0:0:0:0:
341,151,11148,6,0,L|248:144,1,80,8|8,0:1|0:0,0:0:0:0:
192,200,11596,2,0,P|172:152|204:80,2,120,10|2|10,0:1|0:0|0:0,0:0:0:0:
252,264,12491,2,0,L|345:271,1,80,10|10,0:1|0:0,0:0:0:0:
376,192,12939,5,10,0:1:0:0:
325,119,13163,1,10,0:0:0:0:
397,68,13387,2,0,P|456:84|511:60,2,120,10|2|10,0:1|0:0|0:1,0:0:0:0:
324,16,14282,1,10,1:0:0:0:
251,66,14506,1,10,1:3:0:0:
325,119,14730,6,0,L|325:222,1,80,14|0,0:1|0:0,0:0:0:0:
268,268,15178,2,0,P|321:287|395:252,2,120,8|8|0,0:0|0:1|0:0,0:0:0:0:
196,216,16073,1,12,0:0:0:0:
196,216,16521,6,0,L|208:120,1,80,12|10,0:1|0:0,0:0:0:0:
124,100,16969,2,0,L|108:248,2,120,10|2|10,0:1|0:0|0:0,0:0:0:0:
188,40,17864,1,10,0:1:0:0:
260,88,18088,1,10,0:0:0:0:
324,28,18312,6,0,L|412:36,1,80,10|10,0:1|0:0,0:0:0:0:
476,84,18760,2,0,P|448:136|464:204,1,120,10|2,0:1|0:0,0:0:0:0:
512,312,19431,1,8,0:0:0:0:
432,348,19655,2,0,L|340:328,1,80,10|14,0:1|0:0,0:0:0:0:
276,292,20103,6,0,L|197:308,1,80,8|10,0:1|0:0,0:0:0:0:
120,268,20551,2,0,P|108:316|148:384,2,120,10|2|10,0:1|0:0|0:0,0:0:0:0:
172,200,21446,1,10,0:1:0:0:
124,124,21670,1,10,0:0:0:0:
176,56,21894,6,0,L|264:64,1,80,10|8,0:1|0:0,0:0:0:0:
343,76,22342,2,0,P|328:112|328:152,1,80,10|8,0:1|0:0,0:0:0:0:
392,212,22790,2,0,P|431:206|466:187,1,80,10|8,0:1|0:0,0:0:0:0:
485,102,23237,2,0,P|460:70|426:49,1,80,10|8,0:1|0:0,0:0:0:0:
343,76,23685,5,8,0:1:0:0:
276,132,23909,1,14,0:0:0:0:
204,80,24133,2,0,P|156:60|76:80,2,120,10|2|10,0:1|0:0|0:0,0:0:0:0:
276,132,25028,1,10,0:1:0:0:
207,188,25252,1,10,0:0:0:0:
279,240,25476,6,0,L|372:232,1,80,10|10,0:1|0:0,0:0:0:0:
392,316,25924,2,0,L|256:328,1,120,10|2,0:1|0:0,0:0:0:0:
148,280,26596,1,10,0:0:0:0:
192,204,26819,1,10,0:1:0:0:
133,138,27043,1,14,0:0:0:0:
52,173,27267,6,0,L|56:312,2,120,14|2|10,0:1|0:0|0:0,0:0:0:0:
24,88,28163,2,0,L|103:85,1,80,14|10,0:1|0:0,0:0:0:0:
176,136,28610,2,0,L|255:133,1,80,10|8,0:1|0:0,0:0:0:0:
324,76,29058,5,8,0:1:0:0:
396,128,29282,1,14,0:0:0:0:
484,136,29506,2,0,L|472:264,2,120,10|10|2,0:1|0:0|0:0,0:0:0:0:
496,48,30401,1,10,1:0:0:0:
420,8,30625,1,10,0:3:0:0:
344,52,30849,6,0,L|352:156,1,80,14|8,0:1|0:0,0:0:0:0:
376,216,31297,2,0,L|272:224,1,80,10|8,0:1|0:0,0:0:0:0:
212,248,31745,2,0,L|204:144,1,80,10|8,0:1|0:0,0:0:0:0:
180,84,32193,2,0,L|284:76,1,80,10|8,0:1|0:0,0:0:0:0:
336,120,32640,6,0,P|348:76|332:28,2,80,10|8|8,0:1|0:0|0:1,0:0:0:0:
272,180,33312,1,10,0:0:0:0:
356,208,33536,2,0,L|435:202,1,80,10|10,0:1|0:0,0:0:0:0:
444,292,33984,2,0,L|364:297,1,80,10|10,0:1|0:0,0:0:0:0:
280,319,34431,6,0,P|286:279|276:241,1,80,10|8,0:1|0:0,0:0:0:0:
224,172,34879,2,0,P|184:165|146:175,1,80,10|8,0:1|0:0,0:0:0:0:
76,228,35327,2,0,P|69:267|79:305,1,80,10|8,0:1|0:0,0:0:0:0:
132,375,35775,2,0,P|171:381|209:371,1,80,10|8,0:1|0:0,0:0:0:0:
280,319,36222,6,0,P|318:309|357:315,2,80,10|8|8,0:1|0:0|0:1,0:0:0:0:
200,280,36894,1,8,0:0:0:0:
212,191,37118,1,8,0:1:0:0:
299,175,37342,2,0,P|338:181|376:171,2,80,10|10|10,0:1|0:0|0:0,0:0:0:0:
240,112,38013,6,0,P|164:92|92:124,1,160,14|12,0:1|0:0,0:0:0:0:
44,196,38685,1,2,0:0:0:0:
108,256,38909,2,0,P|183:275|255:243,1,160,10|12,0:1|0:0,0:0:0:0:
304,172,39581,1,2,0:0:0:0:
376,220,39804,6,0,P|357:305|410:360,1,160,10|12,0:1|0:0,0:0:0:0:
441,278,40476,1,10,0:0:0:0:
460,192,40700,2,0,L|468:48,2,120,14|14|14,0:1|0:1|0:0,0:0:0:0:
376,220,41596,6,0,P|332:176|224:200,1,160,14|8,0:1|0:0,0:0:0:0:
168,236,42267,1,2,0:0:0:0:
100,180,42491,2,0,L|94:100,1,80,10|8,0:0|0:1,0:0:0:0:
8,128,42939,2,0,L|13:207,1,80,8|10,0:0|0:1,0:0:0:0:
100,180,43387,6,0,P|144:148|248:192,1,160,10|8,1:0|0:0,0:0:0:0:
296,244,44058,1,2,0:0:0:0:
372,196,44282,2,0,L|364:68,2,120,10|2|10,0:0|0:0|0:1,0:0:0:0:
296,244,45178,6,0,P|238:192|162:208,1,160,14|8,0:1|0:0,0:0:0:0:
96,268,45849,1,8,0:0:0:0:
152,336,46073,2,0,L|240:336,1,80,8|8,0:0|0:0,0:0:0:0:
320,324,46521,2,0,L|408:324,1,80,8|8,0:0|0:0,0:0:0:0:
468,268,46969,6,0,P|488:312|464:388,2,120,10|10|10,1:0|1:0|1:0,0:0:0:0:
404,208,47864,2,0,P|400:152|408:124,1,80,14|10,1:0|0:0,0:0:0:0:
452,56,48312,1,10,0:0:0:0:
368,28,48536,1,10,0:3:0:0:
312,96,48760,6,0,L|200:76,1,80,14|10,0:1|0:0,0:0:0:0:
196,160,49207,2,0,L|322:182,2,120,10|2|10,0:1|0:0|0:0,0:0:0:0:
116,200,50103,1,10,0:1:0:0:
129,288,50327,1,10,0:0:0:0:
217,301,50551,6,0,P|292:280|367:305,1,160,10|0,0:1|0:0,0:0:0:0:
452,336,51222,2,0,P|447:296|457:257,1,80,10|8,0:0|0:1,0:0:0:0:
510,187,51670,1,10,0:0:0:0:
475,106,51894,1,10,0:1:0:0:
387,95,52118,1,10,0:0:0:0:
333,165,52342,6,0,L|342:251,1,80,10|10,0:1|0:0,0:0:0:0:
298,323,52790,2,0,P|338:335|422:291,2,120,10|2|10,0:1|0:0|0:0,0:0:0:0:
222,279,53685,1,10,0:1:0:0:
150,327,53909,1,10,0:0:0:0:
74,279,54133,6,0,L|78:191,2,80,10|8|8,0:1|0:0|0:1,0:0:0:0:
150,327,54804,1,10,0:0:0:0:
221,278,55028,2,0,P|213:240|221:201,1,80,10|10,0:1|0:0,0:0:0:0:
302,239,55476,2,0,P|310:277|302:316,1,80,10|10,0:1|0:0,0:0:0:0:
374,368,55924,6,0,L|478:360,1,80,14|8,0:1|0:0,0:0:0:0:
508,292,56372,1,10,0:1:0:0:
500,204,56596,1,10,0:0:0:0:
420,244,56819,2,0,P|381:252|342:244,1,80,10|10,0:1|0:0,0:0:0:0:
304,164,57267,2,0,P|342:155|381:163,1,80,10|10,0:1|0:0,0:0:0:0:
460,124,57715,6,0,L|448:24,1,80,10|8,0:1|0:0,0:0:0:0:
368,8,58163,1,10,0:1:0:0:
280,16,58387,1,10,0:0:0:0:
208,64,58610,2,0,P|200:103|208:141,1,80,10|10,0:1|0:0,0:0:0:0:
289,179,59058,2,0,P|296:139|288:101,1,80,10|10,0:1|0:0,0:0:0:0:
208,64,59506,6,0,L|104:68,1,80,14|8,0:1|0:0,0:0:0:0:
40,60,59954,2,0,L|44:164,1,80,14|8,0:1|0:0,0:0:0:0:
36,228,60401,2,0,L|140:224,1,80,14|8,0:1|0:0,0:0:0:0:
202,208,60849,2,0,L|207:311,1,80,14|8,0:1|0:0,0:0:0:0:
268,352,61297,6,0,P|213:374|155:360,2,120,14|2|10,0:1|0:0|0:0,0:0:0:0:
324,284,62193,2,0,L|403:287,1,80,8|2,0:1|0:0,0:0:0:0:
472,232,62640,1,10,0:1:0:0:
472,144,62864,1,10,0:1:0:0:
403,88,63088,6,0,L|323:91,1,80,14|10,0:1|0:0,0:0:0:0:
244,128,63536,2,0,P|260:184|240:248,2,120,10|2|10,0:1|0:0|0:0,0:0:0:0:
176,72,64431,1,10,0:1:0:0:
88,72,64655,1,10,0:0:0:0:
20,128,64879,6,0,L|30:291,1,160,10|0,0:1|0:0,0:0:0:0:
20,380,65551,2,0,L|116:373,1,80,10|8,0:0|0:1,0:0:0:0:
188,368,65999,1,10,0:0:0:0:
226,288,66222,1,10,0:1:0:0:
176,214,66446,1,10,0:0:0:0:
87,220,66670,6,0,P|40:224|0:204,1,80,10|10,0:1|0:0,0:0:0:0:
60,140,67118,2,0,L|200:124,2,120,10|2|10,0:1|0:0|0:0,0:0:0:0:
4,72,68013,1,10,0:1:0:0:
68,12,68237,1,10,0:0:0:0:
156,28,68461,6,0,L|235:37,2,80,10|8|8,0:1|0:0|0:1,0:0:0:0:
100,96,69133,1,10,0:0:0:0:
164,156,69357,2,0,P|201:143|241:147,1,80,10|10,0:1|0:0,0:0:0:0:
287,224,69804,2,0,P|249:236|209:232,1,80,10|10,0:1|0:0,0:0:0:0:
120,232,70252,6,0,L|128:320,1,80,14|8,0:1|0:0,0:0:0:0:
188,376,70700,1,10,0:1:0:0:
260,328,70924,1,10,0:0:0:0:
332,376,71148,2,0,P|371:382|409:371,1,80,10|10,0:1|0:0,0:0:0:0:
442,289,71595,2,0,P|402:282|364:293,1,80,10|10,0:1|0:0,0:0:0:0:
292,244,72043,6,0,L|296:144,1,80,14|8,0:1|0:0,0:0:0:0:
312,76,72491,2,0,L|212:72,1,80,14|8,0:1|0:0,0:0:0:0:
144,56,72939,2,0,L|140:156,1,80,14|8,0:1|0:0,0:0:0:0:
149,225,73387,2,0,L|49:220,1,80,14|8,0:1|0:0,0:0:0:0:
80,308,73834,6,0,L|159:311,2,80,14|8|8,0:1|0:0|0:1,0:0:0:0:
0,276,74506,1,10,0:0:0:0:
69,221,74730,2,0,P|72:181|67:141,1,80,10|10,0:1|0:0,0:0:0:0:
148,104,75178,2,0,P|180:126|217:142,1,80,10|10,0:1|0:0,0:0:0:0:
304,152,75625,5,10,0:1:0:0:
368,216,75849,2,0,L|360:308,2,80,12|8|8,0:0|0:1|0:0,0:0:0:0:
436,156,76521,2,0,L|429:76,1,80,8|2,0:1|0:0,0:0:0:0:
356,24,76969,1,10,0:1:0:0:
280,72,77193,1,10,0:3:0:0:
208,24,77416,6,0,L|128:24,1,80,14|8,0:1|0:1,0:0:0:0:
44,48,77864,2,0,P|67:119|26:202,1,160,14|10,0:0|0:1,0:0:0:0:
0,276,78536,1,8,0:1:0:0:
76,320,78760,2,0,L|172:304,1,80,14|0,0:0|0:0,0:0:0:0:
244,312,79207,6,0,L|228:216,1,80,10|8,0:1|0:1,0:0:0:0:
320,236,79655,2,0,L|336:332,1,80,12|2,0:0|0:0,0:0:0:0:
412,360,80103,1,10,0:1:0:0:
490,314,80327,1,10,0:1:0:0:
489,223,80551,1,14,0:0:0:0:
410,177,80775,1,10,0:0:0:0:
330,222,80999,6,0,P|254:238|186:199,1,160,14|2,0:1|0:0,0:0:0:0:
212,24,81894,2,0,P|288:7|356:46,1,160,14|2,0:1|0:0,0:0:0:0:
330,222,82790,6,0,P|288:280|328:372,1,160,14|10,0:1|0:0,0:0:0:0:
396,384,83461,1,2,0:0:0:0:
464,328,83685,2,0,B|496:256|463:208|463:208|428:160|464:88,1,240,2|2,0:0|0:0,0:0:0:0:
404,32,84581,6,0,P|460:12|532:56,2,120,14|14|14,1:0|1:0|1:0,0:0:0:0:
336,88,85476,2,0,P|280:112|200:48,1,160,14|0,1:0|0:0,0:0:0:0:
