osu file format v14

[General]
AudioFilename: audio.mp3
AudioLeadIn: 1500
PreviewTime: 47839
Countdown: 0
SampleSet: Soft
StackLeniency: 0.7
Mode: 0
LetterboxInBreaks: 0
WidescreenStoryboard: 0

[Editor]
Bookmarks: 21894,25028
DistanceSpacing: 0.9
BeatDivisor: 2
GridSize: 32
TimelineZoom: 2.899999

[Metadata]
Title:adrenaline!!! -TV Ver-
TitleUnicode:adrenaline!!! -TV Ver-
Artist:TrySail
ArtistUnicode:TrySail
Creator:Lami
Version:Insane
Source:エロマンガ先生
Tags:eromanga sensei ed ending flask meg iMage-- intoon Yuria Akitoshi Doormat tv size pentori xxdeathx
BeatmapID:1281080
BeatmapSetID:604847

[Difficulty]
HPDrainRate:6
CircleSize:3.8
OverallDifficulty:7
ApproachRate:9
SliderMultiplier:1.5
SliderTickRate:1

[Events]
//Background and Video events
0,0,"bg.jpg",0,0
Video,-484,"eromanga ending.avi"
//Break Periods
//Storyboard Layer 0 (Background)
//Storyboard Layer 1 (Fail)
//Storyboard Layer 2 (Pass)
//Storyboard Layer 3 (Foreground)
//Storyboard Sound Samples

[TimingPoints]
402,223.880597014925,4,2,1,50,1,0
402,-117.647058823529,4,2,1,50,0,0
2193,-117.647058823529,4,2,1,55,0,0
4207,-117.647058823529,4,2,1,25,0,0
4431,-117.647058823529,4,2,1,35,0,0
4655,-117.647058823529,4,2,1,45,0,0
4879,-117.647058823529,4,2,1,50,0,0
5103,-117.647058823529,4,2,1,55,0,0
5327,-117.647058823529,4,2,1,60,0,0
5551,-117.647058823529,4,2,1,65,0,0
5775,-117.647058823529,4,2,1,70,0,0
7118,-90.9090909090909,4,2,1,70,0,0
7566,-100,4,2,1,70,0,0
14730,-125,4,2,1,70,0,0
16073,-117.647058823529,4,2,1,70,0,0
16521,-117.647058823529,4,2,1,70,0,0
22342,-108.695652173913,4,2,1,70,0,0
22790,-100,4,2,1,70,0,0
23237,-92.5925925925926,4,2,1,70,0,0
23909,-117.647058823529,4,2,1,70,0,0
26819,-105.263157894737,4,2,1,70,0,0
27043,-90.9090909090909,4,2,1,70,0,0
27267,-111.111111111111,4,2,1,70,0,0
38013,-125,4,2,1,70,0,0
38461,-111.111111111111,4,2,1,70,0,0
38909,-125,4,2,1,70,0,0
39357,-111.111111111111,4,2,1,70,0,0
39804,-125,4,2,1,70,0,0
40252,-111.111111111111,4,2,1,70,0,0
41036,-102.040816326531,4,2,1,70,0,0
41372,-95.2380952380952,4,2,1,70,0,0
41596,-125,4,2,1,70,0,0
45401,-125,4,2,1,35,0,0
45625,-111.111111111111,4,2,1,45,0,0
45849,-111.111111111111,4,2,1,55,0,0
46073,-99.9999999999999,4,2,1,65,0,0
46297,-99.9999999999999,4,2,1,70,0,0
46521,-90.9090909090908,4,2,1,75,0,0
46745,-90.9090909090908,4,2,1,80,0,0
47864,-90.9090909090909,4,2,1,80,0,0
48760,-95.2380952380952,4,2,1,80,0,1
77416,-117.647058823529,4,2,1,70,0,0
80999,-142.857142857143,4,2,1,60,0,0
82790,-166.666666666667,4,2,1,70,0,0
84581,-100,4,2,1,80,0,0
85924,-100,4,2,1,40,0,0

[Colours]
Combo1 : 225,206,236
Combo2 : 255,113,113
Combo3 : 255,233,115
Combo4 : 45,215,234

[HitObjects]
344,212,66,6,0,L|331:286,1,75,8|8,0:1|0:0,0:0:0:0:
331,286,402,5,14,0:1:0:0:
238,308,625,1,0,0:0:0:0:
172,236,849,1,0,0:0:0:0:
199,144,1073,1,0,0:0:0:0:
266,215,1297,5,0,0:0:0:0:
358,186,1521,1,0,0:0:0:0:
378,92,1745,1,0,0:0:0:0:
308,27,1969,1,8,0:1:0:0:
294,122,2193,5,14,0:1:0:0:
133,73,2416,1,2,0:0:0:0:
266,215,2640,1,2,0:0:0:0:
105,166,2864,1,2,0:0:0:0:
227,51,3088,5,2,0:0:0:0:
172,237,3312,1,2,0:0:0:0:
378,92,3536,1,2,0:0:0:0:
323,279,3760,1,10,0:1:0:0:
166,154,3984,6,0,L|85:169,1,63.7500012159348,14|0,0:1|0:0,0:0:0:0:
255,183,4207,2,0,L|336:198,1,63.7500012159348,10|8,0:0|0:0,0:0:0:0:
172,237,4431,2,0,L|91:252,1,63.7500012159348,10|8,0:0|0:0,0:0:0:0:
260,266,4655,2,0,L|342:281,1,63.7500012159348,10|8,0:0|0:0,0:0:0:0:
115,332,4879,6,0,L|178:321,1,63.7500012159348,10|8,0:0|0:0,0:0:0:0:
328,361,5103,2,0,L|266:350,1,63.7500012159348,10|8,0:0|0:0,0:0:0:0:
104,165,5327,2,0,L|166:153,1,63.7500012159348,10|8,0:0|0:0,0:0:0:0:
316,194,5551,2,0,L|254:182,1,63.7500012159348,10|8,0:0|0:0,0:0:0:0:
109,249,5775,5,10,1:0:0:0:
109,249,6110,1,10,1:0:0:0:
109,249,6446,1,10,1:0:0:0:
265,349,6670,6,0,L|411:330,1,127.50000243187,10|8,1:0|0:1,0:0:0:0:
311,191,7118,6,0,B|248:206|179:174|179:174|229:221|205:273,1,247.500007553101,14|0,0:0|0:0,0:0:0:0:
153,337,7566,6,0,P|118:340|79:329,1,75,12|0,0:1|0:0,0:0:0:0:
35,241,7790,2,0,P|71:238|109:249,1,75,8|0,0:0|0:0,0:0:0:0:
104,73,8013,1,10,0:1:0:0:
104,73,8125,2,0,L|95:152,1,75,10|8,0:1|0:0,0:0:0:0:
206,274,8349,6,0,L|223:125,1,150,2|0,0:0|0:0,0:0:0:0:
384,160,8685,2,0,L|315:190,1,75,10|0,0:0|0:0,0:0:0:0:
206,274,8909,2,0,L|274:304,1,75,10|8,0:1|0:1,0:0:0:0:
452,190,9133,2,0,L|376:156,1,75,10|0,0:0|0:0,0:0:0:0:
213,50,9357,6,0,L|224:132,1,75,10|0,0:1|0:0,0:0:0:0:
124,220,9581,2,0,L|133:145,1,75,10|0,0:0|0:0,0:0:0:0:
223,223,9804,1,10,0:1:0:0:
223,223,9916,2,0,L|233:306,1,75,10|8,0:1|0:0,0:0:0:0:
375,371,10140,6,0,P|430:320|417:243,1,150,2|0,0:0|0:0,0:0:0:0:
256,145,10476,2,0,L|334:157,1,75,10|0,0:0|0:0,0:0:0:0:
223,223,10700,2,0,L|297:235,1,75,10|8,0:1|0:1,0:0:0:0:
190,302,10924,2,0,L|264:313,1,75,10|0,0:0|0:0,0:0:0:0:
421,251,11148,6,0,B|426:209|414:171,1,75,8|0,0:1|0:0,0:0:0:0:
323,81,11372,2,0,B|318:122|330:161,1,75,8|0,0:0|0:0,0:0:0:0:
290,309,11596,1,10,0:1:0:0:
290,309,11707,2,0,B|279:275|284:234,1,75,10|8,0:1|0:0,0:0:0:0:
206,129,11931,6,0,P|124:122|72:175,1,150,2|0,0:0|0:0,0:0:0:0:
141,284,12267,2,0,P|153:249|159:212,1,75,10|0,0:0|0:0,0:0:0:0:
51,280,12491,2,0,P|56:316|68:352,1,75,10|8,0:1|0:1,0:0:0:0:
249,217,12715,2,0,P|243:179|231:144,1,75,10|0,0:0|0:0,0:0:0:0:
64,107,12939,6,0,P|67:149|77:180,1,75,10|0,0:1|0:0,0:0:0:0:
231,144,13163,2,0,P|196:134|156:133,1,75,10|0,0:0|0:0,0:0:0:0:
141,284,13387,1,10,0:1:0:0:
141,284,13499,2,0,P|177:294|214:295,1,75,10|8,0:1|0:0,0:0:0:0:
316,210,13722,6,0,L|301:359,1,150,2|8,0:0|0:0,0:0:0:0:
402,332,14058,2,0,L|408:257,1,75,10|8,0:1|0:0,0:0:0:0:
370,126,14282,1,10,1:0:0:0:
370,126,14394,1,8,1:0:0:0:
284,134,14506,2,0,P|246:131|208:113,1,75,10|0,1:3|1:0,0:0:0:0:
277,29,14730,6,0,L|397:19,2,120,14|0|8,0:1|0:0|0:0,0:0:0:0:
164,120,15401,1,0,0:0:0:0:
164,120,15513,2,0,P|151:146|146:176,1,60,8|0,0:1|0:0,0:0:0:0:
233,172,15737,2,0,P|237:201|249:229,1,60,8|0,0:1|0:0,0:0:0:0:
311,291,15961,1,8,0:1:0:0:
329,174,16073,6,0,P|285:91|191:87,1,191.250003647804,12|0,0:0|0:0,0:0:0:0:
140,174,16521,6,0,L|62:160,1,63.7500012159348,12|0,0:1|0:0,0:0:0:0:
38,244,16745,2,0,L|100:255,1,63.7500012159348,10|0,0:0|0:0,0:0:0:0:
137,336,16969,2,0,L|262:358,1,127.50000243187,10|10,0:1|0:0,0:0:0:0:
407,359,17304,2,0,P|416:295|374:231,1,127.50000243187,2|0,0:0|0:0,0:0:0:0:
244,278,17640,2,0,L|310:289,1,63.7500012159348,10|0,0:0|0:0,0:0:0:0:
227,195,17864,2,0,L|163:198,1,63.7500012159348,10|8,0:1|0:1,0:0:0:0:
315,137,18088,2,0,L|310:201,1,63.7500012159348,10|0,0:0|0:0,0:0:0:0:
398,155,18312,6,0,B|393:65|393:65|362:37,2,127.50000243187,10|10|10,0:1|0:0|0:1,0:0:0:0:
387,241,18872,1,8,0:1:0:0:
387,241,18984,1,10,0:0:0:0:
315,137,19096,2,0,P|253:131|193:180,1,127.50000243187,2|0,0:0|0:0,0:0:0:0:
140,236,19431,2,0,P|105:234|71:221,1,63.7500012159348,8|0,0:0|0:0,0:0:0:0:
69,91,19655,2,0,P|100:92|131:102,1,63.7500012159348,10|8,0:1|0:1,0:0:0:0:
200,165,19879,1,14,0:0:0:0:
200,165,20103,6,0,L|215:96,1,63.7500012159348,8|0,0:1|0:0,0:0:0:0:
293,37,20327,2,0,L|307:102,1,63.7500012159348,10|0,0:0|0:0,0:0:0:0:
353,177,20551,2,0,L|418:162,2,63.7500012159348,10|8|10,0:1|0:1|0:0,0:0:0:0:
231,239,20887,2,0,P|165:237|125:194,1,127.50000243187,2|0,0:0|0:0,0:0:0:0:
213,102,21222,2,0,L|280:89,1,63.7500012159348,10|0,0:0|0:0,0:0:0:0:
127,54,21446,2,0,L|60:41,1,63.7500012159348,10|8,0:1|0:1,0:0:0:0:
239,128,21670,2,0,L|305:115,1,63.7500012159348,10|0,0:0|0:0,0:0:0:0:
181,215,21894,6,0,B|137:202|137:202|97:214|97:214|58:203,1,127.50000243187,10|8,0:1|0:0,0:0:0:0:
143,308,22230,5,0,0:0:0:0:
143,308,22342,2,0,B|235:291|235:291|260:249,1,137.999995367432,10|8,0:1|0:0,0:0:0:0:
334,151,22678,5,0,0:0:0:0:
334,151,22790,2,0,B|344:189|344:189|335:221|335:221|349:253|349:253|340:297,1,150,10|8,0:1|0:0,0:0:0:0:
419,145,23125,5,0,0:0:0:0:
419,145,23237,2,0,P|362:71|270:87,1,162.000003955078,10|8,0:1|0:0,0:0:0:0:
196,157,23573,5,0,0:0:0:0:
196,157,23685,1,8,0:1:0:0:
196,157,23909,6,0,L|180:87,1,63.7500012159348,14|0,0:0|0:0,0:0:0:0:
100,136,24133,2,0,L|95:199,2,63.7500012159348,10|8|10,0:1|0:1|0:0,0:0:0:0:
131,22,24469,2,0,B|214:17|214:17|249:44,1,127.50000243187,2|0,0:0|0:0,0:0:0:0:
282,128,24804,2,0,P|316:117|345:98,1,63.7500012159348,10|0,0:0|0:0,0:0:0:0:
419,141,25028,2,0,P|426:104|423:71,1,63.7500012159348,10|8,0:1|0:1,0:0:0:0:
344,200,25252,2,0,P|343:231|350:262,1,63.7500012159348,10|0,0:0|0:0,0:0:0:0:
395,342,25476,6,0,P|344:306|281:321,2,127.50000243187,10|10|10,0:1|0:0|0:1,0:0:0:0:
443,259,26036,1,8,0:1:0:0:
443,259,26148,1,10,0:0:0:0:
344,200,26260,2,0,L|217:178,1,127.50000243187,2|0,0:0|0:0,0:0:0:0:
150,121,26596,6,0,P|133:151|128:185,1,63.7500012159348,10|0,0:0|0:0,0:0:0:0:
44,209,26819,6,0,P|62:240|92:263,1,71.2499980974198,10|8,0:1|0:1,0:0:0:0:
73,348,27043,6,0,P|113:347|150:324,1,82.5000025177003,14|0,0:0|0:0,0:0:0:0:
329,224,27267,6,0,P|275:175|204:186,1,134.999995880127,14|8,0:1|0:0,0:0:0:0:
282,299,27603,2,0,P|353:310|406:261,1,134.999995880127,2|8,0:0|0:1,0:0:0:0:
427,123,27939,2,0,L|417:190,1,67.4999979400635,10|0,0:0|0:0,0:0:0:0:
282,299,28163,6,0,L|270:224,1,67.4999979400635,14|0,0:1|0:0,0:0:0:0:
245,78,28387,2,0,L|235:145,1,67.4999979400635,10|0,0:0|0:0,0:0:0:0:
141,152,28610,2,0,L|74:162,1,67.4999979400635,10|10,0:1|0:1,0:0:0:0:
67,251,28834,2,0,L|134:239,1,67.4999979400635,8|2,0:0|0:0,0:0:0:0:
260,165,29058,1,8,0:1:0:0:
260,165,29282,6,0,P|265:199|281:229,1,67.4999979400635,14|0,0:0|0:0,0:0:0:0:
315,99,29506,1,10,0:1:0:0:
315,99,29618,2,0,P|285:83|251:78,1,67.4999979400635,10|0,0:0|0:0,0:0:0:0:
345,172,29842,2,0,P|405:176|452:120,1,134.999995880127,10|8,0:0|0:0,0:0:0:0:
325,32,30178,2,0,L|312:118,1,67.4999979400635,2|8,0:0|0:0,0:0:0:0:
185,127,30401,1,10,1:0:0:0:
185,127,30513,1,8,0:0:0:0:
121,78,30625,2,0,P|83:81|48:96,1,67.4999979400635,10|8,0:3|0:1,0:0:0:0:
148,206,30849,6,0,P|225:203|269:150,1,134.999995880127,14|8,0:1|0:0,0:0:0:0:
334,66,31185,1,0,0:0:0:0:
334,66,31297,2,0,L|267:74,1,67.4999979400635,10|8,0:1|0:1,0:0:0:0:
345,151,31521,2,0,L|411:142,1,67.4999979400635,8|0,0:0|0:0,0:0:0:0:
444,286,31745,6,0,L|310:267,1,134.999995880127,10|8,0:1|0:0,0:0:0:0:
239,187,32081,1,0,0:0:0:0:
239,187,32193,2,0,L|229:253,1,67.4999979400635,10|8,0:1|0:1,0:0:0:0:
156,296,32416,2,0,L|165:362,1,67.4999979400635,8|0,0:0|0:0,0:0:0:0:
79,257,32640,6,0,L|97:123,1,134.999995880127,10|8,0:1|0:0,0:0:0:0:
182,108,32976,1,0,0:0:0:0:
182,108,33088,2,0,P|220:124|264:128,1,67.4999979400635,8|8,0:1|0:1,0:0:0:0:
300,54,33312,2,0,P|262:40|218:38,1,67.4999979400635,10|0,0:0|0:0,0:0:0:0:
330,133,33536,6,0,P|381:79|378:19,2,134.999995880127,10|10|10,0:1|0:0|0:1,0:0:0:0:
300,54,34096,1,8,0:1:0:0:
246,128,34207,2,0,P|248:168|260:194,1,67.4999979400635,10|0,0:0|0:0,0:0:0:0:
360,296,34431,6,0,B|314:282|314:282|270:296|270:296|227:283,1,134.999995880127,10|8,0:1|0:0,0:0:0:0:
137,199,34767,1,0,0:0:0:0:
137,199,34879,2,0,L|150:272,1,67.4999979400635,10|8,0:1|0:1,0:0:0:0:
220,352,35103,2,0,L|231:285,1,67.4999979400635,8|0,0:0|0:0,0:0:0:0:
184,134,35327,6,0,P|123:119|62:171,1,134.999995880127,10|8,0:1|0:0,0:0:0:0:
16,316,35663,1,0,0:0:0:0:
16,316,35775,2,0,L|81:304,1,67.4999979400635,10|8,0:1|0:1,0:0:0:0:
231,285,35999,2,0,L|165:273,1,67.4999979400635,8|0,0:0|0:0,0:0:0:0:
258,192,36222,6,0,B|352:174|352:174|389:203,1,134.999995880127,10|8,0:1|0:0,0:0:0:0:
463,270,36558,1,0,0:0:0:0:
463,270,36670,2,0,P|478:236|483:199,1,67.4999979400635,8|8,0:1|0:1,0:0:0:0:
374,287,36894,2,0,P|360:317|353:351,1,67.4999979400635,8|0,0:0|0:0,0:0:0:0:
383,197,37118,5,8,0:1:0:0:
383,197,37230,1,8,0:0:0:0:
299,235,37342,2,0,P|299:158|349:111,2,134.999995880127,10|10|10,0:1|0:0|0:0,0:0:0:0:
434,33,38013,6,0,L|373:42,1,60,14|0,0:1|0:0,0:0:0:0:
335,117,38237,2,0,L|275:124,1,60,8|8,0:1|0:1,0:0:0:0:
162,33,38461,2,0,B|209:26|209:26|249:44|249:44|291:38,1,134.999995880127,12|2,0:0|0:0,0:0:0:0:
63,117,38909,6,0,L|124:125,1,60,10|0,0:1|0:0,0:0:0:0:
162,200,39133,2,0,L|221:207,1,60,8|8,0:1|0:1,0:0:0:0:
335,117,39357,2,0,B|287:109|287:109|247:128|247:128|205:121,1,134.999995880127,12|2,0:0|0:0,0:0:0:0:
434,200,39804,6,0,L|373:208,1,60,10|0,0:1|0:0,0:0:0:0:
335,283,40028,2,0,L|275:291,1,60,8|10,0:1|0:1,0:0:0:0:
162,200,40252,2,0,B|209:192|209:192|249:211|249:211|291:205,1,134.999995880127,12|10,0:0|0:0,0:0:0:0:
335,117,40588,1,8,0:0:0:0:
248,65,40700,6,0,P|177:68|135:125,1,134.999995880127,14|8,0:1|0:0,0:0:0:0:
204,273,41036,6,0,P|238:209|215:141,1,146.999998654175,14|8,0:1|0:1,0:0:0:0:
83,208,41372,6,0,L|176:198,1,78.7499975967408,14|0,0:0|0:0,0:0:0:0:
258,337,41596,6,0,L|134:323,2,120,14|8|8,0:1|0:1|0:0,0:0:0:0:
375,212,42267,1,2,0:0:0:0:
232,137,42491,6,0,P|194:185|196:246,2,120,10|8|8,0:0|0:1|0:0,0:0:0:0:
375,212,43163,1,10,0:1:0:0:
273,58,43387,6,0,P|212:49|161:82,2,120,10|8|8,1:0|0:1|0:0,0:0:0:0:
375,212,44058,1,2,0:0:0:0:
229,326,44282,6,0,B|199:329|199:329|175:311|175:311|145:314|145:314|121:297|121:297|91:300|91:300|66:282,2,180,10|2|10,0:0|0:0|0:1,0:0:0:0:
301,110,45178,6,0,P|240:103|190:151,1,120,14|8,0:1|0:0,0:0:0:0:
256,244,45513,1,8,0:0:0:0:
256,244,45625,2,0,P|266:211|263:178,1,67.4999979400635,8|8,0:0|0:0,0:0:0:0:
196,137,45849,2,0,P|186:169|189:202,1,67.4999979400635,8|8,0:0|0:0,0:0:0:0:
302,311,46073,6,0,L|401:296,1,75,8|8,0:0|0:0,0:0:0:0:
188,278,46297,2,0,L|90:293,1,75,8|8,0:0|0:0,0:0:0:0:
295,236,46521,2,0,L|393:221,1,82.5000025177003,8|8,0:0|0:0,0:0:0:0:
196,353,46745,2,0,L|98:368,1,82.5000025177003,8|8,0:0|0:0,0:0:0:0:
223,196,46969,5,10,1:0:0:0:
223,196,47304,1,10,1:0:0:0:
223,196,47640,1,10,1:0:0:0:
304,62,47864,6,0,L|296:147,1,82.5000025177003,14|0,1:0|0:0,0:0:0:0:
304,226,48088,2,0,L|296:144,1,82.5000025177003,10|0,0:0|0:0,0:0:0:0:
168,94,48312,1,10,0:0:0:0:
149,171,48424,1,8,0:0:0:0:
131,248,48536,1,10,0:3:0:0:
131,248,48760,6,0,L|32:238,1,78.7499975967408,14|0,0:1|0:0,0:0:0:0:
92,346,48984,2,0,L|191:337,1,78.7499975967408,10|0,0:0|0:0,0:0:0:0:
269,290,49207,2,0,L|260:371,2,78.7499975967408,10|8|10,0:1|0:1|0:0,0:0:0:0:
248,142,49543,6,0,P|312:95|389:116,1,157.499995193482,2|0,0:0|0:0,0:0:0:0:
345,257,49879,2,0,P|329:221|328:182,1,78.7499975967408,10|0,0:0|0:0,0:0:0:0:
419,203,50103,2,0,P|460:206|495:225,1,78.7499975967408,10|8,0:1|0:1,0:0:0:0:
434,293,50327,2,0,P|410:327|376:347,1,78.7499975967408,10|0,0:0|0:0,0:0:0:0:
245,216,50551,6,0,P|168:214|123:287,1,157.499995193482,10|8,0:1|0:0,0:0:0:0:
271,372,50887,2,0,P|348:374|393:301,1,157.499995193482,2|8,0:0|0:1,0:0:0:0:
333,186,51222,2,0,L|322:269,1,78.7499975967408,10|0,0:0|0:0,0:0:0:0:
258,117,51446,1,8,0:1:0:0:
258,117,51670,2,0,L|83:101,2,157.499995193482,10|10|10,0:0|0:1|0:0,0:0:0:0:
342,70,52230,1,0,0:0:0:0:
411,132,52342,6,0,P|422:175|418:215,1,78.7499975967408,10|0,0:1|0:0,0:0:0:0:
322,264,52566,2,0,P|280:252|247:228,1,78.7499975967408,10|0,0:0|0:0,0:0:0:0:
181,84,52790,2,0,P|180:46|189:-3,2,78.7499975967408,8|8|8,0:1|0:1|0:0,0:0:0:0:
324,33,53125,6,0,B|343:82|343:82|333:186,1,157.499995193482,2|0,0:0|0:0,0:0:0:0:
186,296,53461,2,0,L|195:214,1,78.7499975967408,10|0,0:0|0:0,0:0:0:0:
283,277,53685,2,0,L|273:358,1,78.7499975967408,10|8,0:1|0:1,0:0:0:0:
161,270,53909,2,0,L|169:188,1,78.7499975967408,10|0,0:0|0:0,0:0:0:0:
271,44,54133,6,0,P|329:39|395:116,1,157.499995193482,10|8,0:1|0:0,0:0:0:0:
332,184,54469,1,0,0:0:0:0:
332,184,54581,2,0,L|250:176,1,78.7499975967408,8|8,0:1|0:1,0:0:0:0:
239,278,54804,2,0,L|156:269,1,78.7499975967408,10|0,0:0|0:0,0:0:0:0:
53,195,55028,6,0,P|39:156|39:115,1,78.7499975967408,10|0,0:1|0:0,0:0:0:0:
113,49,55252,2,0,P|126:87|126:129,1,78.7499975967408,10|0,0:0|0:0,0:0:0:0:
140,215,55476,2,0,L|224:194,1,78.7499975967408,10|8,0:1|0:1,0:0:0:0:
291,91,55700,2,0,L|214:110,1,78.7499975967408,10|0,0:0|0:0,0:0:0:0:
328,175,55924,6,0,P|379:116|364:39,1,157.499995193482,14|8,0:1|0:0,0:0:0:0:
196,33,56260,1,0,0:0:0:0:
196,33,56372,2,0,L|216:117,1,78.7499975967408,10|8,0:1|0:1,0:0:0:0:
176,195,56596,2,0,L|196:279,1,78.7499975967408,10|0,0:0|0:0,0:0:0:0:
345,340,56819,6,0,B|392:327|392:327|442:343|442:343|495:329,2,157.499995193482,10|10|10,0:1|0:0|0:1,0:0:0:0:
424,179,57379,1,8,0:1:0:0:
424,179,57491,2,0,P|438:218|443:259,1,78.7499975967408,10|0,0:0|0:0,0:0:0:0:
335,151,57715,6,0,P|392:92|469:98,1,157.499995193482,10|8,0:1|0:0,0:0:0:0:
353,236,58051,1,0,0:0:0:0:
353,236,58163,2,0,L|270:257,1,78.7499975967408,10|8,0:1|0:1,0:0:0:0:
191,217,58387,2,0,L|107:237,1,78.7499975967408,10|0,0:0|0:0,0:0:0:0:
178,109,58610,6,0,P|216:111|252:129,1,78.7499975967408,10|0,0:1|0:0,0:0:0:0:
324,71,58834,2,0,P|341:105|344:145,1,78.7499975967408,10|0,0:0|0:0,0:0:0:0:
430,177,59058,2,0,P|407:209|375:231,1,78.7499975967408,10|8,0:1|0:1,0:0:0:0:
389,322,59282,2,0,P|350:319|315:301,1,78.7499975967408,10|0,0:0|0:0,0:0:0:0:
191,217,59506,6,0,P|109:203|50:263,1,157.499995193482,14|8,0:1|0:0,0:0:0:0:
128,384,59842,1,0,0:0:0:0:
128,384,59954,2,0,B|176:372|176:372|226:388|226:388|279:374,1,157.499995193482,14|8,0:1|0:0,0:0:0:0:
270,245,60290,1,0,0:0:0:0:
270,245,60401,2,0,P|208:199|204:122,1,157.499995193482,14|8,0:1|0:0,0:0:0:0:
360,58,60737,1,0,0:0:0:0:
360,58,60849,2,0,B|372:105|372:105|356:155|356:155|370:208,1,157.499995193482,14|8,0:1|0:0,0:0:0:0:
315,340,61185,1,0,0:0:0:0:
315,340,61297,6,0,P|223:257|123:300,2,236.249992790222,14|2|10,0:1|0:0|0:0,0:0:0:0:
408,301,62081,1,8,0:0:0:0:
408,301,62193,2,0,L|419:219,1,78.7499975967408,8|8,0:1|0:0,0:0:0:0:
333,202,62416,2,0,L|301:124,1,78.7499975967408,2|8,0:0|0:0,0:0:0:0:
202,56,62640,1,10,0:1:0:0:
127,74,62752,1,8,0:0:0:0:
92,141,62864,1,10,0:1:0:0:
92,141,63088,6,0,L|85:219,1,78.7499975967408,14|0,0:1|0:0,0:0:0:0:
186,300,63312,2,0,L|179:222,1,78.7499975967408,10|0,0:0|0:0,0:0:0:0:
280,177,63536,2,0,L|272:254,2,78.7499975967408,10|8|10,0:1|0:1|0:0,0:0:0:0:
176,81,63872,6,0,B|229:95|229:95|279:79|279:79|327:91,1,157.499995193482,2|0,0:0|0:0,0:0:0:0:
428,215,64207,2,0,P|391:201|362:174,1,78.7499975967408,10|0,0:0|0:0,0:0:0:0:
327,91,64431,2,0,P|357:66|394:55,1,78.7499975967408,10|0,0:1|0:0,0:0:0:0:
484,65,64655,2,0,P|490:103|480:141,1,78.7499975967408,10|0,0:0|0:0,0:0:0:0:
354,265,64879,6,0,P|294:201|226:209,1,157.499995193482,10|8,0:1|0:0,0:0:0:0:
148,345,65215,2,0,P|224:346|271:287,1,157.499995193482,2|8,0:0|0:1,0:0:0:0:
146,178,65551,2,0,L|156:263,1,78.7499975967408,10|0,0:0|0:0,0:0:0:0:
59,315,65775,1,8,0:1:0:0:
59,315,65999,2,0,L|37:159,2,157.499995193482,10|10|10,0:0|0:1|0:0,0:0:0:0:
148,345,66558,1,0,0:0:0:0:
213,279,66670,6,0,P|256:267|296:272,1,78.7499975967408,10|0,0:1|0:0,0:0:0:0:
342,358,66894,2,0,P|303:369|265:366,1,78.7499975967408,10|0,0:0|0:0,0:0:0:0:
373,236,67118,2,0,P|415:225|455:230,2,78.7499975967408,10|8|10,0:1|0:1|0:0,0:0:0:0:
265,366,67454,6,0,B|211:352|211:352|162:368|162:368|114:355,1,157.499995193482,2|0,0:0|0:0,0:0:0:0:
41,217,67790,2,0,L|61:293,1,78.7499975967408,10|0,0:0|0:0,0:0:0:0:
156,206,68013,2,0,L|136:130,1,78.7499975967408,10|8,0:1|0:1,0:0:0:0:
18,242,68237,2,0,L|37:318,1,78.7499975967408,10|0,0:0|0:0,0:0:0:0:
51,115,68461,6,0,P|97:54|173:53,1,157.499995193482,10|8,0:1|0:0,0:0:0:0:
227,157,68797,1,0,0:0:0:0:
227,157,68909,2,0,P|260:168|306:163,1,78.7499975967408,8|8,0:1|0:1,0:0:0:0:
364,100,69133,2,0,P|401:87|440:92,1,78.7499975967408,10|0,0:0|0:0,0:0:0:0:
422,251,69357,6,0,L|411:172,1,78.7499975967408,10|0,0:1|0:0,0:0:0:0:
332,249,69581,2,0,L|343:326,1,78.7499975967408,10|0,0:0|0:0,0:0:0:0:
262,366,69804,2,0,P|224:367|184:351,1,78.7499975967408,10|8,0:1|0:1,0:0:0:0:
167,266,70028,2,0,P|206:266|245:281,1,78.7499975967408,10|0,0:0|0:0,0:0:0:0:
411,296,70252,6,0,P|425:221|376:162,1,157.499995193482,14|8,0:1|0:0,0:0:0:0:
262,206,70588,1,0,0:0:0:0:
262,206,70700,2,0,L|179:185,1,78.7499975967408,10|8,0:1|0:1,0:0:0:0:
100,225,70924,2,0,L|17:205,1,78.7499975967408,10|0,0:0|0:0,0:0:0:0:
110,64,71148,6,0,P|165:55|241:125,2,157.499995193482,10|10|10,0:1|0:0|0:1,0:0:0:0:
100,225,71707,1,8,0:1:0:0:
100,225,71819,2,0,L|81:146,1,78.7499975967408,10|0,0:0|0:0,0:0:0:0:
50,300,72043,6,0,P|132:309|188:236,1,157.499995193482,14|8,0:1|0:0,0:0:0:0:
263,121,72379,1,0,0:0:0:0:
263,121,72491,2,0,B|290:163|290:163|265:268,1,157.499995193482,14|8,0:1|0:0,0:0:0:0:
399,305,72827,1,0,0:0:0:0:
399,305,72939,2,0,B|387:258|387:258|403:208|403:208|389:154,1,157.499995193482,14|8,0:1|0:0,0:0:0:0:
242,40,73275,1,0,0:0:0:0:
242,40,73387,2,0,P|186:81|195:169,1,157.499995193482,14|8,0:1|0:0,0:0:0:0:
304,304,73722,1,0,0:0:0:0:
304,304,73834,6,0,L|463:273,2,157.499995193482,14|8|8,0:1|0:0|0:1,0:0:0:0:
218,262,74394,1,8,0:1:0:0:
168,343,74506,2,0,L|90:327,1,78.7499975967408,10|0,0:0|0:0,0:0:0:0:
165,185,74730,6,0,P|203:170|242:173,1,78.7499975967408,10|0,0:1|0:0,0:0:0:0:
325,203,74954,2,0,P|364:205|400:190,1,78.7499975967408,10|0,0:0|0:0,0:0:0:0:
362,41,75178,2,0,P|347:77|349:116,1,78.7499975967408,10|8,0:1|0:1,0:0:0:0:
471,242,75401,2,0,P|485:205|483:166,1,78.7499975967408,10|0,0:0|0:0,0:0:0:0:
362,41,75625,6,0,L|268:50,1,78.7499975967408,10|0,0:1|0:0,0:0:0:0:
138,111,75849,1,12,0:0:0:0:
138,111,75961,1,0,0:0:0:0:
206,177,76073,2,0,P|245:171|280:150,1,78.7499975967408,8|8,0:1|0:1,0:0:0:0:
358,203,76297,2,0,P|372:166|371:125,1,78.7499975967408,8|0,0:0|0:0,0:0:0:0:
197,33,76521,5,8,0:1:0:0:
197,33,76633,1,8,0:0:0:0:
138,111,76745,2,0,L|149:188,1,78.7499975967408,2|8,0:0|0:0,0:0:0:0:
90,266,76969,2,0,L|101:343,1,78.7499975967408,10|8,0:1|1:0,0:0:0:0:
252,384,77193,1,10,0:3:0:0:
252,384,77416,6,0,P|314:374|382:365,1,127.50000243187,14|8,0:1|0:1,0:0:0:0:
386,243,77752,1,8,0:1:0:0:
386,243,77864,2,0,P|341:235|278:284,1,127.50000243187,14|0,0:0|0:0,0:0:0:0:
126,361,78312,6,0,P|116:298|107:230,1,127.50000243187,10|8,0:1|0:1,0:0:0:0:
178,121,78648,1,8,0:1:0:0:
178,121,78760,2,0,P|186:184|196:247,1,127.50000243187,14|0,0:0|0:0,0:0:0:0:
386,243,79207,6,0,P|428:197|424:135,1,127.50000243187,10|8,0:1|0:1,0:0:0:0:
340,38,79543,1,8,0:1:0:0:
340,38,79655,2,0,P|297:83|301:145,1,127.50000243187,12|2,0:0|0:0,0:0:0:0:
240,350,80103,5,10,0:1:0:0:
133,288,80327,1,10,0:1:0:0:
301,241,80551,1,14,0:0:0:0:
195,180,80775,1,10,0:0:0:0:
359,338,80999,6,0,P|403:286|368:153,1,209.999993591309,14|2,0:1|0:0,0:0:0:0:
138,84,81894,2,0,P|94:136|129:269,1,209.999993591309,14|2,0:1|0:0,0:0:0:0:
373,157,82790,6,0,L|195:180,1,179.999994506836,14|10,0:1|0:0,0:0:0:0:
175,341,83461,1,2,0:0:0:0:
319,384,83685,2,0,L|328:333,1,44.999998626709,0|8,0:0|0:1,0:0:0:0:
413,290,83909,2,0,L|422:239,1,44.999998626709,0|8,0:0|0:1,0:0:0:0:
373,157,84133,2,0,P|338:113|258:116,1,134.999995880127,10|0,0:0|0:0,0:0:0:0:
209,246,84581,6,8,B|112:226|112:226|82:184,1,150,14|0,1:0|0:0,0:0:0:0:
117,23,84916,2,8,B|159:53|159:53|181:160,1,150,14|0,1:0|0:0,0:0:0:0:
314,265,85252,2,0,L|295:175,1,75,14|0,1:0|0:0,0:0:0:0:
445,104,85476,6,0,B|419:160|419:160|441:209|441:209|409:255|409:255|450:314|418:378,1,300,14|0,1:0|0:0,0:0:0:0:
