osu file format v14

[General]
AudioFilename: audio.mp3
AudioLeadIn: 500
PreviewTime: 48396
Countdown: 0
SampleSet: Soft
StackLeniency: 0.6
Mode: 0
LetterboxInBreaks: 0
WidescreenStoryboard: 0

[Editor]
DistanceSpacing: 2
BeatDivisor: 4
GridSize: 4
TimelineZoom: 1.5

[Metadata]
Title:adrenaline!!! -TV Ver-
TitleUnicode:adrenaline!!! -TV Ver-
Artist:TrySail
ArtistUnicode:TrySail
Creator:Kawayi Rika
Version:Insane
Source:エロマンガ先生
Tags:alacat Momochikun 和泉 紗霧 izumi sagiri eromanga ending moe loli 麻倉もも 雨宮天 夏川椎菜 Asakura Momo Amamiya Sora Natsukawa Shiina
BeatmapID:1284146
BeatmapSetID:608036

[Difficulty]
HPDrainRate:8
CircleSize:4
OverallDifficulty:8
ApproachRate:9
SliderMultiplier:1.8
SliderTickRate:1

[Events]
//Background and Video events
Video,-294,"adrenaline!!!.avi"
0,0,"BG.png",0,0
//Break Periods
//Storyboard Layer 0 (Background)
//Storyboard Layer 1 (Fail)
//Storyboard Layer 2 (Pass)
//Storyboard Layer 3 (Foreground)
//Storyboard Layer 4 (Overlay)
//Storyboard Sound Samples

[TimingPoints]
-857,447.761194029851,4,2,1,60,1,0
710,-100,4,2,1,30,0,0
934,-100,4,2,1,50,0,0
4516,-100,4,2,1,45,0,0
4628,-100,4,2,1,10,0,0
4740,-100,4,2,1,15,0,0
4963,-100,4,2,1,20,0,0
5187,-100,4,2,1,25,0,0
5635,-100,4,2,1,28,0,0
5859,-100,4,2,1,33,0,0
6083,-100,4,2,1,38,0,0
6307,-100,4,2,1,60,0,0
7650,-100,4,2,1,50,0,0
14142,-100,4,2,1,25,0,0
14590,-100,4,2,1,30,0,0
14926,-100,4,2,1,35,0,0
15262,-100,4,2,1,60,0,0
15374,-100,4,2,1,45,0,0
17053,-100,4,2,1,100,0,0
17165,-100,4,2,1,45,0,0
23993,-100,4,2,1,55,0,0
29814,-100,4,2,1,35,0,0
29926,-100,4,2,1,55,0,0
30374,-100,4,2,1,15,0,0
30710,-100,4,2,1,25,0,0
31045,-100,4,2,1,35,0,0
31269,-100,4,2,1,45,0,0
31381,-100,4,2,1,60,0,0
31493,-100,4,2,1,50,0,0
38545,-100,4,2,1,50,0,0
45710,-100,4,2,1,5,0,0
47501,-100,4,2,1,70,0,0
49292,-100,4,2,1,80,0,1
49404,-100,4,2,1,70,0,1
62501,-100,4,2,1,25,0,1
62948,-100,4,2,1,30,0,1
63396,-100,4,2,1,35,0,0
63620,-100,4,2,1,75,0,1
72575,-100,4,2,1,50,0,1
72799,-100,4,2,1,40,0,1
73023,-100,4,2,1,55,0,1
73247,-100,4,2,1,40,0,1
73471,-100,4,2,1,60,0,1
73695,-100,4,2,1,40,0,1
73919,-100,4,2,1,65,0,1
74143,-100,4,2,1,40,0,1
74366,-100,4,2,1,60,0,1
74590,-100,4,2,1,50,0,1
77053,-100,4,2,1,80,0,0
77277,-100,4,2,1,40,0,0
77948,-100,4,2,1,60,0,0
79740,-100,4,2,1,45,0,0
80187,-100,4,2,1,35,0,0
81083,-100,4,2,1,60,0,0
83769,-100,4,2,1,20,0,0
85113,-100,4,2,1,70,0,0
86008,-100,4,2,1,80,0,0

[Colours]
Combo1 : 235,250,105
Combo2 : 226,88,220
Combo3 : 89,164,255
Combo4 : 243,58,63

[HitObjects]
192,64,598,6,0,P|216:80|240:88,1,45,0|8,0:0|0:0,0:0:0:0:
351,60,934,6,0,P|395:44|441:47,1,90,2|0,0:0|0:0,0:0:0:0:
492,140,1381,1,0,0:0:0:0:
484,264,1605,1,0,0:0:0:0:
348,352,1829,1,0,0:0:0:0:
188,340,2053,1,0,0:0:0:0:
76,200,2277,2,0,P|43:170|-7:157,1,90
92,37,2725,6,0,P|115:54|145:65,1,45,4|0,0:0|0:0,0:0:0:0:
210,102,2948,2,0,P|234:97|254:84,1,45
322,29,3172,2,0,P|351:32|376:40,1,45
422,107,3396,2,0,P|442:92|466:89,1,45
479,177,3620,2,0,L|507:230,1,45
413,245,3844,2,0,B|407:273|407:273|394:295,1,45
308,301,4068,2,0,B|287:302|287:302|264:309,1,45
177,336,4292,2,0,B|156:324|156:324|137:301,1,45
32,221,4516,5,4,0:0:0:0:
57,184,4628,1,8,0:0:0:0:
95,161,4739,1,8,0:0:0:0:
140,164,4851,1,8,0:0:0:0:
180,188,4963,1,8,0:0:0:0:
224,192,5075,1,8,0:0:0:0:
268,176,5187,1,8,0:0:0:0:
296,140,5299,1,8,0:0:0:0:
312,96,5411,5,8,0:0:0:0:
352,72,5523,1,8,0:0:0:0:
404,68,5635,1,8,0:0:0:0:
448,80,5747,1,8,0:0:0:0:
480,112,5859,1,8,0:0:0:0:
496,156,5971,1,8,0:0:0:0:
484,200,6083,1,8,0:0:0:0:
452,232,6195,1,8,0:0:0:0:
408,248,6307,5,8,0:0:0:0:
208,68,6642,1,8,0:0:0:0:
84,308,6978,1,8,0:0:0:0:
320,152,7202,2,0,B|376:124|376:124|440:136|476:72,1,180,8|4,0:0|0:0,0:0:0:0:
396,48,7874,5,0,0:0:0:0:
396,48,7986,1,0,0:0:0:0:
396,48,8098,2,0,P|416:80|408:144,2,90,4|8|2,0:0|0:0|0:0,0:0:0:0:
356,24,8657,1,0,0:0:0:0:
316,44,8769,2,0,B|292:48|264:64|264:64|224:64,1,90,8|2,0:0|0:0,0:0:0:0:
132,20,9217,1,8,0:0:0:0:
48,88,9441,1,2,0:0:0:0:
48,88,9553,1,0,0:0:0:0:
48,88,9665,2,0,B|52:120|52:120|80:148|80:180,1,90,8|2,0:0|0:0,0:0:0:0:
216,336,10113,5,8,0:0:0:0:
92,304,10337,2,0,P|104:280|124:264,1,45,2|0,0:0|0:0,0:0:0:0:
212,204,10560,2,0,P|236:200|264:208,1,45,8|0,0:0|0:0,0:0:0:0:
412,316,10784,2,0,P|368:308|324:284,1,90,2|8,0:0|0:0,0:0:0:0:
464,156,11232,1,2,0:0:0:0:
324,44,11456,1,8,0:0:0:0:
324,44,11568,1,0,0:0:0:0:
324,44,11680,2,0,B|264:40|264:40|228:56,1,90,2|8,0:0|0:0,0:0:0:0:
36,104,12128,6,0,L|4:136,1,45,2|0,0:0|0:0,0:0:0:0:
76,192,12351,2,0,L|80:244,1,45,8|0,0:0|0:0,0:0:0:0:
152,292,12575,2,0,P|196:304|244:292,1,90,2|8,0:0|0:0,0:0:0:0:
284,284,12911,1,0,0:0:0:0:
328,276,13023,2,0,P|371:266|414:278,1,90,2|8,0:0|0:0,0:0:0:0:
444,112,13471,2,0,P|472:120|492:136,2,45,2|0|8,0:0|0:0|0:0,0:0:0:0:
408,88,13807,1,0,0:0:0:0:
368,80,13919,2,0,B|340:72|340:72|312:96|264:96,1,90,2|8,0:0|0:0,0:0:0:0:
124,16,14366,5,0,0:0:0:0:
88,40,14478,1,8,0:0:0:0:
76,84,14590,1,8,0:0:0:0:
88,128,14702,1,8,0:0:0:0:
120,160,14814,1,8,0:0:0:0:
160,180,14926,1,8,0:0:0:0:
204,188,15038,1,8,0:0:0:0:
240,212,15150,1,8,0:0:0:0:
260,252,15262,1,12,0:0:0:0:
44,332,15710,5,0,0:0:0:0:
44,332,15822,1,0,0:0:0:0:
264,356,16045,1,0,0:0:0:0:
288,320,16157,2,0,L|276:264,2,45
332,308,16493,1,0,0:0:0:0:
376,324,16605,2,0,P|452:280|468:180,1,180,8|2,0:0|0:0,0:0:0:0:
260,40,17277,5,8,0:0:0:0:
260,40,17389,1,0,0:0:0:0:
260,40,17501,2,0,P|272:92|300:124,1,90,0|8,0:0|0:0,0:0:0:0:
232,208,17948,2,0,P|184:200|144:176,1,90,0|8,0:0|0:0,0:0:0:0:
44,80,18396,1,0,0:0:0:0:
44,80,18508,1,0,0:0:0:0:
44,80,18620,2,0,P|8:120|6:161,1,90,8|0,0:0|0:0,0:0:0:0:
32,192,18956,1,0,0:0:0:0:
52,232,19068,2,0,P|72:280|60:324,1,90,8|0,0:0|0:0,0:0:0:0:
292,328,19516,2,0,L|248:320,2,45,8|0|0,0:0|0:0|0:0,0:0:0:0:
324,140,19963,1,8,0:0:0:0:
136,348,20187,5,0,0:0:0:0:
200,32,20411,1,8,0:0:0:0:
240,240,20635,5,0,0:0:0:0:
240,240,20747,1,0,0:0:0:0:
240,240,20859,2,0,P|220:232|196:227,1,45,8|0,0:0|0:0,0:0:0:0:
312,320,21083,2,0,P|320:348|340:376,1,45
340,236,21307,2,0,P|352:216|368:200,2,45,8|0|0,0:0|0:0|0:0,0:0:0:0:
408,312,21642,1,0,0:0:0:0:
504,348,21754,2,0,P|508:308|492:256,1,90,8|0,0:0|0:0,0:0:0:0:
460,168,22090,2,0,P|464:140|476:116,1,45,0|8,0:0|0:0,0:0:0:0:
292,36,22426,6,0,B|256:48|256:48|228:36|176:41,1,90,0|8,0:0|0:0,0:0:0:0:
160,52,22762,1,0,0:0:0:0:
132,88,22874,2,0,P|88:92|56:136,1,90,0|8,0:0|0:0,0:0:0:0:
80,340,23322,2,0,P|61:299|83:250,1,90,0|8,0:0|0:0,0:0:0:0:
288,232,23769,2,0,B|268:280|214:276,1,90,0|8,0:0|0:0,0:0:0:0:
464,312,24217,5,0,0:0:0:0:
464,312,24329,1,0,0:0:0:0:
464,312,24441,2,0,P|444:304|420:304,1,45,8|0,0:0|0:0,0:0:0:0:
368,224,24665,2,0,P|380:200|400:184,1,45
424,152,24889,1,8,0:0:0:0:
412,108,25001,1,0,0:0:0:0:
372,84,25113,2,0,P|324:72|280:80,1,90,0|8,0:0|0:0,0:0:0:0:
380,312,25560,1,0,0:0:0:0:
148,328,25784,6,0,P|103:334|60:322,1,90,8|0,0:0|0:0,0:0:0:0:
16,224,26232,1,8,0:0:0:0:
16,224,26344,1,0,0:0:0:0:
16,224,26456,2,0,P|40:212|68:208,1,45
136,100,26680,2,0,P|124:124|100:144,2,45,8|0|0,0:0|0:0|0:0,0:0:0:0:
228,248,27128,2,0,B|248:252|272:272|272:272|276:271|312:276,1,90,8|0,0:0|0:0,0:0:0:0:
440,340,27575,2,0,P|416:332|388:316,1,45,8|0,0:0|0:0,0:0:0:0:
388,236,27799,5,4,0:0:0:0:
436,60,28023,1,8,0:0:0:0:
468,164,28247,1,0,0:0:0:0:
328,44,28471,1,8,0:0:0:0:
328,44,28583,1,0,0:0:0:0:
328,44,28695,1,4,0:0:0:0:
160,164,28919,6,0,P|176:144|200:136,1,45,8|0,0:0|0:0,0:0:0:0:
296,156,29143,1,0,0:0:0:0:
320,196,29254,1,0,0:0:0:0:
312,244,29366,1,8,0:0:0:0:
276,272,29478,1,0,0:0:0:0:
232,280,29590,2,0,B|200:272|200:272|184:296|144:304,1,90,0|12,0:0|0:0,0:0:0:0:
120,328,29926,2,0,B|96:320|96:320|72:296,1,45
24,96,30262,5,0,0:0:0:0:
64,72,30374,1,8,0:0:0:0:
104,56,30486,1,8,0:0:0:0:
144,72,30598,1,8,0:0:0:0:
184,88,30710,1,8,0:0:0:0:
224,104,30822,1,8,0:0:0:0:
264,120,30934,1,8,0:0:0:0:
304,104,31045,1,8,0:0:0:0:
344,88,31157,1,8,0:0:0:0:
384,72,31269,1,8,0:0:0:0:
424,56,31381,6,8,B|456:40|456:40|496:96,1,90,12|8,0:0|0:0,0:0:0:0:
484,336,31829,2,0,B|444:312|444:312|416:272,1,90,0|8,0:0|0:0,0:0:0:0:
308,216,32277,2,0,B|276:228|276:228|220:220,1,90,0|8,0:0|0:0,0:0:0:0:
40,256,32725,2,0,B|71:243|71:243|127:251,1,90,0|8,0:0|0:0,0:0:0:0:
268,332,33172,1,0,0:0:0:0:
88,160,33396,1,8,0:0:0:0:
88,160,33508,1,0,0:0:0:0:
88,160,33620,2,0,P|88:112|112:72,1,90,0|8,0:0|0:0,0:0:0:0:
248,72,34068,6,0,P|280:48|336:40,1,90,0|8,0:0|0:0,0:0:0:0:
432,80,34516,1,0,0:0:0:0:
472,176,34740,1,8,0:0:0:0:
472,176,34851,1,0,0:0:0:0:
472,176,34963,2,0,P|480:248|464:280,1,90,0|8,0:0|0:0,0:0:0:0:
376,304,35411,2,0,P|320:296|280:312,1,90,0|8,0:0|0:0,0:0:0:0:
56,344,35859,2,0,P|99:353|142:341,1,90,0|8,0:0|0:0,0:0:0:0:
168,304,36195,1,0,0:0:0:0:
184,264,36307,2,0,B|192:240|192:240|232:224|240:184,1,90,0|8,0:0|0:0,0:0:0:0:
136,128,36754,5,0,0:0:0:0:
94,13,36978,2,0,B|88:24|88:24|48:32|32:72,1,90,8|0,0:0|0:0,0:0:0:0:
136,128,37426,1,8,0:0:0:0:
192,224,37650,1,0,0:0:0:0:
192,224,37762,1,0,0:0:0:0:
192,224,37874,2,0,P|224:248|272:256,1,90,8|0,0:0|0:0,0:0:0:0:
352,184,38322,1,8,0:0:0:0:
424,24,38545,6,8,L|472:16,1,45,12|8,0:0|0:0,0:0:0:0:
451,152,38769,2,8,L|496:152,1,45
488,288,38993,1,8,0:0:0:0:
384,360,39217,1,0,0:0:0:0:
264,312,39441,1,8,0:0:0:0:
232,344,39553,1,8,0:0:0:0:
192,360,39665,1,8,0:0:0:0:
144,360,39777,1,8,0:0:0:0:
104,344,39889,2,0,P|72:304|72:256,1,90,8|0,0:0|0:0,0:0:0:0:
96,32,40337,5,8,0:0:0:0:
96,32,40448,1,8,0:0:0:0:
96,32,40560,1,8,0:0:0:0:
96,32,40672,1,8,0:0:0:0:
96,32,40784,1,8,0:0:0:0:
312,68,41008,1,0,0:0:0:0:
280,256,41232,5,4,0:0:0:0:
496,368,41568,1,4,0:0:0:0:
480,128,41904,1,4,0:0:0:0:
480,128,42128,1,4,0:0:0:0:
344,40,42351,6,0,P|304:56|256:64,1,90,0|8,0:0|0:0,0:0:0:0:
152,32,42799,1,0,0:0:0:0:
56,80,43023,2,0,P|32:120|24:176,1,90
40,272,43471,1,8,0:0:0:0:
136,320,43695,1,0,0:0:0:0:
136,320,43807,1,0,0:0:0:0:
136,320,43919,2,0,P|176:344|232:352,1,90
424,328,44366,5,8,0:0:0:0:
320,304,44590,1,0,0:0:0:0:
320,304,44702,1,0,0:0:0:0:
320,304,44814,2,0,P|336:256|376:224,1,90
448,168,45262,1,8,0:0:0:0:
352,120,45486,1,0,0:0:0:0:
256,192,45710,12,0,47053,0:0:0:0:
72,328,47501,5,8,0:0:0:0:
32,64,47837,1,8,0:0:0:0:
304,88,48172,1,8,0:0:0:0:
256,264,48396,1,8,0:0:0:0:
440,328,48620,5,0,0:0:0:0:
440,328,48844,1,0,0:0:0:0:
440,328,49068,1,0,0:0:0:0:
464,72,49292,6,0,P|432:104|424:152,1,90,4|8,0:0|0:0,0:0:0:0:
320,176,49740,2,0,B|290:198|290:198|256:192|224:224,1,90,0|8,0:0|0:0,0:0:0:0:
288,304,50187,1,0,0:0:0:0:
184,336,50411,1,8,0:0:0:0:
80,368,50635,2,0,B|64:328|24:320|24:320|16:280,1,90,0|8,0:0|0:0,0:0:0:0:
24,200,51083,2,0,P|48:184|80:176,1,45
144,112,51307,2,0,P|168:112|200:120,1,45,8|0,0:0|0:0,0:0:0:0:
296,88,51531,2,0,P|272:48|224:24,2,90,0|8|0,0:0|0:0|0:0,0:0:0:0:
456,88,52202,5,8,0:0:0:0:
376,160,52426,1,0,0:0:0:0:
432,272,52650,1,8,0:0:0:0:
432,272,52762,1,0,0:0:0:0:
432,272,52874,2,0,P|384:288|352:328,1,90,0|8,0:0|0:0,0:0:0:0:
216,344,53322,2,0,P|168:344|128:328,1,90,0|8,0:0|0:0,0:0:0:0:
280,168,53769,2,0,L|256:128,1,45
176,224,53993,2,0,L|120:200,1,45,8|0,0:0|0:0,0:0:0:0:
128,72,54217,2,0,P|86:56|41:56,2,90,0|8|0,0:0|0:0|0:0,0:0:0:0:
256,129,54889,2,0,P|296:160|336:168,1,90,8|0,0:0|0:0,0:0:0:0:
360,32,55337,5,8,0:0:0:0:
496,192,55560,1,0,0:0:0:0:
360,352,55784,1,8,0:0:0:0:
360,352,55896,1,0,0:0:0:0:
360,352,56008,2,0,P|312:360|248:352,1,90,0|8,0:0|0:0,0:0:0:0:
30,137,56456,2,0,P|75:129|120:132,1,90,0|8,0:0|0:0,0:0:0:0:
44,344,56904,1,0,0:0:0:0:
160,208,57128,6,0,P|132:216|104:240,2,45,8|0|0,0:0|0:0|0:0,0:0:0:0:
176,104,57575,1,8,0:0:0:0:
272,64,57799,2,0,P|296:80|320:112,1,45
408,104,58023,2,0,P|424:128|424:160,1,45,8|0,0:0|0:0,0:0:0:0:
448,248,58247,2,0,B|432:256|416:280|416:280|392:280|368:296,1,90,0|8,0:0|0:0,0:0:0:0:
96,320,58695,5,0,0:0:0:0:
288,192,58919,1,8,0:0:0:0:
208,320,59143,2,0,P|200:272|176:240,1,90,0|8,0:0|0:0,0:0:0:0:
144,208,59478,1,0,0:0:0:0:
112,176,59590,2,0,P|85:139|79:95,1,90,0|8,0:0|0:0,0:0:0:0:
208,64,60038,6,0,P|248:40|296:40,1,90,0|8,0:0|0:0,0:0:0:0:
280,144,60486,2,0,L|304:248,1,90,0|8,0:0|0:0,0:0:0:0:
426,288,60934,2,0,L|408:200,1,90,0|8,0:0|0:0,0:0:0:0:
504,152,61381,1,0,0:0:0:0:
288,352,61605,1,8,0:0:0:0:
288,352,61717,1,0,0:0:0:0:
288,352,61829,2,0,P|248:376|200:376,1,90,0|8,0:0|0:0,0:0:0:0:
56,320,62277,1,0,0:0:0:0:
24,160,62501,5,8,0:0:0:0:
56,128,62613,1,8,0:0:0:0:
96,120,62725,1,8,0:0:0:0:
136,128,62837,1,8,0:0:0:0:
160,160,62948,1,8,0:0:0:0:
192,192,63060,1,8,0:0:0:0:
232,208,63172,1,8,0:0:0:0:
280,208,63284,1,8,0:0:0:0:
320,184,63396,1,8,0:0:0:0:
344,144,63508,1,8,0:0:0:0:
384,120,63620,6,0,B|399:112|399:112|420:81|465:83,1,90,4|8,0:0|0:0,0:0:0:0:
472,192,64068,2,0,P|488:232|496:280,1,90,0|8,0:0|0:0,0:0:0:0:
384,336,64516,2,0,P|344:320|280:312,1,90,0|8,0:0|0:0,0:0:0:0:
256,328,64851,1,0,0:0:0:0:
216,344,64963,2,0,B|176:344|176:344|144:328|112:336,1,90,0|8,0:0|0:0,0:0:0:0:
56,144,65411,1,0,0:0:0:0:
48,264,65635,2,0,P|29:276|13:292,2,45,8|0|0,0:0|0:0|0:0,0:0:0:0:
216,200,66083,1,8,0:0:0:0:
72,32,66307,2,0,P|120:48|152:88,1,90,0|8,0:0|0:0,0:0:0:0:
184,104,66643,1,0,0:0:0:0:
216,136,66754,2,0,P|247:167|290:180,1,90,0|8,0:0|0:0,0:0:0:0:
432,32,67202,6,0,P|424:48|424:80,1,45
484,144,67426,2,0,P|460:160|420:160,1,45,8|0,0:0|0:0,0:0:0:0:
360,156,67650,1,0,0:0:0:0:
336,368,67874,1,8,0:0:0:0:
424,304,68098,2,0,P|384:272|344:264,1,90,0|8,0:0|0:0,0:0:0:0:
248,312,68545,1,0,0:0:0:0:
140,316,68769,2,0,P|96:305|62:276,1,90,8|0,0:0|0:0,0:0:0:0:
8,184,69217,1,8,0:0:0:0:
88,52,69441,6,0,L|124:24,2,45,0|0|8,0:0|0:0|0:0,0:0:0:0:
172,120,69889,2,0,P|196:128|216:144,1,45
276,252,70113,2,0,P|252:244|234:232,1,45,8|0,0:0|0:0,0:0:0:0:
308,160,70337,1,0,0:0:0:0:
464,56,70560,5,8,0:0:0:0:
468,308,70784,1,0,0:0:0:0:
216,340,71008,1,8,0:0:0:0:
8,164,71232,1,0,0:0:0:0:
92,300,71456,5,8,0:0:0:0:
92,300,71568,1,0,0:0:0:0:
92,300,71680,2,0,B|92:252|92:252|116:216,1,90,0|8,0:0|0:0,0:0:0:0:
256,20,72128,2,0,B|256:68|256:68|232:104,1,90,0|8,0:0|0:0,0:0:0:0:
216,256,72575,5,4,0:0:0:0:
312,124,72799,1,8,0:0:0:0:
216,256,73023,1,4,0:0:0:0:
388,104,73247,1,8,0:0:0:0:
216,256,73471,1,4,0:0:0:0:
464,136,73695,1,8,0:0:0:0:
216,256,73919,1,4,0:0:0:0:
500,208,74143,1,8,0:0:0:0:
216,256,74366,1,4,0:0:0:0:
484,288,74590,2,0,P|452:320|408:332,1,90,8|0,0:0|0:0,0:0:0:0:
84,336,75038,6,0,P|56:340|24:332,2,45,8|0|0,0:0|0:0|0:0,0:0:0:0:
64,228,75486,1,8,0:0:0:0:
64,228,75598,1,0,0:0:0:0:
64,228,75710,2,0,P|56:180|72:136,1,90,0|8,0:0|0:0,0:0:0:0:
180,44,76157,1,0,0:0:0:0:
348,60,76381,2,0,P|328:48|304:44,2,45,8|0|0,0:0|0:0|0:0,0:0:0:0:
384,136,76717,2,0,P|388:164|380:200,2,45,0|8|0,0:0|0:0|0:0,0:0:0:0:
428,72,77053,1,0,0:0:0:0:
492,240,77277,5,8,0:0:0:0:
452,240,77389,1,8,0:0:0:0:
420,264,77501,1,8,0:0:0:0:
412,304,77613,1,8,0:0:0:0:
384,336,77725,1,8,0:0:0:0:
344,340,77837,1,8,0:0:0:0:
304,332,77948,2,0,B|264:332|220:352|220:352|172:332|128:332,1,180,4|8,0:0|0:0,0:0:0:0:
44,192,78620,1,0,0:0:0:0:
129,51,78844,2,0,B|172:52|220:32|220:32|264:52|304:52,1,180,4|8,0:0|0:0,0:0:0:0:
388,192,79516,1,0,0:0:0:0:
460,52,79740,6,8,P|444:76|436:100,1,45
476,164,79963,2,8,P|492:188|500:224,1,45
512,284,80187,1,4,0:0:0:0:
364,348,80411,1,0,0:0:0:0:
204,356,80635,1,0,0:0:0:0:
264,204,80859,1,0,0:0:0:0:
104,212,81083,1,4,0:0:0:0:
152,56,81307,1,0,0:0:0:0:
384,60,81531,6,0,B|380:112|380:112|448:108|496:164,1,180,4|0,0:0|0:0,0:0:0:0:
372,268,82202,1,0,0:0:0:0:
224,324,82426,2,0,B|136:320|136:320|104:356|43:350,1,180,4|0,0:0|0:0,0:0:0:0:
120,48,83098,1,0,0:0:0:0:
120,48,83210,1,0,0:0:0:0:
120,48,83322,2,0,L|92:160,1,90,4|0,0:0|0:0,0:0:0:0:
256,192,83769,6,8,P|236:200|204:200,2,45
284,156,84105,1,8,0:0:0:0:
324,132,84217,1,8,0:0:0:0:
368,136,84329,1,8,0:0:0:0:
404,164,84441,1,8,0:0:0:0:
448,168,84553,1,8,0:0:0:0:
488,152,84665,1,8,0:0:0:0:
444,52,84889,1,8,0:0:0:0:
336,300,85113,5,8,0:0:0:0:
32,192,85448,1,8,0:0:0:0:
336,84,85784,1,8,0:0:0:0:
504,192,86008,5,12,0:0:0:0:
