osu file format v14

[General]
AudioFilename: adrenaline_v2.mp3
AudioLeadIn: 0
PreviewTime: 47092
Countdown: 0
SampleSet: Soft
StackLeniency: 0.7
Mode: 2
LetterboxInBreaks: 0
WidescreenStoryboard: 0

[Editor]
DistanceSpacing: 1.5
BeatDivisor: 2
GridSize: 4
TimelineZoom: 1.5

[Metadata]
Title:adrenaline!!! -TV Ver-
TitleUnicode:adrenaline!!! -TV Ver-
Artist:TrySail
ArtistUnicode:TrySail
Creator:Kagari
Version:platter!!!
Source:エロマンガ先生
Tags:eromanga sensei ed ending sagiri izumi sc4v4ng3r ascendance
BeatmapID:1317727
BeatmapSetID:622984

[Difficulty]
HPDrainRate:4
CircleSize:3.5
OverallDifficulty:8
ApproachRate:8
SliderMultiplier:1.7
SliderTickRate:1

[Events]
//Background and Video events
0,0,"eromanga.png",0,0
Video,0,"eromanga.avi"
//Break Periods
//Storyboard Layer 0 (Background)
//Storyboard Layer 1 (Fail)
//Storyboard Layer 2 (Pass)
//Storyboard Layer 3 (Foreground)
//Storyboard Layer 4 (Overlay)
//Storyboard Sound Samples

[TimingPoints]
-370,223.880597014925,4,2,1,30,1,0
525,-100,4,2,1,40,0,0
2316,-100,4,2,1,50,0,0
4107,-100,4,2,1,60,0,0
5898,-100,4,2,1,70,0,0
7689,-100,4,2,1,80,0,1
14853,-100,4,2,1,80,0,0
16756,-100,4,2,1,60,0,0
30973,-100,4,2,1,70,0,0
48883,-100,4,2,1,80,0,1
62316,-100,4,2,1,80,0,0
63212,-100,4,2,1,80,0,1
77540,-100,4,2,1,80,0,0

[HitObjects]
320,240,189,5,2,0:0:0:0:
320,180,301,1,10,0:0:0:0:
108,216,525,5,6,0:0:0:0:
192,156,749,1,0,0:0:0:0:
304,128,973,1,0,0:0:0:0:
192,100,1197,1,0,0:0:0:0:
304,188,1421,1,0,0:0:0:0:
192,136,1644,1,0,0:0:0:0:
80,120,1868,1,0,0:0:0:0:
156,160,2092,1,0,0:0:0:0:
404,224,2316,5,6,0:0:0:0:
320,164,2540,1,0,0:0:0:0:
208,128,2764,1,0,0:0:0:0:
320,108,2988,1,0,0:0:0:0:
208,192,3212,1,0,0:0:0:0:
320,176,3435,1,0,0:0:0:0:
432,136,3659,1,0,0:0:0:0:
356,164,3883,1,0,0:0:0:0:
108,232,4107,5,6,0:0:0:0:
68,200,4219,1,0,0:0:0:0:
108,164,4331,1,0,0:0:0:0:
220,128,4555,1,8,3:0:0:0:
108,108,4779,1,8,3:0:0:0:
312,148,5003,5,8,3:0:0:0:
312,188,5227,1,8,3:0:0:0:
108,196,5450,1,8,3:0:0:0:
108,160,5674,1,8,3:0:0:0:
440,232,5898,5,4,3:0:0:0:
272,188,6234,1,4,3:0:0:0:
440,168,6570,1,4,3:0:0:0:
192,200,6794,1,4,3:0:0:0:
212,140,7018,1,0,0:0:0:0:
460,208,7241,2,0,P|492:132|468:52,1,170,12|0,0:0|0:0,0:0:0:0:
76,188,7689,5,6,0:0:0:0:
124,124,7913,1,8,0:0:0:0:
336,156,8137,1,2,0:0:0:0:
280,132,8249,1,0,0:0:0:0:
224,112,8361,1,8,0:0:0:0:
436,188,8585,1,2,0:0:0:0:
416,128,8809,1,8,0:0:0:0:
304,188,9032,1,2,0:0:0:0:
416,192,9256,1,8,0:0:0:0:
204,232,9480,5,2,0:0:0:0:
316,224,9704,1,8,0:0:0:0:
204,172,9928,1,2,0:0:0:0:
260,152,10040,1,0,0:0:0:0:
316,132,10152,1,8,0:0:0:0:
104,200,10376,5,2,0:0:0:0:
144,120,10600,1,8,0:0:0:0:
256,92,10824,1,2,0:0:0:0:
144,64,11047,1,8,0:0:0:0:
436,188,11271,5,2,0:0:0:0:
388,124,11495,1,8,0:0:0:0:
176,156,11719,1,2,0:0:0:0:
232,132,11831,1,0,0:0:0:0:
288,112,11943,1,8,0:0:0:0:
76,188,12167,1,2,0:0:0:0:
96,128,12391,1,8,0:0:0:0:
208,188,12614,1,2,0:0:0:0:
96,192,12838,1,8,0:0:0:0:
308,232,13062,5,2,0:0:0:0:
196,224,13286,1,8,0:0:0:0:
308,172,13510,1,2,0:0:0:0:
252,152,13622,1,0,0:0:0:0:
196,132,13734,1,8,0:0:0:0:
408,176,13958,5,2,0:0:0:0:
368,124,14182,1,8,0:0:0:0:
156,208,14406,1,2,3:2:0:0:
92,168,14518,1,2,3:2:0:0:
108,108,14629,1,8,3:2:0:0:
396,128,14853,5,6,0:0:0:0:
192,128,15301,1,2,0:0:0:0:
344,260,15637,2,2,P|404:224|404:132,1,170
368,96,15973,1,2,0:0:0:0:
156,96,16197,1,10,0:0:0:0:
164,48,16421,1,8,3:0:0:0:
452,220,16644,6,0,P|440:132|376:92,1,170,6|8,0:0|0:0,0:0:0:0:
160,268,17092,2,0,P|120:208|160:128,1,170,2|8,0:0|0:0,0:0:0:0:
376,180,17540,5,2,0:0:0:0:
488,124,17764,1,8,0:0:0:0:
376,104,17988,1,2,0:0:0:0:
488,96,18212,1,8,0:0:0:0:
276,272,18435,6,0,L|164:144,2,170,2|8|2,0:0|0:0|0:0,0:0:0:0:
164,104,19107,1,8,0:0:0:0:
376,92,19331,5,2,0:0:0:0:
488,168,19555,1,8,0:0:0:0:
276,160,19779,1,2,0:0:0:0:
384,156,20003,1,8,0:0:0:0:
172,248,20227,6,0,P|100:196|92:120,1,170,2|8,0:0|0:0,0:0:0:0:
200,88,20674,1,2,0:0:0:0:
88,168,20898,1,8,0:0:0:0:
300,240,21122,6,0,P|364:200|392:112,1,170,2|8,0:0|0:0,0:0:0:0:
248,76,21570,1,2,0:0:0:0:
392,56,21794,1,8,0:0:0:0:
96,240,22018,6,0,P|64:172|112:100,1,170,2|8,0:0|0:0,0:0:0:0:
324,228,22465,1,2,0:0:0:0:
388,180,22577,1,0,0:0:0:0:
344,104,22689,1,8,0:0:0:0:
132,220,22913,6,0,P|76:164|112:92,1,170,2|8,0:0|0:0,0:0:0:0:
324,228,23361,1,2,0:0:0:0:
388,180,23473,1,0,0:0:0:0:
404,104,23585,1,8,0:0:0:0:
96,240,23809,5,2,0:0:0:0:
208,208,24032,1,12,0:0:0:0:
96,176,24256,1,2,0:0:0:0:
136,108,24480,1,8,0:0:0:0:
348,152,24704,5,2,0:0:0:0:
444,124,24928,1,8,0:0:0:0:
348,100,25152,1,2,0:0:0:0:
204,96,25376,1,8,0:0:0:0:
416,236,25600,6,0,L|304:108,3,170,2|8|2|8,0:0|0:0|0:0|0:0,0:0:0:0:
92,200,26495,5,2,0:0:0:0:
132,112,26719,1,8,0:0:0:0:
276,156,26943,1,2,0:0:0:0:
132,240,27167,1,8,0:0:0:0:
452,248,27391,6,0,P|468:180|408:108,1,170,6|8,0:0|0:0,0:0:0:0:
296,120,27838,1,2,0:0:0:0:
408,172,28062,1,8,0:0:0:0:
120,156,28286,5,6,0:0:0:0:
232,176,28510,1,8,0:0:0:0:
20,176,28734,1,2,0:0:0:0:
32,124,28846,1,0,0:0:0:0:
72,88,28958,1,8,0:0:0:0:
360,136,29182,5,6,0:0:0:0:
248,140,29406,1,8,0:0:0:0:
452,216,29629,1,2,0:0:0:0:
496,172,29741,1,8,0:0:0:0:
464,128,29853,1,8,0:0:0:0:
176,220,30077,5,6,0:0:0:0:
104,196,30189,1,0,3:2:0:0:
104,152,30301,1,8,3:2:0:0:
176,120,30413,1,0,3:2:0:0:
172,100,30525,1,6,3:2:0:0:
100,88,30637,1,0,3:2:0:0:
100,48,30749,1,8,3:2:0:0:
472,224,30973,6,0,P|472:148|396:100,1,170,6|8,0:0|0:0,0:0:0:0:
284,152,31421,1,0,0:0:0:0:
396,180,31644,1,8,0:0:0:0:
184,224,31868,6,0,P|144:176|184:88,1,170,2|8,0:0|0:0,0:0:0:0:
396,136,32316,1,0,0:0:0:0:
464,76,32539,1,8,0:0:0:0:
248,252,32764,6,0,P|176:212|144:132,1,170,2|8,0:0|0:0,0:0:0:0:
312,108,33212,1,0,0:0:0:0:
200,72,33435,1,8,0:0:0:0:
412,152,33659,5,2,0:0:0:0:
300,184,33883,1,8,0:0:0:0:
188,200,34107,1,0,0:0:0:0:
300,256,34331,1,8,0:0:0:0:
88,232,34555,6,0,P|88:156|164:108,1,170,2|8,0:0|0:0,0:0:0:0:
272,152,35003,1,0,0:0:0:0:
160,164,35226,1,8,0:0:0:0:
372,224,35450,6,0,P|412:176|372:88,1,170,2|8,0:0|0:0,0:0:0:0:
156,120,35898,1,0,0:0:0:0:
184,56,36121,1,8,0:0:0:0:
400,248,36346,6,0,P|412:172|348:112,1,170,2|8,0:0|0:0,0:0:0:0:
236,140,36794,1,0,0:0:0:0:
348,188,37017,1,8,0:0:0:0:
136,252,37241,5,2,0:0:0:0:
100,192,37353,1,0,0:0:0:0:
152,152,37465,1,8,0:0:0:0:
364,212,37689,1,2,0:0:0:0:
416,164,37801,1,0,0:0:0:0:
384,108,37913,1,8,0:0:0:0:
88,232,38137,6,0,P|96:128|288:132,1,340,6|8,0:0|0:0,0:0:0:0:
176,152,38809,1,0,0:0:0:0:
388,228,39032,6,0,P|400:152|336:92,1,170,2|0,0:0|0:0,0:0:0:0:
124,224,39480,2,0,P|64:168|104:104,1,170,12|0,0:0|0:0,0:0:0:0:
320,92,39928,5,6,0:0:0:0:
208,92,40152,1,0,0:0:0:0:
420,208,40376,2,0,P|480:128|452:76,1,170,12|0,0:0|0:0,0:0:0:0:
76,88,40824,5,6,0:0:0:0:
268,112,41159,1,6,0:0:0:0:
76,160,41495,1,12,0:0:0:0:
408,232,41719,6,0,P|452:172|416:92,1,170,6|0,0:0|0:0,0:0:0:0:
204,96,42167,1,8,0:0:0:0:
316,96,42391,1,0,0:0:0:0:
104,232,42615,6,0,P|60:172|96:92,1,170,2|0,0:0|0:0,0:0:0:0:
308,96,43062,1,8,0:0:0:0:
196,96,43286,1,0,0:0:0:0:
408,224,43510,6,0,P|456:160|416:88,1,170,6|0,0:0|0:0,0:0:0:0:
272,88,43958,1,8,0:0:0:0:
416,52,44182,1,0,0:0:0:0:
76,192,44406,5,14,0:0:0:0:
268,228,44741,1,14,0:0:0:0:
76,272,45077,1,12,0:0:0:0:
368,248,45301,6,0,P|428:192|396:120,1,170,6|0,0:0|0:0,0:0:0:0:
344,96,45637,1,0,0:0:0:0:
228,240,45749,2,0,P|160:188|152:108,1,170,8|0,0:0|0:0,0:0:0:0:
328,64,46197,5,2,0:0:0:0:
184,64,46421,1,2,0:0:0:0:
352,108,46644,1,8,3:2:0:0:
160,108,46868,1,8,3:2:0:0:
476,204,47092,5,4,3:0:0:0:
284,204,47428,1,4,3:0:0:0:
476,276,47764,1,4,3:0:0:0:
136,260,47988,2,0,P|120:184|180:124,1,170,6|0,0:0|0:0,0:0:0:0:
384,184,48435,1,8,3:0:0:0:
448,152,48547,1,0,3:0:0:0:
412,96,48659,1,8,0:0:0:0:
104,212,48883,5,6,0:0:0:0:
216,216,49107,1,8,0:0:0:0:
104,276,49331,1,2,0:0:0:0:
144,152,49555,1,8,0:0:0:0:
348,244,49667,6,0,P|424:156|356:56,1,255,2|8,0:0|0:0,0:0:0:0:
240,56,50227,1,2,0:0:0:0:
352,132,50450,1,8,0:0:0:0:
140,224,50674,6,0,P|148:132|272:40,1,255,2|2,0:0|0:0,0:0:0:0:
40,116,51346,1,10,0:0:0:0:
36,192,51570,5,2,0:0:0:0:
76,248,51794,1,8,0:0:0:0:
188,176,52018,1,2,0:0:0:0:
76,136,52241,1,8,0:0:0:0:
408,212,52465,5,2,0:0:0:0:
296,216,52689,1,8,0:0:0:0:
408,276,52913,1,2,0:0:0:0:
368,152,53137,1,8,0:0:0:0:
160,240,53249,6,0,P|84:152|152:52,1,255,2|8,0:0|0:0,0:0:0:0:
296,64,53809,1,2,0:0:0:0:
152,128,54032,1,8,0:0:0:0:
444,232,54256,6,0,P|460:164|392:104,1,170,2|8,0:0|0:0,0:0:0:0:
276,92,54704,1,2,0:0:0:0:
388,64,54928,1,8,0:0:0:0:
176,232,55152,5,2,0:0:0:0:
64,180,55376,1,8,0:0:0:0:
208,152,55600,1,2,0:0:0:0:
64,116,55824,1,8,0:0:0:0:
368,240,56047,6,0,P|404:184|344:116,1,170,6|8,0:0|0:0,0:0:0:0:
132,236,56495,2,0,P|84:176|120:100,1,170,2|8,0:0|0:0,0:0:0:0:
336,232,56943,5,2,0:0:0:0:
448,180,57167,1,8,0:0:0:0:
304,152,57391,1,2,0:0:0:0:
448,116,57615,1,8,0:0:0:0:
123,227,57838,6,0,P|91:175|159:111,1,170,6|8,0:0|0:0,0:0:0:0:
372,224,58286,2,0,P|432:168|408:92,1,170,2|8,0:0|0:0,0:0:0:0:
200,96,58734,5,2,0:0:0:0:
312,96,58958,1,8,0:0:0:0:
168,176,59182,1,2,0:0:0:0:
344,176,59406,1,8,0:0:0:0:
60,236,59629,6,0,P|36:168|92:96,1,170,6|8,0:0|0:0,0:0:0:0:
304,228,60077,1,6,0:0:0:0:
360,200,60189,1,0,0:0:0:0:
312,148,60301,1,8,0:0:0:0:
104,268,60525,1,6,0:0:0:0:
64,216,60637,1,0,0:0:0:0:
112,168,60749,1,8,0:0:0:0:
324,240,60973,1,6,0:0:0:0:
392,192,61085,1,0,0:0:0:0:
356,120,61197,1,8,0:0:0:0:
36,140,61421,5,6,0:0:0:0:
228,156,61756,1,12,0:0:0:0:
36,224,62092,1,12,0:0:0:0:
324,192,62316,5,2,3:2:0:0:
284,132,62540,1,8,3:2:0:0:
168,72,62764,1,2,3:2:0:0:
80,144,62988,1,8,3:2:0:0:
408,212,63212,5,6,0:0:0:0:
296,216,63436,1,8,0:0:0:0:
408,276,63660,1,2,0:0:0:0:
368,152,63884,1,8,0:0:0:0:
164,244,63995,6,0,P|88:156|156:56,1,255,2|8,0:0|0:0,0:0:0:0:
272,56,64555,1,2,0:0:0:0:
160,132,64778,1,8,0:0:0:0:
372,224,65002,6,0,P|364:132|240:40,1,255,2|2,0:0|0:0,0:0:0:0:
472,116,65674,1,10,0:0:0:0:
476,192,65898,5,2,0:0:0:0:
436,248,66122,1,8,0:0:0:0:
324,176,66346,1,2,0:0:0:0:
436,136,66569,1,8,0:0:0:0:
104,212,66793,5,2,0:0:0:0:
216,216,67017,1,8,0:0:0:0:
104,276,67241,1,2,0:0:0:0:
144,152,67465,1,8,0:0:0:0:
352,240,67577,6,0,P|428:152|360:52,1,255,2|8,0:0|0:0,0:0:0:0:
216,64,68137,1,2,0:0:0:0:
360,128,68360,1,8,0:0:0:0:
68,232,68585,6,0,P|52:164|120:104,1,170,2|8,0:0|0:0,0:0:0:0:
236,92,69032,1,2,0:0:0:0:
124,64,69256,1,8,0:0:0:0:
336,232,69480,5,2,0:0:0:0:
448,180,69704,1,8,0:0:0:0:
304,152,69928,1,2,0:0:0:0:
448,116,70152,1,8,0:0:0:0:
140,244,70376,6,0,P|104:180|160:116,1,170,6|8,0:0|0:0,0:0:0:0:
376,244,70824,2,0,P|440:184|412:116,1,170,2|8,0:0|0:0,0:0:0:0:
200,96,71271,5,2,0:0:0:0:
312,96,71495,1,8,0:0:0:0:
168,176,71719,1,2,0:0:0:0:
344,176,71943,1,8,0:0:0:0:
56,260,72167,6,0,P|32:184|92:128,1,170,6|8,0:0|0:0,0:0:0:0:
304,260,72615,2,0,P|360:196|356:116,1,170,6|8,0:0|0:0,0:0:0:0:
144,248,73062,2,0,P|112:176|156:104,1,170,6|8,0:0|0:0,0:0:0:0:
368,248,73510,1,6,0:0:0:0:
432,200,73622,1,0,0:0:0:0:
416,120,73734,1,8,0:0:0:0:
124,232,73958,6,0,P|100:172|164:100,1,170,6|8,0:0|0:0,0:0:0:0:
276,124,74406,1,2,0:0:0:0:
164,180,74629,1,8,0:0:0:0:
376,148,74853,5,6,0:0:0:0:
248,164,75077,1,8,0:0:0:0:
376,216,75301,1,2,0:0:0:0:
440,176,75413,1,0,0:0:0:0:
400,104,75525,1,8,0:0:0:0:
112,216,75749,6,0,P|96:148|160:80,1,170,6|8,0:0|0:0,0:0:0:0:
372,204,76197,1,2,0:0:0:0:
436,164,76309,1,0,0:0:0:0:
400,104,76421,1,8,0:0:0:0:
116,248,76644,5,2,3:2:0:0:
92,184,76756,1,0,3:2:0:0:
136,128,76868,1,8,3:2:0:0:
200,108,76980,1,0,3:2:0:0:
316,216,77092,1,2,3:2:0:0:
380,200,77204,1,0,3:2:0:0:
380,136,77316,1,8,3:2:0:0:
316,104,77428,1,0,3:2:0:0:
128,248,77540,6,0,P|64:188|96:124,1,170,6|0,0:0|0:0,0:0:0:0:
152,100,77876,1,0,0:0:0:0:
264,240,77988,2,0,P|324:200|360:112,1,170,8|0,0:0|0:0,0:0:0:0:
148,208,78435,6,0,P|140:148|216:80,1,170,2|0,0:0|0:0,0:0:0:0:
272,80,78771,1,0,0:0:0:0:
388,240,78883,2,0,P|432:184|404:96,1,170,12|0,0:0|0:0,0:0:0:0:
116,260,79331,6,0,P|56:208|84:132,1,170,6|0,0:0|0:0,0:0:0:0:
132,108,79667,1,0,0:0:0:0:
248,244,79779,2,0,P|324:216|352:136,1,170,8|0,0:0|0:0,0:0:0:0:
136,176,80227,5,2,0:0:0:0:
176,116,80450,1,0,0:0:0:0:
388,88,80674,1,8,0:0:0:0:
388,152,80898,1,0,0:0:0:0:
100,328,81122,6,0,P|36:180|140:56,1,340,6|0,0:0|0:0,0:0:0:0:
424,348,82018,2,0,P|476:196|404:40,1,340,6|0,0:0|0:0,0:0:0:0:
100,200,82913,1,6,0:0:0:0:
388,200,83361,1,8,0:0:0:0:
100,200,83809,1,2,0:0:0:0:
212,204,84032,1,2,0:0:0:0:
100,224,84256,2,0,P|64:160|116:88,1,170,8|0,0:0|0:0,0:0:0:0:
456,184,84704,5,6,0:2:0:0:
264,148,85040,1,14,0:2:0:0:
456,128,85376,1,12,0:2:0:0:
116,360,85600,6,0,P|40:216|104:60,1,340,6|0,0:2|0:0,0:0:0:0:
