osu file format v14

[General]
AudioFilename: audio.mp3
AudioLeadIn: 0
PreviewTime: 47303
Countdown: 0
SampleSet: Soft
StackLeniency: 0.7
Mode: 2
LetterboxInBreaks: 0
WidescreenStoryboard: 1

[Editor]
Bookmarks: 38347
DistanceSpacing: 6
BeatDivisor: 4
GridSize: 16
TimelineZoom: 3

[Metadata]
Title:adrenaline!!! -TV Ver-
TitleUnicode:adrenaline!!! -TV Ver-
Artist:TrySail
ArtistUnicode:TrySail
Creator:Aryssiel
Version:Nico's Overdose
Source:
Tags:
BeatmapID:1355765
BeatmapSetID:639090

[Difficulty]
HPDrainRate:5
CircleSize:4
OverallDifficulty:9.6
ApproachRate:9.6
SliderMultiplier:1.8
SliderTickRate:1

[Events]
//Background and Video events
0,0,"eromanga-sensei-izumi-sagiri-wink-kimono.jpg",0,0
//Break Periods
//Storyboard Layer 0 (Background)
//Storyboard Layer 1 (Fail)
//Storyboard Layer 2 (Pass)
//Storyboard Layer 3 (Foreground)
//Storyboard Sound Samples

[TimingPoints]
288,223.880597014925,4,2,1,40,1,0
288,-100,4,2,1,40,0,0
455,-100,4,2,1,65,0,0
736,223.880597014925,4,2,2,50,1,0
736,-100,4,2,2,50,0,0
5213,-100,4,2,2,55,0,0
5437,-100,4,2,2,60,0,0
5661,-100,4,2,2,65,0,0
5885,-100,4,2,2,70,0,0
6109,-100,4,2,1,75,0,0
6333,-100,4,2,1,5,0,0
6444,-100,4,2,1,75,0,0
6668,-100,4,2,1,5,0,0
6780,-100,4,2,1,75,0,0
6892,-100,4,2,1,5,0,0
7004,-100,4,2,1,75,0,0
7396,-100,4,2,1,5,0,0
7452,-100,4,2,1,75,0,0
7788,-100,4,2,1,5,0,0
7900,-100,4,2,1,75,0,0
8068,-100,4,2,1,5,0,0
8124,-100,4,2,1,75,0,0
11650,-100,4,2,1,5,0,0
11706,-100,4,2,1,75,0,0
14224,-100,4,2,1,5,0,0
14280,-100,4,2,1,75,0,0
15176,-100,4,2,1,55,0,0
16855,-100,4,2,1,65,0,0
17247,-100,4,2,1,5,0,0
17303,-100,4,2,1,65,0,0
18814,-100,4,2,1,5,0,0
18870,-100,4,2,1,65,0,0
19989,-100,4,2,1,65,0,0
20157,-100,4,2,1,5,0,0
20213,-100,4,2,1,65,0,0
21053,-100,4,2,1,5,0,0
21109,-100,4,2,1,65,0,0
22564,-100,4,2,1,65,0,0
23012,-100,4,2,1,65,0,0
23459,-100,4,2,1,65,0,0
24243,-100,4,2,1,65,0,0
24579,-100,4,2,1,65,0,0
25978,-100,4,2,1,5,0,0
26034,-100,4,2,1,65,0,0
37956,-100,4,2,1,5,0,0
38012,-100,4,2,1,65,0,0
38795,-100,4,2,1,65,0,0
38963,-100,4,2,1,5,0,0
39019,-100,4,2,1,65,0,0
39691,-100,4,2,1,65,0,0
39859,-100,4,2,1,5,0,0
39915,-100,4,2,1,65,0,0
40586,-100,4,2,1,65,0,0
41258,-100,4,2,1,5,0,0
41370,-100,4,2,1,65,0,0
41594,-100,4,2,1,5,0,0
41706,-100,4,2,1,65,0,0
41818,-100,4,2,1,5,0,0
41930,-100,4,2,1,65,0,0
42321,-100,4,2,1,5,0,0
42377,-100,4,2,1,65,0,0
42825,-100,4,2,1,65,0,0
45512,-100,4,2,1,50,0,0
46407,-100,4,2,1,60,0,0
46631,-100,4,2,1,65,0,0
46855,-100,4,2,1,70,0,0
47079,-100,4,2,1,75,0,0
47303,-100,4,2,1,78,0,0
47527,-100,4,2,1,5,0,0
47638,-100,4,2,1,78,0,0
47862,-100,4,2,1,5,0,0
47974,-100,4,2,1,78,0,0
48086,-100,4,2,1,5,0,0
48198,-100,4,2,1,78,0,0
48366,-100,4,2,1,5,0,0
48422,-100,4,2,1,78,0,0
48870,-100,4,2,1,78,0,0
48982,-100,4,2,1,5,0,0
49094,-100,4,2,1,83,0,1
49261,-100,4,2,1,5,0,1
49318,-100,4,2,1,83,0,1
49709,-100,4,2,1,5,0,1
49765,-100,4,2,1,83,0,1
51948,-100,4,2,1,5,0,1
52004,-100,4,2,1,83,0,1
53291,-100,4,2,1,5,0,1
53347,-100,4,2,1,83,0,1
55530,-100,4,2,1,5,0,1
55586,-100,4,2,1,83,0,1
56258,-100,4,2,1,83,0,1
56426,-100,4,2,1,5,0,1
56482,-100,4,2,1,83,0,1
56705,-100,4,2,1,83,0,1
57153,-100,4,2,1,83,0,1
58049,-100,4,2,1,83,0,1
58217,-100,4,2,1,5,0,1
58273,-100,4,2,1,83,0,1
58497,-100,4,2,1,83,0,1
58944,-100,4,2,1,83,0,1
60288,-100,4,2,1,83,0,1
60735,-100,4,2,1,83,0,1
61183,-100,4,2,1,83,0,1
61631,-100,4,2,1,83,0,1
61967,-100,4,2,1,83,0,1
63198,-100,4,2,1,83,0,1
63310,-100,4,2,1,5,0,1
63422,-100,4,2,1,83,0,1
63590,-100,4,2,1,5,0,1
63646,-100,4,2,1,83,0,1
64038,-100,4,2,1,5,0,1
64094,-100,4,2,1,83,0,1
67172,-100,4,2,1,5,0,1
67228,-100,4,2,1,83,0,1
69859,-100,4,2,1,5,0,1
69915,-100,4,2,1,83,0,1
70586,-100,4,2,1,83,0,1
70754,-100,4,2,1,5,0,1
70810,-100,4,2,1,83,0,1
71034,-100,4,2,1,83,0,1
71482,-100,4,2,1,83,0,1
72377,-100,4,2,1,83,0,1
72825,-100,4,2,1,83,0,1
73273,-100,4,2,1,83,0,1
73720,-100,4,2,1,83,0,1
74168,-100,4,2,1,83,0,1
74728,-100,4,2,1,83,0,1
80157,-100,4,2,1,5,0,1
80213,-100,4,2,1,83,0,1
80437,-100,4,2,1,83,0,1
80605,-100,4,2,1,5,0,1
80661,-100,4,2,1,83,0,1
80885,-100,4,2,1,83,0,1
81108,-100,4,2,1,83,0,1
81332,-100,4,2,1,83,0,1
82228,-100,4,2,1,83,0,1
83124,-100,4,2,1,83,0,1
84914,-100,4,2,1,83,0,1
85138,-100,4,2,1,5,0,1
85250,-100,4,2,1,83,0,1
85474,-100,4,2,1,5,0,1
85586,-100,4,2,1,83,0,1
85698,-100,4,2,1,5,0,1
85810,-100,4,2,1,83,0,0
86258,-100,4,2,1,5,0,0

[Colours]
Combo1 : 255,255,255
Combo2 : 255,255,255

[HitObjects]
256,240,399,5,0,0:0:0:0:
64,240,511,1,0,0:0:0:0:
160,208,736,6,0,L|16:64,1,180
336,176,1183,2,0,L|512:80,1,180
304,320,1631,2,0,L|448:208,1,180
160,304,2079,2,0,L|32:176,1,180
224,208,2415,5,0,0:0:0:0:
224,176,2471,1,0,0:0:0:0:
224,128,2527,2,0,L|416:128,1,180
80,272,2974,1,0,0:0:0:0:
368,272,3198,1,0,0:0:0:0:
16,160,3422,1,0,0:0:0:0:
432,176,3646,1,0,0:0:0:0:
80,256,3870,1,0,0:0:0:0:
416,272,4094,1,0,0:0:0:0:
80,224,4318,5,0,0:0:0:0:
32,192,4430,1,0,0:0:0:0:
48,128,4541,1,0,0:0:0:0:
336,272,4765,5,0,0:0:0:0:
400,272,4877,1,0,0:0:0:0:
448,224,4989,1,0,0:0:0:0:
384,192,5101,1,0,0:0:0:0:
288,192,5213,1,0,0:0:0:0:
192,192,5325,1,0,0:0:0:0:
400,304,5437,2,0,L|432:192,1,90
96,304,5661,2,0,L|96:208,1,90
384,256,5885,2,0,L|400:160,1,90
64,176,6109,5,0,0:0:0:0:
464,176,6444,1,0,0:0:0:0:
32,112,6780,1,0,0:0:0:0:
320,128,7004,1,0,0:0:0:0:
176,304,7452,6,0,P|32:224|160:144,1,360
480,160,8124,1,0,0:0:0:0:
368,192,8347,6,0,L|272:192,2,90
224,112,8683,1,0,0:0:0:0:
112,112,8795,1,0,0:0:0:0:
208,208,8907,1,0,0:0:0:0:
336,224,9019,1,0,0:0:0:0:
208,304,9131,1,0,0:0:0:0:
448,144,9243,6,0,L|480:48,1,90
112,192,9467,2,0,L|64:96,1,90
384,272,9691,2,0,L|416:176,1,90
16,144,9915,2,0,L|0:48,1,90
320,144,10138,6,0,L|416:144,2,90
208,144,10474,1,0,0:0:0:0:
112,144,10586,1,0,0:0:0:0:
144,256,10698,1,0,0:0:0:0:
240,256,10810,1,0,0:0:0:0:
336,256,10922,1,0,0:0:0:0:
432,256,11034,1,0,0:0:0:0:
64,192,11258,1,0,0:0:0:0:
384,320,11482,1,0,0:0:0:0:
192,304,11706,1,0,0:0:0:0:
384,224,11930,6,0,L|480:224,2,90
272,192,12265,1,0,0:0:0:0:
160,192,12377,1,0,0:0:0:0:
48,192,12489,1,0,0:0:0:0:
160,112,12601,1,0,0:0:0:0:
48,112,12713,1,0,0:0:0:0:
416,160,12825,6,0,L|480:96,1,90
304,112,13049,2,0,L|240:32,1,90
448,320,13273,2,0,L|480:208,1,90
96,288,13497,2,0,L|48:176,1,90
384,224,13721,6,0,L|480:224,2,90
272,224,14056,1,0,0:0:0:0:
368,144,14168,1,0,0:0:0:0:
480,96,14280,1,0,0:0:0:0:
272,96,14392,1,0,0:0:0:0:
448,64,14504,1,0,0:0:0:0:
240,64,14616,1,0,0:0:0:0:
416,32,14728,1,0,0:0:0:0:
208,32,14840,1,0,0:0:0:0:
48,288,15064,6,0,L|256:288,1,180
320,288,15400,1,0,0:0:0:0:
416,288,15512,1,0,0:0:0:0:
352,208,15624,1,0,0:0:0:0:
32,176,15847,1,0,0:0:0:0:
432,128,16071,1,0,0:0:0:0:
144,176,16295,1,0,0:0:0:0:
32,112,16407,2,0,L|224:96,1,180
496,192,16855,1,0,0:0:0:0:
192,288,17079,5,0,0:0:0:0:
336,288,17191,1,0,0:0:0:0:
176,224,17303,1,0,0:0:0:0:
320,224,17415,1,0,0:0:0:0:
64,160,17527,1,0,0:0:0:0:
384,208,17638,2,0,B|480:176|480:176|480:144|464:128|464:128|336:128,1,270
272,128,18086,1,0,0:0:0:0:
160,128,18198,1,0,0:0:0:0:
272,208,18310,1,0,0:0:0:0:
160,208,18422,1,0,0:0:0:0:
80,272,18534,1,0,0:0:0:0:
448,256,18646,6,0,L|480:128,1,90
64,256,18870,2,0,L|32:160,1,90
432,160,19094,2,0,L|384:80,1,90
96,192,19318,2,0,L|32:112,2,90
320,224,19653,1,0,0:0:0:0:
448,256,19765,2,0,L|480:128,1,90
160,240,19989,2,0,B|64:208|64:128|112:96,1,180
464,240,20437,1,0,0:0:0:0:
176,224,20661,6,0,L|64:224,1,90
320,160,20885,2,0,L|224:160,1,90
464,112,21109,2,0,L|352:112,1,90
128,128,21333,5,0,0:0:0:0:
32,128,21444,1,0,0:0:0:0:
112,64,21556,1,0,0:0:0:0:
240,64,21668,1,0,0:0:0:0:
368,64,21780,1,0,0:0:0:0:
144,192,21892,1,0,0:0:0:0:
336,192,22004,1,0,0:0:0:0:
160,272,22116,1,0,0:0:0:0:
64,256,22228,2,0,L|16:80,1,180
288,320,22676,6,0,L|448:224,1,180
128,272,23012,1,0,0:0:0:0:
224,160,23124,2,0,L|32:144,1,180
384,208,23459,1,0,0:0:0:0:
288,112,23571,2,0,L|480:96,1,180
48,112,24019,1,0,0:0:0:0:
368,176,24243,5,0,0:0:0:0:
480,176,24355,1,0,0:0:0:0:
352,112,24467,1,0,0:0:0:0:
464,112,24579,1,0,0:0:0:0:
336,48,24691,1,0,0:0:0:0:
240,48,24803,1,0,0:0:0:0:
32,256,24915,2,0,P|32:176|128:144,1,180
480,256,25362,2,0,P|480:176|384:144,1,180
112,160,25810,5,0,0:0:0:0:
16,144,25922,1,0,0:0:0:0:
32,64,26034,1,0,0:0:0:0:
128,64,26146,1,0,0:0:0:0:
448,80,26258,1,0,0:0:0:0:
368,80,26370,1,0,0:0:0:0:
80,272,26482,1,0,0:0:0:0:
160,272,26594,1,0,0:0:0:0:
480,176,26706,1,0,0:0:0:0:
400,176,26818,1,0,0:0:0:0:
48,144,26930,1,0,0:0:0:0:
336,288,27041,2,0,L|448:256,1,90
64,192,27377,1,0,0:0:0:0:
352,336,27601,6,0,B|480:272|496:128|448:64|352:48,1,360
32,112,28273,1,0,0:0:0:0:
336,320,28497,2,0,L|432:144,1,180
272,304,28944,1,0,0:0:0:0:
448,256,29056,1,0,0:0:0:0:
128,128,29280,1,0,0:0:0:0:
336,144,29616,5,0,0:0:0:0:
128,64,29840,1,0,0:0:0:0:
400,64,29952,1,0,0:0:0:0:
96,224,30176,1,0,0:0:0:0:
320,272,30400,5,0,0:0:0:0:
192,272,30512,1,0,0:0:0:0:
320,336,30624,1,0,0:0:0:0:
192,192,30735,1,0,0:0:0:0:
96,176,30847,1,0,0:0:0:0:
0,176,30959,1,0,0:0:0:0:
400,288,31183,6,0,L|432:80,1,180
96,256,31631,2,0,L|304:256,1,180
112,176,32079,5,0,0:0:0:0:
256,176,32303,1,0,0:0:0:0:
400,176,32527,1,0,0:0:0:0:
64,144,32750,1,0,0:0:0:0:
400,288,32974,2,0,L|400:96,1,180
64,128,33422,1,0,0:0:0:0:
384,256,33646,6,0,L|464:64,1,180
128,288,34094,2,0,L|32:128,1,180
352,224,34541,1,0,0:0:0:0:
224,144,34765,6,0,L|432:144,1,180
96,288,35213,2,0,L|288:288,1,180
448,224,35661,5,0,0:0:0:0:
352,208,35885,1,0,0:0:0:0:
48,192,36109,1,0,0:0:0:0:
240,176,36333,1,0,0:0:0:0:
416,160,36556,2,0,L|48:96,1,360
256,272,37228,1,0,0:0:0:0:
368,272,37452,5,0,0:0:0:0:
64,160,37564,1,0,0:0:0:0:
128,160,37676,1,0,0:0:0:0:
192,160,37788,1,0,0:0:0:0:
272,192,37900,2,0,L|416:64,1,180
448,256,38347,1,0,0:0:0:0:
128,192,38571,5,0,0:0:0:0:
80,192,38683,1,0,0:0:0:0:
32,192,38795,1,0,0:0:0:0:
416,144,39019,1,0,0:0:0:0:
352,144,39131,1,0,0:0:0:0:
288,144,39243,1,0,0:0:0:0:
432,80,39467,1,0,0:0:0:0:
64,80,39691,1,0,0:0:0:0:
176,224,39915,5,0,0:0:0:0:
480,208,40138,2,0,L|304:80,1,180
32,160,40586,1,0,0:0:0:0:
256,288,41034,5,0,0:0:0:0:
448,288,41370,1,0,0:0:0:0:
48,224,41706,1,0,0:0:0:0:
336,192,41930,1,0,0:0:0:0:
144,224,42377,1,0,0:0:0:0:
416,240,42825,1,0,0:0:0:0:
256,256,43273,1,0,0:0:0:0:
96,256,43721,1,0,0:0:0:0:
336,256,44168,5,0,0:0:0:0:
48,256,44392,1,0,0:0:0:0:
464,256,44616,1,0,0:0:0:0:
64,224,44952,1,0,0:0:0:0:
272,208,45288,1,0,0:0:0:0:
64,128,45512,5,0,0:0:0:0:
144,128,45624,1,0,0:0:0:0:
224,128,45736,1,0,0:0:0:0:
160,48,45848,1,0,0:0:0:0:
448,160,45959,5,0,0:0:0:0:
368,160,46071,1,0,0:0:0:0:
288,160,46183,1,0,0:0:0:0:
352,80,46295,1,0,0:0:0:0:
64,288,46407,5,0,0:0:0:0:
144,288,46519,1,0,0:0:0:0:
224,288,46631,1,0,0:0:0:0:
160,208,46743,1,0,0:0:0:0:
448,288,46855,5,0,0:0:0:0:
368,288,46967,1,0,0:0:0:0:
288,288,47079,1,0,0:0:0:0:
352,208,47191,1,0,0:0:0:0:
176,336,47303,6,0,L|80:176,1,180
416,192,47638,2,0,L|288:48,1,180
16,192,47974,1,0,0:0:0:0:
352,256,48198,1,0,0:0:0:0:
160,320,48422,6,0,L|80:224,1,90
336,272,48646,2,0,L|480:144,1,180
48,160,49094,6,0,L|160:160,1,90
400,160,49318,2,0,L|288:160,1,90
48,96,49541,2,0,L|144:96,1,90
400,96,49765,5,0,0:0:0:0:
192,96,49877,1,0,0:0:0:0:
400,32,49989,1,0,0:0:0:0:
192,32,50101,1,0,0:0:0:0:
96,48,50213,1,0,0:0:0:0:
160,176,50325,1,0,0:0:0:0:
384,144,50437,6,0,L|432:64,1,90
112,240,50661,2,0,L|48:144,1,90
384,256,50885,2,0,L|480:96,1,180
272,160,51221,2,0,L|464:96,1,180
96,192,51556,2,0,L|-16:48,1,180
432,224,52004,5,0,0:0:0:0:
96,192,52228,1,0,0:0:0:0:
432,160,52452,1,0,0:0:0:0:
80,304,52676,5,0,0:0:0:0:
176,304,52788,1,0,0:0:0:0:
272,304,52900,1,0,0:0:0:0:
208,208,53012,1,0,0:0:0:0:
400,272,53124,6,0,L|480:208,1,90
112,224,53347,2,0,L|48:160,1,90
384,192,53571,2,0,L|464:128,1,90
272,96,53795,1,0,0:0:0:0:
464,96,53907,1,0,0:0:0:0:
48,240,54019,6,0,L|32:80,1,135
464,256,54243,2,0,L|480:96,1,135
48,96,54467,2,0,P|158:211|32:336,1,360
352,176,55138,5,0,0:0:0:0:
208,144,55362,2,0,L|16:144,1,180
352,64,55810,1,0,0:0:0:0:
32,64,56034,2,0,L|224:64,1,180
496,64,56482,1,0,0:0:0:0:
208,288,56706,6,0,L|0:288,1,180
352,288,57153,1,0,0:0:0:0:
64,208,57377,1,0,0:0:0:0:
432,208,57601,1,0,0:0:0:0:
128,144,57825,1,0,0:0:0:0:
496,144,58049,1,0,0:0:0:0:
208,144,58273,2,0,L|16:144,1,180
176,112,58721,5,0,0:0:0:0:
320,96,58833,1,0,0:0:0:0:
176,32,58944,1,0,0:0:0:0:
272,240,59056,1,0,0:0:0:0:
176,240,59168,1,0,0:0:0:0:
80,240,59280,1,0,0:0:0:0:
368,224,59392,6,0,L|448:144,1,90
96,192,59616,2,0,L|64:80,1,90
304,304,59840,2,0,L|448:160,1,180
128,240,60176,1,0,0:0:0:0:
432,256,60288,6,0,L|384:64,1,180
208,240,60624,1,0,0:0:0:0:
432,272,60735,6,0,L|336:112,1,180
48,176,61071,1,0,0:0:0:0:
224,272,61183,6,0,L|128:96,1,180
336,192,61519,1,0,0:0:0:0:
64,288,61631,6,0,L|160:112,1,180
368,288,61967,2,0,L|272:128,1,180
480,288,62303,2,0,L|336:176,1,180
240,240,62750,5,0,0:0:0:0:
64,240,62862,1,0,0:0:0:0:
256,176,62974,1,0,0:0:0:0:
80,176,63086,1,0,0:0:0:0:
272,144,63198,1,0,0:0:0:0:
368,80,63310,1,0,0:0:0:0:
144,272,63422,6,0,L|48:272,1,90
336,288,63646,2,0,L|432:288,1,90
240,176,63870,2,0,L|144:176,1,90
400,176,64094,2,0,L|512:176,1,90
160,256,64318,2,0,L|48:112,1,180
336,160,64765,5,0,0:0:0:0:
32,160,64989,1,0,0:0:0:0:
448,240,65213,6,0,L|358:240,1,90
48,224,65437,2,0,L|160:224,1,90
384,160,65661,2,0,L|480:160,1,90
128,160,65885,2,0,L|32:160,1,90
368,96,66109,1,0,0:0:0:0:
48,112,66333,5,0,0:0:0:0:
336,160,66556,1,0,0:0:0:0:
32,192,66780,1,0,0:0:0:0:
320,288,67004,5,0,0:0:0:0:
448,288,67116,1,0,0:0:0:0:
320,224,67228,1,0,0:0:0:0:
448,224,67340,1,0,0:0:0:0:
128,128,67452,6,0,L|32:128,1,90
400,128,67676,2,0,L|496:128,1,90
416,48,67900,5,0,0:0:0:0:
336,64,68012,1,0,0:0:0:0:
96,80,68124,1,0,0:0:0:0:
32,80,68235,1,0,0:0:0:0:
400,192,68347,1,0,0:0:0:0:
112,256,68571,1,0,0:0:0:0:
464,256,68795,1,0,0:0:0:0:
224,256,69243,1,0,0:0:0:0:
384,240,69467,5,0,0:0:0:0:
112,240,69579,1,0,0:0:0:0:
352,192,69691,1,0,0:0:0:0:
160,192,69803,1,0,0:0:0:0:
384,160,69915,1,0,0:0:0:0:
96,160,70027,1,0,0:0:0:0:
400,304,70138,2,0,L|480:128,1,180
96,320,70586,2,0,P|61:166|240:64,1,360
496,256,71258,5,0,0:0:0:0:
192,272,71482,2,0,L|-16:272,1,180
320,192,71930,2,0,L|512:192,1,180
80,144,72377,1,0,0:0:0:0:
432,144,72825,1,0,0:0:0:0:
80,80,73273,1,0,0:0:0:0:
432,80,73721,1,0,0:0:0:0:
64,288,74168,1,0,0:0:0:0:
256,48,74392,5,0,0:0:0:0:
352,48,74504,1,0,0:0:0:0:
352,144,74616,1,0,0:0:0:0:
288,224,74728,1,0,0:0:0:0:
384,224,74840,1,0,0:0:0:0:
464,224,74952,1,0,0:0:0:0:
128,224,75064,5,0,0:0:0:0:
48,224,75176,1,0,0:0:0:0:
160,160,75288,1,0,0:0:0:0:
80,160,75400,1,0,0:0:0:0:
192,96,75512,1,0,0:0:0:0:
96,96,75624,1,0,0:0:0:0:
384,96,75735,5,0,0:0:0:0:
480,96,75847,1,0,0:0:0:0:
96,96,75959,1,0,0:0:0:0:
32,96,76071,1,0,0:0:0:0:
224,256,76183,1,0,0:0:0:0:
288,256,76295,1,0,0:0:0:0:
96,320,76407,1,0,0:0:0:0:
32,320,76519,1,0,0:0:0:0:
384,304,76631,1,0,0:0:0:0:
448,304,76743,1,0,0:0:0:0:
144,192,76855,1,0,0:0:0:0:
464,160,77079,5,0,0:0:0:0:
48,128,77303,1,0,0:0:0:0:
464,96,77527,1,0,0:0:0:0:
48,64,77750,6,0,L|256:64,1,180
64,176,78198,1,0,0:0:0:0:
400,176,78422,1,0,0:0:0:0:
64,256,78646,1,0,0:0:0:0:
192,256,78870,1,0,0:0:0:0:
64,336,79094,1,0,0:0:0:0:
400,320,79318,1,0,0:0:0:0:
64,320,79541,2,0,L|400:96,1,360
160,160,80213,6,0,L|64:160,1,90
384,176,80437,2,0,L|496:176,1,90
128,272,80661,2,0,L|32:272,1,90
144,208,80885,1,0,0:0:0:0:
240,208,80997,1,0,0:0:0:0:
336,208,81109,1,0,0:0:0:0:
48,160,81333,5,0,0:0:0:0:
464,160,81780,1,0,0:0:0:0:
48,192,82228,1,0,0:0:0:0:
464,288,82676,1,0,0:0:0:0:
288,320,83124,6,0,B|112:256|97:200|97:200|463:100|463:100|448:240,1,720
240,304,84131,1,0,0:0:0:0:
112,304,84243,1,0,0:0:0:0:
240,240,84355,1,0,0:0:0:0:
112,240,84467,1,0,0:0:0:0:
448,96,84691,5,0,0:0:0:0:
336,272,84915,2,0,L|480:160,1,180
176,272,85250,2,0,L|32:160,1,180
448,160,85586,1,0,0:0:0:0:
144,128,85810,1,0,0:0:0:0:
