osu file format v14

[General]
AudioFilename: audio.mp3
AudioLeadIn: 0
PreviewTime: 47303
Countdown: 0
SampleSet: None
StackLeniency: 0.7
Mode: 1
LetterboxInBreaks: 0
WidescreenStoryboard: 1

[Editor]
DistanceSpacing: 1.1
BeatDivisor: 2
GridSize: 32
TimelineZoom: 3.499999

[Metadata]
Title:adrenaline!!! -TV Ver-
TitleUnicode:adrenaline!!! -TV Ver-
Artist:TrySail
ArtistUnicode:TrySail
Creator:Aryssiel
Version:ManiaK's Oni
Source:
Tags:
BeatmapID:1845415
BeatmapSetID:639090

[Difficulty]
HPDrainRate:6
CircleSize:4.2
OverallDifficulty:7
ApproachRate:7
SliderMultiplier:1.4
SliderTickRate:1

[Events]
//Background and Video events
0,0,"eromanga-sensei-izumi-sagiri-wink-kimono.jpg",0,0
//Break Periods
//Storyboard Layer 0 (Background)
//Storyboard Layer 1 (Fail)
//Storyboard Layer 2 (Pass)
//Storyboard Layer 3 (Foreground)
//Storyboard Sound Samples

[TimingPoints]
736,223.880597014925,4,1,0,80,1,0
736,-166.666666666667,4,1,0,80,0,0
2527,-142.857142857143,4,1,0,80,0,0
4318,-142.857142857143,4,1,0,80,0,0
4430,-139.130434782609,4,1,0,80,0,0
4541,-135.593220338983,4,1,0,80,0,0
4653,-132.231404958678,4,1,0,80,0,0
4765,-129.032258064516,4,1,0,80,0,0
4877,-125.984251968504,4,1,0,80,0,0
4989,-123.076923076923,4,1,0,80,0,0
5101,-120.300751879699,4,1,0,80,0,0
5213,-117.647058823529,4,1,0,80,0,0
5325,-115.107913669065,4,1,0,80,0,0
5437,-112.676056338028,4,1,0,80,0,0
5549,-110.344827586207,4,1,0,80,0,0
5661,-108.108108108108,4,1,0,80,0,0
5773,-105.960264900662,4,1,0,80,0,0
5885,-103.896103896104,4,1,0,80,0,0
5997,-101.910828025478,4,1,0,80,0,0
6109,-100,4,1,0,80,0,0
48534,-98.6932032951687,4,1,0,80,0,0
48646,-97.4200254655946,4,1,0,80,0,0
48758,-96.1793706791418,4,1,0,80,0,0
48870,-94.9698280856172,4,1,0,80,0,0
48982,-93.7904178081742,4,1,0,80,0,0
49094,-92.6399418962285,4,1,0,80,0,1
76295,-93.1657343882179,4,1,0,80,0,1
76407,-93.7459279112564,4,1,0,80,0,1
76519,-94.3334820657901,4,1,0,80,0,1
76631,-94.928357568543,4,1,0,80,0,1
76743,-95.5308746233695,4,1,0,80,0,1
76855,-96.1410889708866,4,1,0,80,0,1
76967,-96.7590554381008,4,1,0,80,0,1
77079,-97.3851123483349,4,1,0,80,0,1
77191,-98.0192274516569,4,1,0,80,0,1
77303,-98.6617519959272,4,1,0,80,0,1
77415,-99.312755730346,4,1,0,80,0,1
77527,-99.9723076707752,4,1,0,80,0,1
77750,-99.9723076707752,4,1,0,80,0,0

[Colours]
Combo1 : 255,255,255
Combo2 : 255,255,255

[HitObjects]
256,192,736,5,2,0:0:0:0:
256,192,959,1,0,0:0:0:0:
256,192,1183,1,0,0:0:0:0:
256,192,1407,1,2,0:0:0:0:
256,192,1631,1,2,0:0:0:0:
256,192,1855,1,0,0:0:0:0:
256,192,2079,1,0,0:0:0:0:
256,192,2303,1,2,0:0:0:0:
256,192,2527,1,6,0:0:0:0:
256,192,2750,1,0,0:0:0:0:
256,192,2974,1,0,0:0:0:0:
256,192,3198,1,2,0:0:0:0:
256,192,3422,1,2,0:0:0:0:
256,192,3646,1,0,0:0:0:0:
256,192,3870,1,0,0:0:0:0:
256,192,4094,1,2,0:0:0:0:
256,192,4318,1,2,0:0:0:0:
256,192,4430,1,2,0:0:0:0:
256,192,4541,1,0,0:0:0:0:
256,192,4653,1,0,0:0:0:0:
256,192,4765,1,2,0:0:0:0:
256,192,4877,1,2,0:0:0:0:
256,192,4989,1,2,0:0:0:0:
256,192,5101,1,0,0:0:0:0:
256,192,5213,1,2,0:0:0:0:
256,192,5325,1,0,0:0:0:0:
256,192,5437,1,0,0:0:0:0:
256,192,5549,1,2,0:0:0:0:
256,192,5661,1,2,0:0:0:0:
256,192,5773,1,2,0:0:0:0:
256,192,5885,1,0,0:0:0:0:
256,192,5997,1,0,0:0:0:0:
256,192,6109,1,6,0:0:0:0:
256,192,6444,1,6,0:0:0:0:
256,192,6780,1,6,0:0:0:0:
256,192,7004,1,6,0:0:0:0:
256,192,7452,1,0,0:0:0:0:
256,192,7564,1,0,0:0:0:0:
256,192,7676,1,2,0:0:0:0:
256,192,7788,1,2,0:0:0:0:
256,192,7900,1,0,0:0:0:0:
256,192,8124,1,2,0:0:0:0:
256,192,8347,1,0,0:0:0:0:
256,192,8459,1,2,0:0:0:0:
256,192,8571,1,2,0:0:0:0:
256,192,8683,1,0,0:0:0:0:
256,192,8795,1,2,0:0:0:0:
256,192,9019,1,2,0:0:0:0:
256,192,9131,1,0,0:0:0:0:
256,192,9243,1,0,0:0:0:0:
256,192,9355,1,2,0:0:0:0:
256,192,9467,1,0,0:0:0:0:
256,192,9579,1,2,0:0:0:0:
256,192,9691,1,2,0:0:0:0:
256,192,9915,1,0,0:0:0:0:
256,192,10138,1,0,0:0:0:0:
256,192,10250,1,2,0:0:0:0:
256,192,10362,1,0,0:0:0:0:
256,192,10474,1,2,0:0:0:0:
256,192,10586,1,0,0:0:0:0:
256,192,10698,1,2,0:0:0:0:
256,192,10810,1,2,0:0:0:0:
256,192,10922,1,0,0:0:0:0:
256,192,11034,1,2,0:0:0:0:
256,192,11146,1,0,0:0:0:0:
256,192,11258,1,0,0:0:0:0:
256,192,11370,1,2,0:0:0:0:
256,192,11482,1,0,0:0:0:0:
256,192,11706,1,2,0:0:0:0:
256,192,11930,1,0,0:0:0:0:
256,192,12041,1,2,0:0:0:0:
256,192,12153,1,0,0:0:0:0:
256,192,12265,1,2,0:0:0:0:
256,192,12377,1,2,0:0:0:0:
256,192,12601,1,0,0:0:0:0:
256,192,12713,1,2,0:0:0:0:
256,192,12825,1,0,0:0:0:0:
256,192,12937,1,0,0:0:0:0:
256,192,13049,1,0,0:0:0:0:
256,192,13161,1,2,0:0:0:0:
256,192,13273,1,2,0:0:0:0:
256,192,13497,1,0,0:0:0:0:
256,192,13721,1,0,0:0:0:0:
256,192,13833,1,2,0:0:0:0:
256,192,13944,1,0,0:0:0:0:
256,192,14056,1,2,0:0:0:0:
256,192,14168,1,2,0:0:0:0:
256,192,14280,1,0,0:0:0:0:
256,192,14392,1,2,0:0:0:0:
256,192,14504,1,0,0:0:0:0:
256,192,14616,1,2,0:0:0:0:
256,192,14728,1,0,0:0:0:0:
256,192,14840,1,0,0:0:0:0:
256,192,14952,1,2,0:0:0:0:
256,192,15064,1,0,0:0:0:0:
256,192,15288,1,0,0:0:0:0:
256,192,15400,1,2,0:0:0:0:
256,192,15512,1,2,0:0:0:0:
256,192,15735,1,0,0:0:0:0:
256,192,15847,1,2,0:0:0:0:
256,192,15959,1,2,0:0:0:0:
256,192,16071,1,0,0:0:0:0:
256,192,16183,1,0,0:0:0:0:
256,192,16295,1,2,0:0:0:0:
256,192,16407,1,2,0:0:0:0:
256,192,16631,1,0,0:0:0:0:
256,192,16855,1,4,0:0:0:0:
256,192,17079,1,2,0:0:0:0:
256,192,17191,1,0,0:0:0:0:
256,192,17303,1,0,0:0:0:0:
256,192,17527,1,2,0:0:0:0:
256,192,17638,1,0,0:0:0:0:
256,192,17750,1,0,0:0:0:0:
256,192,17862,1,2,0:0:0:0:
256,192,17974,1,2,0:0:0:0:
256,192,18086,1,0,0:0:0:0:
256,192,18198,1,0,0:0:0:0:
256,192,18310,1,2,0:0:0:0:
256,192,18422,1,2,0:0:0:0:
256,192,18534,1,2,0:0:0:0:
256,192,18646,1,0,0:0:0:0:
256,192,18870,1,0,0:0:0:0:
256,192,18982,1,2,0:0:0:0:
256,192,19094,1,2,0:0:0:0:
256,192,19318,1,0,0:0:0:0:
256,192,19430,1,2,0:0:0:0:
256,192,19541,1,0,0:0:0:0:
256,192,19653,1,2,0:0:0:0:
256,192,19765,1,2,0:0:0:0:
256,192,19877,1,0,0:0:0:0:
256,192,19989,1,2,0:0:0:0:
256,192,20101,1,0,0:0:0:0:
256,192,20213,1,0,0:0:0:0:
256,192,20325,1,2,0:0:0:0:
256,192,20437,1,0,0:0:0:0:
256,192,20661,1,0,0:0:0:0:
256,192,20773,1,2,0:0:0:0:
256,192,20885,1,2,0:0:0:0:
256,192,21109,1,0,0:0:0:0:
256,192,21221,1,2,0:0:0:0:
256,192,21333,1,0,0:0:0:0:
256,192,21444,1,2,0:0:0:0:
256,192,21556,1,2,0:0:0:0:
256,192,21668,1,0,0:0:0:0:
256,192,21780,1,2,0:0:0:0:
256,192,21892,1,0,0:0:0:0:
256,192,22004,1,0,0:0:0:0:
256,192,22116,1,2,0:0:0:0:
256,192,22228,1,2,0:0:0:0:
256,192,22452,1,0,0:0:0:0:
256,192,22564,1,0,0:0:0:0:
256,192,22676,1,2,0:0:0:0:
256,192,22788,1,2,0:0:0:0:
256,192,22900,1,0,0:0:0:0:
256,192,23012,1,0,0:0:0:0:
256,192,23124,1,2,0:0:0:0:
256,192,23235,1,2,0:0:0:0:
256,192,23347,1,0,0:0:0:0:
256,192,23459,1,2,0:0:0:0:
256,192,23571,1,0,0:0:0:0:
256,192,23683,1,2,0:0:0:0:
256,192,23795,1,2,0:0:0:0:
256,192,23907,1,2,0:0:0:0:
256,192,24019,1,0,0:0:0:0:
256,192,24243,1,6,0:0:0:0:
256,192,24467,1,0,0:0:0:0:
256,192,24579,1,2,0:0:0:0:
256,192,24691,1,0,0:0:0:0:
256,192,24803,1,0,0:0:0:0:
256,192,24915,1,2,0:0:0:0:
256,192,25138,1,0,0:0:0:0:
256,192,25250,1,2,0:0:0:0:
256,192,25362,1,0,0:0:0:0:
256,192,25474,1,0,0:0:0:0:
256,192,25586,1,2,0:0:0:0:
256,192,25698,1,2,0:0:0:0:
256,192,25810,1,0,0:0:0:0:
256,192,26034,1,2,0:0:0:0:
256,192,26146,1,0,0:0:0:0:
256,192,26258,1,2,0:0:0:0:
256,192,26370,1,2,0:0:0:0:
256,192,26482,1,0,0:0:0:0:
256,192,26594,1,2,0:0:0:0:
256,192,26706,1,0,0:0:0:0:
256,192,26818,1,0,0:0:0:0:
256,192,26930,1,2,0:0:0:0:
256,192,27041,1,0,0:0:0:0:
256,192,27153,1,2,0:0:0:0:
256,192,27265,1,0,0:0:0:0:
256,192,27377,1,0,0:0:0:0:
256,192,27489,1,2,0:0:0:0:
256,192,27601,1,2,0:0:0:0:
256,192,27825,1,0,0:0:0:0:
256,192,27937,1,2,0:0:0:0:
256,192,28049,1,2,0:0:0:0:
256,192,28161,1,0,0:0:0:0:
256,192,28273,1,2,0:0:0:0:
256,192,28385,1,2,0:0:0:0:
256,192,28497,1,0,0:0:0:0:
256,192,28721,1,2,0:0:0:0:
256,192,28833,1,0,0:0:0:0:
256,192,28944,1,2,0:0:0:0:
256,192,29056,1,2,0:0:0:0:
256,192,29168,1,0,0:0:0:0:
256,192,29280,1,0,0:0:0:0:
256,192,29392,1,0,0:0:0:0:
256,192,29616,1,2,0:0:0:0:
256,192,29728,1,0,0:0:0:0:
256,192,29840,1,2,0:0:0:0:
256,192,29952,1,0,0:0:0:0:
256,192,30064,1,0,0:0:0:0:
256,192,30176,1,2,0:0:0:0:
256,192,30288,1,2,0:0:0:0:
256,192,30400,1,0,0:0:0:0:
256,192,30456,1,0,0:0:0:0:
256,192,30512,1,0,0:0:0:0:
256,192,30624,1,0,0:0:0:0:
256,192,30735,1,2,0:0:0:0:
256,192,30847,1,2,0:0:0:0:
256,192,30959,1,0,0:0:0:0:
256,192,31071,1,2,0:0:0:0:
256,192,31183,1,0,0:0:0:0:
256,192,31407,1,0,0:0:0:0:
256,192,31519,1,2,0:0:0:0:
256,192,31631,1,0,0:0:0:0:
256,192,31855,1,0,0:0:0:0:
256,192,31967,1,2,0:0:0:0:
256,192,32079,1,2,0:0:0:0:
256,192,32303,1,0,0:0:0:0:
256,192,32415,1,2,0:0:0:0:
256,192,32527,1,0,0:0:0:0:
256,192,32638,1,0,0:0:0:0:
256,192,32750,1,2,0:0:0:0:
256,192,32862,1,0,0:0:0:0:
256,192,32974,1,2,0:0:0:0:
256,192,33198,1,2,0:0:0:0:
256,192,33310,1,0,0:0:0:0:
256,192,33422,1,2,0:0:0:0:
256,192,33646,1,0,0:0:0:0:
256,192,33758,1,2,0:0:0:0:
256,192,33870,1,2,0:0:0:0:
256,192,33982,1,2,0:0:0:0:
256,192,34094,1,0,0:0:0:0:
256,192,34206,1,2,0:0:0:0:
256,192,34318,1,2,0:0:0:0:
256,192,34430,1,0,0:0:0:0:
256,192,34541,1,0,0:0:0:0:
256,192,34653,1,2,0:0:0:0:
256,192,34765,1,0,0:0:0:0:
256,192,34989,1,0,0:0:0:0:
256,192,35101,1,2,0:0:0:0:
256,192,35213,1,0,0:0:0:0:
256,192,35437,1,2,0:0:0:0:
256,192,35549,1,2,0:0:0:0:
256,192,35661,1,0,0:0:0:0:
256,192,35885,1,0,0:0:0:0:
256,192,35997,1,2,0:0:0:0:
256,192,36109,1,0,0:0:0:0:
256,192,36221,1,0,0:0:0:0:
256,192,36333,1,2,0:0:0:0:
256,192,36444,1,0,0:0:0:0:
256,192,36556,1,2,0:0:0:0:
256,192,36780,1,0,0:0:0:0:
256,192,36892,1,2,0:0:0:0:
256,192,37004,1,2,0:0:0:0:
256,192,37116,1,0,0:0:0:0:
256,192,37228,1,0,0:0:0:0:
256,192,37452,1,2,0:0:0:0:
256,192,37564,1,2,0:0:0:0:
256,192,37676,1,2,0:0:0:0:
256,192,37788,1,0,0:0:0:0:
256,192,37900,1,2,0:0:0:0:
256,192,38012,1,0,0:0:0:0:
256,192,38124,1,2,0:0:0:0:
256,192,38235,1,2,0:0:0:0:
256,192,38347,1,0,0:0:0:0:
256,192,38459,1,0,0:0:0:0:
256,192,38571,1,0,0:0:0:0:
256,192,38683,1,0,0:0:0:0:
256,192,38795,1,2,0:0:0:0:
256,192,39019,1,0,0:0:0:0:
256,192,39131,1,2,0:0:0:0:
256,192,39243,1,0,0:0:0:0:
256,192,39355,1,0,0:0:0:0:
256,192,39467,1,2,0:0:0:0:
256,192,39579,1,0,0:0:0:0:
256,192,39691,1,2,0:0:0:0:
256,192,39915,1,0,0:0:0:0:
256,192,40027,1,2,0:0:0:0:
256,192,40138,1,0,0:0:0:0:
256,192,40250,1,0,0:0:0:0:
256,192,40362,1,2,0:0:0:0:
256,192,40474,1,2,0:0:0:0:
256,192,40586,1,2,0:0:0:0:
256,192,40810,1,0,0:0:0:0:
256,192,40922,1,2,0:0:0:0:
256,192,41034,1,2,0:0:0:0:
256,192,41146,1,0,0:0:0:0:
256,192,41258,1,0,0:0:0:0:
256,192,41370,1,2,0:0:0:0:
256,192,41482,1,2,0:0:0:0:
256,192,41594,1,2,0:0:0:0:
256,192,41706,1,0,0:0:0:0:
256,192,41818,1,2,0:0:0:0:
256,192,41930,1,0,0:0:0:0:
256,192,42153,1,0,0:0:0:0:
256,192,42377,1,2,0:0:0:0:
256,192,42601,1,0,0:0:0:0:
256,192,42825,1,0,0:0:0:0:
256,192,43049,1,0,0:0:0:0:
256,192,43273,1,2,0:0:0:0:
256,192,43497,1,0,0:0:0:0:
256,192,43721,1,2,0:0:0:0:
256,192,43944,1,2,0:0:0:0:
256,192,44056,1,0,0:0:0:0:
256,192,44168,1,2,0:0:0:0:
256,192,44392,1,0,0:0:0:0:
256,192,44616,1,2,0:0:0:0:
256,192,44728,1,0,0:0:0:0:
256,192,44840,1,0,0:0:0:0:
256,192,44952,1,2,0:0:0:0:
256,192,45064,1,2,0:0:0:0:
256,192,45176,1,0,0:0:0:0:
256,192,45288,1,0,0:0:0:0:
256,192,45400,1,0,0:0:0:0:
256,192,45512,1,2,0:0:0:0:
256,192,45624,2,0,L|352:192,14,70
256,192,47303,1,6,0:0:0:0:
256,192,47638,1,6,0:0:0:0:
256,192,47974,1,6,0:0:0:0:
256,192,48198,1,0,0:0:0:0:
256,192,48422,1,0,0:0:0:0:
256,192,48534,1,2,0:0:0:0:
256,192,48646,1,0,0:0:0:0:
256,192,48758,1,2,0:0:0:0:
256,192,48870,1,2,0:0:0:0:
256,192,48982,1,0,0:0:0:0:
256,192,49094,1,2,0:0:0:0:
256,192,49318,1,0,0:0:0:0:
256,192,49430,1,2,0:0:0:0:
256,192,49541,1,2,0:0:0:0:
256,192,49653,1,0,0:0:0:0:
256,192,49765,1,0,0:0:0:0:
256,192,49877,1,2,0:0:0:0:
256,192,49989,1,0,0:0:0:0:
256,192,50213,1,0,0:0:0:0:
256,192,50325,1,2,0:0:0:0:
256,192,50437,1,0,0:0:0:0:
256,192,50549,1,0,0:0:0:0:
256,192,50661,1,2,0:0:0:0:
256,192,50773,1,2,0:0:0:0:
256,192,50885,1,0,0:0:0:0:
256,192,50997,1,2,0:0:0:0:
256,192,51109,1,2,0:0:0:0:
256,192,51221,1,0,0:0:0:0:
256,192,51333,1,2,0:0:0:0:
256,192,51444,1,0,0:0:0:0:
256,192,51556,1,0,0:0:0:0:
256,192,51668,1,2,0:0:0:0:
256,192,51780,1,0,0:0:0:0:
256,192,51892,1,2,0:0:0:0:
256,192,52004,1,2,0:0:0:0:
256,192,52116,1,0,0:0:0:0:
256,192,52228,1,2,0:0:0:0:
256,192,52340,1,2,0:0:0:0:
256,192,52452,1,0,0:0:0:0:
256,192,52564,1,0,0:0:0:0:
256,192,52676,1,0,0:0:0:0:
256,192,52900,1,0,0:0:0:0:
256,192,53012,1,2,0:0:0:0:
256,192,53124,1,0,0:0:0:0:
256,192,53235,1,0,0:0:0:0:
256,192,53347,1,2,0:0:0:0:
256,192,53459,1,2,0:0:0:0:
256,192,53571,1,2,0:0:0:0:
256,192,53795,1,0,0:0:0:0:
256,192,53907,1,2,0:0:0:0:
256,192,54019,1,2,0:0:0:0:
256,192,54131,1,0,0:0:0:0:
256,192,54243,1,2,0:0:0:0:
256,192,54355,1,0,0:0:0:0:
256,192,54467,1,2,0:0:0:0:
256,192,54691,1,2,0:0:0:0:
256,192,54803,1,0,0:0:0:0:
256,192,54915,1,2,0:0:0:0:
256,192,55027,1,2,0:0:0:0:
256,192,55138,1,0,0:0:0:0:
256,192,55250,1,0,0:0:0:0:
256,192,55362,1,2,0:0:0:0:
256,192,55474,1,2,0:0:0:0:
256,192,55586,1,0,0:0:0:0:
256,192,55698,1,2,0:0:0:0:
256,192,55810,1,2,0:0:0:0:
256,192,55922,1,2,0:0:0:0:
256,192,56034,1,0,0:0:0:0:
256,192,56146,1,2,0:0:0:0:
256,192,56258,1,0,0:0:0:0:
256,192,56370,1,0,0:0:0:0:
256,192,56482,1,0,0:0:0:0:
256,192,56706,1,6,0:0:0:0:
256,192,56930,1,0,0:0:0:0:
256,192,57041,1,2,0:0:0:0:
256,192,57153,1,0,0:0:0:0:
256,192,57265,1,0,0:0:0:0:
256,192,57377,1,0,0:0:0:0:
256,192,57489,1,2,0:0:0:0:
256,192,57601,1,0,0:0:0:0:
256,192,57825,1,2,0:0:0:0:
256,192,57937,1,0,0:0:0:0:
256,192,58049,1,2,0:0:0:0:
256,192,58161,1,2,0:0:0:0:
256,192,58273,1,0,0:0:0:0:
256,192,58497,1,4,0:0:0:0:
256,192,58721,1,0,0:0:0:0:
256,192,58833,1,2,0:0:0:0:
256,192,58944,1,2,0:0:0:0:
256,192,59056,1,0,0:0:0:0:
256,192,59168,1,0,0:0:0:0:
256,192,59280,1,2,0:0:0:0:
256,192,59392,1,2,0:0:0:0:
256,192,59504,1,0,0:0:0:0:
256,192,59616,1,0,0:0:0:0:
256,192,59728,1,2,0:0:0:0:
256,192,59840,1,0,0:0:0:0:
256,192,59952,1,0,0:0:0:0:
256,192,60064,1,0,0:0:0:0:
256,192,60288,1,2,0:0:0:0:
256,192,60400,1,0,0:0:0:0:
256,192,60512,1,2,0:0:0:0:
256,192,60735,1,0,0:0:0:0:
256,192,60847,1,2,0:0:0:0:
256,192,60959,1,0,0:0:0:0:
256,192,61183,1,2,0:0:0:0:
256,192,61295,1,2,0:0:0:0:
256,192,61407,1,2,0:0:0:0:
256,192,61519,1,0,0:0:0:0:
256,192,61631,1,0,0:0:0:0:
256,192,61743,1,2,0:0:0:0:
256,192,61855,1,2,0:0:0:0:
256,192,61967,1,0,0:0:0:0:
256,192,62079,1,2,0:0:0:0:
256,192,62191,1,0,0:0:0:0:
256,192,62303,1,0,0:0:0:0:
256,192,62415,1,2,0:0:0:0:
256,192,62527,1,0,0:0:0:0:
256,192,62750,1,2,0:0:0:0:
256,192,62862,1,0,0:0:0:0:
256,192,62974,1,2,0:0:0:0:
256,192,63086,1,2,0:0:0:0:
256,192,63198,1,0,0:0:0:0:
256,192,63310,1,2,0:0:0:0:
256,192,63422,1,2,0:0:0:0:
256,192,63646,1,0,0:0:0:0:
256,192,63758,1,2,0:0:0:0:
256,192,63870,1,0,0:0:0:0:
256,192,63982,1,0,0:0:0:0:
256,192,64094,1,0,0:0:0:0:
256,192,64206,1,2,0:0:0:0:
256,192,64318,1,2,0:0:0:0:
256,192,64541,1,0,0:0:0:0:
256,192,64653,1,2,0:0:0:0:
256,192,64765,1,2,0:0:0:0:
256,192,64877,1,2,0:0:0:0:
256,192,64989,1,0,0:0:0:0:
256,192,65101,1,0,0:0:0:0:
256,192,65213,1,2,0:0:0:0:
256,192,65437,1,2,0:0:0:0:
256,192,65549,1,0,0:0:0:0:
256,192,65661,1,2,0:0:0:0:
256,192,65885,1,2,0:0:0:0:
256,192,65997,1,2,0:0:0:0:
256,192,66109,1,2,0:0:0:0:
256,192,66221,1,0,0:0:0:0:
256,192,66333,1,2,0:0:0:0:
256,192,66444,1,2,0:0:0:0:
256,192,66556,1,0,0:0:0:0:
256,192,66668,1,0,0:0:0:0:
256,192,66780,1,0,0:0:0:0:
256,192,66892,1,2,0:0:0:0:
256,192,67004,1,2,0:0:0:0:
256,192,67228,1,0,0:0:0:0:
256,192,67340,1,2,0:0:0:0:
256,192,67452,1,0,0:0:0:0:
256,192,67564,1,0,0:0:0:0:
256,192,67676,1,2,0:0:0:0:
256,192,67788,1,2,0:0:0:0:
256,192,67900,1,2,0:0:0:0:
256,192,68124,1,0,0:0:0:0:
256,192,68235,1,0,0:0:0:0:
256,192,68347,1,2,0:0:0:0:
256,192,68459,1,0,0:0:0:0:
256,192,68571,1,2,0:0:0:0:
256,192,68683,1,0,0:0:0:0:
256,192,68795,1,2,0:0:0:0:
256,192,69019,1,0,0:0:0:0:
256,192,69131,1,2,0:0:0:0:
256,192,69243,1,2,0:0:0:0:
256,192,69467,1,0,0:0:0:0:
256,192,69579,1,0,0:0:0:0:
256,192,69691,1,2,0:0:0:0:
256,192,69803,1,2,0:0:0:0:
256,192,69915,1,0,0:0:0:0:
256,192,70027,1,0,0:0:0:0:
256,192,70138,1,0,0:0:0:0:
256,192,70250,1,2,0:0:0:0:
256,192,70362,1,2,0:0:0:0:
256,192,70474,1,0,0:0:0:0:
256,192,70586,1,0,0:0:0:0:
256,192,70810,1,0,0:0:0:0:
256,192,71034,1,6,0:0:0:0:
256,192,71258,1,0,0:0:0:0:
256,192,71370,1,2,0:0:0:0:
256,192,71482,1,2,0:0:0:0:
256,192,71594,1,0,0:0:0:0:
256,192,71706,1,0,0:0:0:0:
256,192,71818,1,2,0:0:0:0:
256,192,71930,1,0,0:0:0:0:
256,192,72041,1,0,0:0:0:0:
256,192,72153,1,0,0:0:0:0:
256,192,72265,1,2,0:0:0:0:
256,192,72377,1,0,0:0:0:0:
256,192,72489,1,0,0:0:0:0:
256,192,72601,1,0,0:0:0:0:
256,192,72825,1,2,0:0:0:0:
256,192,72937,1,0,0:0:0:0:
256,192,73049,1,0,0:0:0:0:
256,192,73273,1,2,0:0:0:0:
256,192,73385,1,0,0:0:0:0:
256,192,73497,1,2,0:0:0:0:
256,192,73721,1,2,0:0:0:0:
256,192,73833,1,2,0:0:0:0:
256,192,73944,1,0,0:0:0:0:
256,192,74056,1,2,0:0:0:0:
256,192,74168,1,2,0:0:0:0:
256,192,74392,1,0,0:0:0:0:
256,192,74504,1,0,0:0:0:0:
256,192,74616,1,2,0:0:0:0:
256,192,74840,1,0,0:0:0:0:
256,192,74952,1,2,0:0:0:0:
256,192,75064,1,2,0:0:0:0:
256,192,75176,1,0,0:0:0:0:
256,192,75288,1,0,0:0:0:0:
256,192,75400,1,2,0:0:0:0:
256,192,75512,1,0,0:0:0:0:
256,192,75624,1,0,0:0:0:0:
256,192,75735,1,0,0:0:0:0:
256,192,75847,1,2,0:0:0:0:
256,192,75959,1,2,0:0:0:0:
256,192,76183,1,0,0:0:0:0:
256,192,76295,1,0,0:0:0:0:
256,192,76407,1,2,0:0:0:0:
256,192,76519,1,2,0:0:0:0:
256,192,76631,1,0,0:0:0:0:
256,192,76743,1,2,0:0:0:0:
256,192,76855,1,2,0:0:0:0:
256,192,76967,1,2,0:0:0:0:
256,192,77079,1,0,0:0:0:0:
256,192,77191,1,2,0:0:0:0:
256,192,77303,1,0,0:0:0:0:
256,192,77415,1,0,0:0:0:0:
256,192,77527,1,2,0:0:0:0:
256,192,77750,1,4,0:0:0:0:
256,192,77974,1,0,0:0:0:0:
256,192,78198,1,6,0:0:0:0:
256,192,78422,1,2,0:0:0:0:
256,192,78646,1,4,0:0:0:0:
256,192,78870,1,2,0:0:0:0:
256,192,78982,1,0,0:0:0:0:
256,192,79094,1,0,0:0:0:0:
256,192,79318,1,2,0:0:0:0:
256,192,79541,1,6,0:0:0:0:
256,192,79765,1,0,0:0:0:0:
256,192,79877,1,0,0:0:0:0:
256,192,79989,1,2,0:0:0:0:
256,192,80213,1,0,0:0:0:0:
256,192,80325,1,2,0:0:0:0:
256,192,80437,1,2,0:0:0:0:
256,192,80549,1,2,0:0:0:0:
256,192,80661,1,0,0:0:0:0:
256,192,80773,1,0,0:0:0:0:
256,192,80885,1,2,0:0:0:0:
256,192,80997,1,0,0:0:0:0:
256,192,81109,1,0,0:0:0:0:
256,192,81221,1,2,0:0:0:0:
256,192,81333,1,0,0:0:0:0:
256,192,82228,1,0,0:0:0:0:
256,192,83124,1,0,0:0:0:0:
256,192,83347,1,0,0:0:0:0:
256,192,83459,1,0,0:0:0:0:
256,192,83571,1,2,0:0:0:0:
256,192,83683,1,0,0:0:0:0:
256,192,83795,1,0,0:0:0:0:
256,192,83907,1,2,0:0:0:0:
256,192,84019,1,2,0:0:0:0:
256,192,84131,1,0,0:0:0:0:
256,192,84243,1,0,0:0:0:0:
256,192,84355,1,2,0:0:0:0:
256,192,84467,1,2,0:0:0:0:
256,192,84579,1,0,0:0:0:0:
256,192,84691,1,0,0:0:0:0:
256,192,84803,1,0,0:0:0:0:
256,192,84915,1,2,0:0:0:0:
256,192,85138,1,0,0:0:0:0:
256,192,85250,1,0,0:0:0:0:
256,192,85474,1,2,0:0:0:0:
256,192,85586,1,0,0:0:0:0:
256,192,85698,1,2,0:0:0:0:
256,192,85810,1,2,0:0:0:0:
