osu file format v14

[General]
AudioFilename: audio.mp3
AudioLeadIn: 0
PreviewTime: 47303
Countdown: 0
SampleSet: Soft
StackLeniency: 0.7
Mode: 2
LetterboxInBreaks: 0
WidescreenStoryboard: 0

[Editor]
Bookmarks: 38347
DistanceSpacing: 1
BeatDivisor: 4
GridSize: 16
TimelineZoom: 3.499999

[Metadata]
Title:adrenaline!!! -TV Ver-
TitleUnicode:adrenaline!!! -TV Ver-
Artist:TrySail
ArtistUnicode:TrySail
Creator:Aryssiel
Version:Apex
Source:
Tags:
BeatmapID:1355493
BeatmapSetID:639090

[Difficulty]
HPDrainRate:6
CircleSize:4.2
OverallDifficulty:9.8
ApproachRate:9.8
SliderMultiplier:1.8
SliderTickRate:1

[Events]
//Background and Video events
0,0,"eromanga-sensei-izumi-sagiri-wink-kimono.jpg",0,0
//Break Periods
//Storyboard Layer 0 (Background)
//Storyboard Layer 1 (Fail)
//Storyboard Layer 2 (Pass)
//Storyboard Layer 3 (Foreground)
//Storyboard Sound Samples

[TimingPoints]
288,223.880597014925,4,2,1,40,1,0
288,-90.9090909090909,4,2,1,40,0,0
455,-90.9090909090909,4,2,1,65,0,0
736,223.880597014925,4,2,2,50,1,0
736,-133.333333333333,4,2,2,50,0,0
5213,-133.333333333333,4,2,2,55,0,0
5437,-133.333333333333,4,2,2,60,0,0
5661,-133.333333333333,4,2,2,65,0,0
5885,-133.333333333333,4,2,2,70,0,0
6109,-76.9230769230769,4,2,1,75,0,0
6333,-76.9230769230769,4,2,1,5,0,0
6444,-76.9230769230769,4,2,1,75,0,0
6668,-76.9230769230769,4,2,1,5,0,0
6780,-76.9230769230769,4,2,1,75,0,0
6892,-76.9230769230769,4,2,1,5,0,0
7004,-76.9230769230769,4,2,1,75,0,0
7396,-76.9230769230769,4,2,1,5,0,0
7452,-57.1428571428571,4,2,1,75,0,0
7788,-57.1428571428571,4,2,1,5,0,0
7900,-83.3333333333333,4,2,1,75,0,0
8068,-83.3333333333333,4,2,1,5,0,0
8124,-95.2380952380952,4,2,1,75,0,0
11650,-95.2380952380952,4,2,1,5,0,0
11706,-95.2380952380952,4,2,1,75,0,0
14224,-95.2380952380952,4,2,1,5,0,0
14280,-95.2380952380952,4,2,1,75,0,0
15176,-95.2380952380952,4,2,1,55,0,0
16855,-100,4,2,1,65,0,0
17247,-100,4,2,1,5,0,0
17303,-100,4,2,1,65,0,0
18814,-100,4,2,1,5,0,0
18870,-100,4,2,1,65,0,0
20157,-100,4,2,1,5,0,0
20213,-100,4,2,1,65,0,0
21053,-100,4,2,1,5,0,0
21109,-100,4,2,1,65,0,0
22564,-76.9230769230769,4,2,1,65,0,0
23012,-62.5,4,2,1,65,0,0
23459,-52.6315789473684,4,2,1,65,0,0
24243,-62.5,4,2,1,65,0,0
24579,-100,4,2,1,65,0,0
25978,-100,4,2,1,5,0,0
26034,-100,4,2,1,65,0,0
37956,-100,4,2,1,5,0,0
38012,-100,4,2,1,65,0,0
38795,-83.3333333333333,4,2,1,65,0,0
38963,-83.3333333333333,4,2,1,5,0,0
39019,-111.111111111111,4,2,1,65,0,0
39691,-83.3333333333333,4,2,1,65,0,0
39859,-83.3333333333333,4,2,1,5,0,0
39915,-111.111111111111,4,2,1,65,0,0
40586,-66.6666666666667,4,2,1,65,0,0
41258,-66.6666666666667,4,2,1,5,0,0
41370,-66.6666666666667,4,2,1,65,0,0
41594,-66.6666666666667,4,2,1,5,0,0
41706,-76.9230769230769,4,2,1,65,0,0
41818,-76.9230769230769,4,2,1,5,0,0
41930,-133.333333333333,4,2,1,65,0,0
42321,-133.333333333333,4,2,1,5,0,0
42377,-166.666666666667,4,2,1,65,0,0
42825,-133.333333333333,4,2,1,65,0,0
45512,-133.333333333333,4,2,1,50,0,0
46407,-133.333333333333,4,2,1,60,0,0
46631,-133.333333333333,4,2,1,65,0,0
46855,-133.333333333333,4,2,1,70,0,0
47079,-133.333333333333,4,2,1,75,0,0
47303,-66.6666666666667,4,2,1,78,0,0
47527,-66.6666666666667,4,2,1,5,0,0
47638,-58.8235294117647,4,2,1,78,0,0
47862,-58.8235294117647,4,2,1,5,0,0
47974,-58.8235294117647,4,2,1,78,0,0
48086,-58.8235294117647,4,2,1,5,0,0
48198,-52.6315789473684,4,2,1,78,0,0
48366,-52.6315789473684,4,2,1,5,0,0
48422,-52.6315789473684,4,2,1,78,0,0
48870,-200,4,2,1,78,0,0
48982,-200,4,2,1,5,0,0
49094,-76.9230769230769,4,2,1,83,0,1
49261,-90.9090909090909,4,2,1,5,0,1
49318,-90.9090909090909,4,2,1,83,0,1
49709,-90.9090909090909,4,2,1,5,0,1
49765,-90.9090909090909,4,2,1,83,0,1
51948,-90.9090909090909,4,2,1,5,0,1
52004,-90.9090909090909,4,2,1,83,0,1
53291,-90.9090909090909,4,2,1,5,0,1
53347,-90.9090909090909,4,2,1,83,0,1
55530,-90.9090909090909,4,2,1,5,0,1
55586,-90.9090909090909,4,2,1,83,0,1
56258,-133.333333333333,4,2,1,83,0,1
56426,-133.333333333333,4,2,1,5,0,1
56482,-90.9090909090909,4,2,1,83,0,1
56705,-76.9230769230769,4,2,1,83,0,1
57153,-90.9090909090909,4,2,1,83,0,1
58049,-133.333333333333,4,2,1,83,0,1
58217,-133.333333333333,4,2,1,5,0,1
58273,-90.9090909090909,4,2,1,83,0,1
58497,-76.9230769230769,4,2,1,83,0,1
58944,-90.9090909090909,4,2,1,83,0,1
60288,-76.9230769230769,4,2,1,83,0,1
60735,-66.6666666666667,4,2,1,83,0,1
61183,-58.8235294117647,4,2,1,83,0,1
61631,-52.6315789473684,4,2,1,83,0,1
61967,-57.1428571428571,4,2,1,83,0,1
63198,-200,4,2,1,83,0,1
63310,-200,4,2,1,5,0,1
63422,-76.9230769230769,4,2,1,83,0,1
63590,-90.9090909090909,4,2,1,5,0,1
63646,-90.9090909090909,4,2,1,83,0,1
64038,-90.9090909090909,4,2,1,5,0,1
64094,-90.9090909090909,4,2,1,83,0,1
67172,-90.9090909090909,4,2,1,5,0,1
67228,-90.9090909090909,4,2,1,83,0,1
69859,-90.9090909090909,4,2,1,5,0,1
69915,-90.9090909090909,4,2,1,83,0,1
70586,-133.333333333333,4,2,1,83,0,1
70754,-133.333333333333,4,2,1,5,0,1
70810,-76.9230769230769,4,2,1,83,0,1
71034,-76.9230769230769,4,2,1,83,0,1
71482,-90.9090909090909,4,2,1,83,0,1
72377,-90.9090909090909,4,2,1,83,0,1
72825,-76.9230769230769,4,2,1,83,0,1
73273,-66.6666666666667,4,2,1,83,0,1
73720,-58.8235294117647,4,2,1,83,0,1
74168,-57.1428571428571,4,2,1,83,0,1
74728,-90.9090909090909,4,2,1,83,0,1
80157,-90.9090909090909,4,2,1,5,0,1
80213,-90.9090909090909,4,2,1,83,0,1
80437,-125,4,2,1,83,0,1
80605,-76.9230769230769,4,2,1,5,0,1
80661,-66.6666666666667,4,2,1,83,0,1
80885,-58.8235294117647,4,2,1,83,0,1
81108,-52.6315789473684,4,2,1,83,0,1
81332,-128.205128205128,4,2,1,83,0,1
82228,-163.934426229508,4,2,1,83,0,1
83124,-300,4,2,1,83,0,1
84914,-58.8235294117647,4,2,1,83,0,1
85138,-58.8235294117647,4,2,1,5,0,1
85250,-58.8235294117647,4,2,1,83,0,1
85474,-58.8235294117647,4,2,1,5,0,1
85586,-58.8235294117647,4,2,1,83,0,1
85698,-58.8235294117647,4,2,1,5,0,1
85810,-260,4,2,1,83,0,0
86258,-260,4,2,1,5,0,0

[Colours]
Combo1 : 255,255,255
Combo2 : 255,255,255

[HitObjects]
416,160,400,5,0,1:0:0:0:
96,160,511,1,8,0:0:0:0:
256,160,736,1,2,0:0:0:0:
320,160,959,1,0,0:0:0:0:
384,160,1183,1,0,0:0:0:0:
320,160,1407,1,2,0:0:0:0:
160,160,1631,1,0,0:0:0:0:
96,160,1855,1,2,0:0:0:0:
160,160,2079,1,2,0:0:0:0:
400,160,2303,2,0,L|432:224,1,67.5000025749208,0|0,0:0|0:0,0:0:0:0:
160,224,2527,5,2,0:0:0:0:
256,224,2750,1,0,0:0:0:0:
352,224,2974,1,0,0:0:0:0:
256,224,3198,1,2,0:0:0:0:
64,224,3422,1,0,0:0:0:0:
160,224,3646,1,2,0:0:0:0:
448,224,3870,1,2,0:0:0:0:
352,224,4094,1,0,0:0:0:0:
144,224,4318,5,2,0:0:0:0:
80,224,4429,1,0,0:0:0:0:
256,224,4541,1,0,0:0:0:0:
320,192,4653,1,0,0:0:0:0:
352,128,4765,1,2,0:0:0:0:
320,64,4877,1,0,0:0:0:0:
256,32,4989,1,2,0:0:0:0:
192,64,5101,1,4,0:3:0:0:
416,80,5213,5,4,0:3:0:0:
348,80,5324,1,4,0:3:0:0:
112,112,5437,1,4,0:3:0:0:
179,112,5548,1,4,0:3:0:0:
448,128,5661,1,8,0:3:0:0:
380,128,5772,1,8,0:3:0:0:
80,160,5885,1,8,0:0:0:0:
147,160,5996,1,8,0:0:0:0:
496,160,6109,6,0,P|496:224|352:368,1,233.999989288331,10|0,1:2|0:0,0:0:0:0:
32,284,6444,2,0,P|112:384|224:384,1,233.999989288331,10|0,1:2|0:0,0:0:0:0:
80,272,6780,2,0,P|144:192|160:144,1,116.999994644165,2|0,1:2|0:0,0:0:0:0:
448,128,7004,2,0,P|480:288|384:192,1,409.499981254578,10|0,0:0|0:0,0:0:0:0:
160,128,7452,2,0,P|48:144|192:160,1,472.500004506111,4|0,0:0|0:0,0:0:0:0:
416,96,7900,6,0,L|448:256,1,161.999995056153,2|0,1:2|0:0,0:0:0:0:
80,80,8124,2,0,P|96:224|144:240,1,188.999994232178,10|2,0:0|1:2,0:0:0:0:
352,240,8459,1,0,0:0:0:0:
256,240,8571,1,8,0:0:0:0:
496,240,8683,2,0,P|496:112|432:80,1,188.999994232178,2|0,0:0|0:0,0:0:0:0:
176,96,9019,2,0,L|80:96,1,94.499997116089,10|0,0:0|0:0,0:0:0:0:
368,112,9243,2,0,L|464:112,1,94.499997116089,2|0,1:2|0:0,0:0:0:0:
128,160,9467,2,0,L|32:160,1,94.499997116089,10|0,0:0|0:0,0:0:0:0:
272,160,9691,6,0,P|352:224|352:272,1,141.749995674133,2|0,1:2|0:0,0:0:0:0:
144,256,9915,2,0,P|64:192|64:128,1,141.749995674133,10|0,0:0|0:0,0:0:0:0:
366,160,10138,1,2,1:2:0:0:
464,160,10249,1,0,0:0:0:0:
366,160,10362,1,8,0:0:0:0:
80,160,10474,2,0,P|48:224|112:352,1,188.999994232178,2|0,0:0|0:0,0:0:0:0:
464,336,10810,2,0,L|368:336,1,94.499997116089,10|0,0:0|0:0,0:0:0:0:
48,336,11034,2,0,L|160:336,1,94.499997116089,2|0,1:2|0:0,0:0:0:0:
369,48,11258,2,0,L|481:48,1,94.499997116089,10|0,0:0|0:0,0:0:0:0:
128,48,11482,2,0,P|64:128|80:176,1,141.749995674133,2|0,1:2|0:0,0:0:0:0:
352,160,11706,6,0,P|416:240|368:272,1,188.999994232178,10|2,0:0|1:2,0:0:0:0:
128,272,12041,2,0,L|16:272,1,94.499997116089,0|8,0:0|0:0,0:0:0:0:
352,272,12265,2,0,P|416:192|352:144,1,188.999994232178,2|0,0:0|0:0,0:0:0:0:
144,128,12601,2,0,L|48:128,1,94.499997116089,10|0,0:0|0:0,0:0:0:0:
288,128,12825,2,0,L|192:128,1,94.499997116089,2|0,1:2|0:0,0:0:0:0:
385,128,13049,2,0,L|480:128,1,94.499997116089,10|0,0:0|0:0,0:0:0:0:
144,128,13273,2,0,L|32:128,1,94.499997116089,2|0,1:2|0:0,0:0:0:0:
478,128,13497,2,0,L|384:128,1,94.499997116089,10|0,0:0|0:0,0:0:0:0:
96,128,13721,1,2,1:2:0:0:
191,128,13832,1,2,0:0:0:0:
432,128,13944,1,8,0:0:0:0:
338,128,14055,1,2,0:0:0:0:
432,128,14168,1,0,0:0:0:0:
174,128,14280,6,0,L|64:128,1,94.499997116089,4|4,0:3|0:3,0:0:0:0:
321,128,14504,2,0,L|208:128,1,94.499997116089,4|8,0:3|0:3,0:0:0:0:
321,128,14728,2,0,L|416:128,1,94.499997116089,8|8,0:3|0:0,0:0:0:0:
176,128,14952,1,8,0:0:0:0:
480,128,15064,6,0,P|496:224|496:352,1,188.999994232178,4|2,1:2|0:0,0:0:0:0:
144,320,15512,2,0,L|80:240,1,94.499997116089,10|0,0:0|0:0,0:0:0:0:
384,208,15847,1,2,1:2:0:0:
256,208,16071,1,2,0:0:0:0:
128,208,16295,1,0,1:0:0:0:
464,208,16407,2,0,P|480:80|352:48,1,283.499991348267,10|0,0:0|0:0,0:0:0:0:
176,64,16855,6,0,L|64:64,1,90,0|0,1:0|0:0,0:0:0:0:
176,160,17079,2,0,L|272:160,1,90,10|0,0:0|0:0,0:0:0:0:
64,160,17303,1,2,1:2:0:0:
0,160,17415,1,0,0:0:0:0:
64,160,17527,1,8,0:0:0:0:
128,160,17638,1,2,0:0:0:0:
336,160,17750,5,0,0:0:0:0:
400,160,17861,1,0,0:0:0:0:
192,160,17974,1,10,0:0:0:0:
256,160,18086,1,0,0:0:0:0:
432,160,18198,1,2,1:2:0:0:
496,160,18310,1,0,0:0:0:0:
368,160,18422,1,10,0:0:0:0:
432,160,18533,1,0,0:0:0:0:
208,160,18646,2,0,P|224:256|288:256,1,135,2|0,1:2|0:0,0:0:0:0:
432,272,18870,5,10,0:0:0:0:
512,272,18982,1,0,0:0:0:0:
224,272,19094,1,2,1:2:0:0:
144,272,19206,1,0,0:0:0:0:
352,272,19318,1,8,0:0:0:0:
432,272,19430,1,2,0:0:0:0:
352,272,19541,1,0,0:0:0:0:
272,272,19653,1,0,0:0:0:0:
64,272,19765,1,8,0:0:0:0:
144,272,19877,1,0,0:0:0:0:
352,272,19989,2,0,P|416:208|384:160,1,135,2|0,1:2|0:0,0:0:0:0:
222,203,20213,6,0,P|188:124|256:56,1,180,10|0,0:0|1:2,0:0:0:0:
336,64,20549,1,0,0:0:0:0:
112,80,20661,2,0,L|64:160,1,90,10|0,0:0|0:0,0:0:0:0:
288,160,20885,1,2,1:2:0:0:
208,160,20996,1,0,0:0:0:0:
128,160,21109,1,8,0:0:0:0:
320,112,21221,2,0,P|416:112|400:176,1,180,2|0,0:0|0:0,0:0:0:0:
208,48,21556,1,10,0:0:0:0:
144,48,21667,1,0,0:0:0:0:
368,48,21780,1,2,1:2:0:0:
304,48,21891,1,0,0:0:0:0:
80,48,22004,1,10,0:0:0:0:
16,48,22115,1,0,0:0:0:0:
240,48,22228,6,0,B|304:112|304:112|304:208,1,180,2|8,1:2|0:0,0:0:0:0:
64,208,22564,1,0,0:0:0:0:
288,48,22676,2,0,B|352:112|352:112|352:256,1,233.999989288331,2|8,1:2|0:0,0:0:0:0:
48,256,23012,1,0,0:0:0:0:
336,48,23124,2,0,B|400:112|400:112|400:320,1,288,2|8,1:2|0:0,0:0:0:0:
32,304,23460,1,0,0:0:0:0:
384,48,23571,2,0,B|448:112|448:112|448:368,1,341.999990867615,2|8,1:2|0:0,0:0:0:0:
16,352,23907,1,0,0:0:0:0:
128,352,24019,1,2,0:0:0:0:
480,48,24243,6,0,B|480:240|480:240|384:240,1,288,12|0,0:0|1:0,0:0:0:0:
272,240,24579,1,2,0:0:0:0:
336,240,24691,1,8,0:0:0:0:
112,240,24803,2,0,P|177:144|257:144,1,180,2|0,0:0|0:0,0:0:0:0:
448,144,25138,1,10,0:0:0:0:
368,144,25249,1,0,0:0:0:0:
128,144,25362,1,2,1:2:0:0:
208,144,25474,1,0,0:0:0:0:
320,144,25586,1,10,0:0:0:0:
400,144,25697,1,0,0:0:0:0:
64,144,25810,6,0,P|16:224|48:272,1,135,2|0,1:2|0:0,0:0:0:0:
208,256,26034,2,0,P|240:208|208:96,1,180,10|2,0:0|1:2,0:0:0:0:
96,96,26370,1,0,0:0:0:0:
176,96,26482,1,8,0:0:0:0:
384,96,26594,2,0,P|400:176|352:272,1,180,2|0,0:0|0:0,0:0:0:0:
160,256,26930,1,8,0:0:0:0:
224,256,27041,1,0,0:0:0:0:
432,256,27153,1,2,1:2:0:0:
496,256,27265,1,0,2:0:0:0:
32,256,27377,1,10,2:0:0:0:
96,256,27489,1,0,2:0:0:0:
368,256,27601,6,0,P|448:208|432:128,1,180,2|8,1:2|0:0,0:0:0:0:
160,128,27937,1,2,0:0:0:0:
384,128,28049,2,0,L|288:128,1,90,0|0,1:0|0:0,0:0:0:0:
112,128,28273,2,0,L|22:128,1,90,10|0,0:0|0:0,0:0:0:0:
288,128,28497,6,0,P|368:176|368:256,1,180,2|10,1:2|0:0,0:0:0:0:
96,256,28833,1,0,0:0:0:0:
176,256,28944,1,2,1:2:0:0:
96,256,29056,1,0,0:0:0:0:
272,256,29168,1,8,0:0:0:0:
352,256,29280,1,2,0:0:0:0:
96,256,29392,2,0,P|64:192|64:112,1,135,0|0,0:0|0:0,0:0:0:0:
272,112,29616,6,0,P|304:192|272:288,1,180,8|0,0:0|1:0,0:0:0:0:
128,272,29952,1,4,0:3:0:0:
224,272,30064,1,0,0:0:0:0:
464,272,30176,2,0,P|480:192|416:128,1,180,8|8,0:0|0:0,0:0:0:0:
192,96,30512,1,4,0:3:0:0:
256,96,30624,1,4,0:3:0:0:
432,96,30735,1,8,0:3:0:0:
368,96,30847,1,8,0:3:0:0:
112,96,30959,1,8,0:0:0:0:
48,96,31071,1,8,0:3:0:0:
304,96,31183,6,0,P|384:112|400:208,1,180,6|8,1:2|0:0,0:0:0:0:
144,208,31519,1,0,0:0:0:0:
352,208,31631,1,2,1:2:0:0:
397,208,31686,1,0,0:0:0:0:
352,208,31742,1,0,0:0:0:0:
112,208,31855,1,8,0:0:0:0:
32,208,31966,1,0,0:0:0:0:
240,208,32079,5,2,1:2:0:0:
320,208,32190,1,0,0:0:0:0:
240,208,32303,1,8,0:0:0:0:
160,208,32414,1,0,0:0:0:0:
400,208,32527,1,2,1:2:0:0:
448,208,32583,1,0,0:0:0:0:
400,208,32638,1,0,0:0:0:0:
80,208,32750,1,8,0:0:0:0:
160,208,32861,1,0,0:0:0:0:
368,208,32974,6,0,P|432:144|384:64,1,180,2|8,1:2|0:0,0:0:0:0:
320,64,33310,1,0,0:0:0:0:
112,64,33422,1,0,1:2:0:0:
64,64,33478,1,0,0:0:0:0:
112,64,33534,1,0,0:0:0:0:
416,64,33646,1,10,0:0:0:0:
496,64,33758,1,0,0:0:0:0:
192,64,33870,1,2,1:2:0:0:
272,64,33982,1,0,0:0:0:0:
352,64,34094,1,10,0:0:0:0:
272,64,34206,1,0,0:0:0:0:
96,64,34318,1,2,1:2:0:0:
48,64,34374,1,0,0:0:0:0:
96,64,34430,1,0,0:0:0:0:
272,64,34541,1,10,0:0:0:0:
352,64,34653,1,0,0:0:0:0:
144,64,34765,6,0,P|80:112|80:208,1,180,2|8,1:2|0:0,0:0:0:0:
160,224,35101,1,0,0:0:0:0:
368,224,35213,1,2,1:2:0:0:
416,224,35269,1,0,0:0:0:0:
368,224,35325,1,0,0:0:0:0:
160,224,35437,1,8,0:0:0:0:
240,224,35549,1,0,0:0:0:0:
448,224,35661,1,2,1:2:0:0:
368,224,35773,1,0,0:0:0:0:
240,224,35885,1,8,0:0:0:0:
320,224,35997,1,0,0:0:0:0:
112,224,36109,1,2,1:2:0:0:
64,224,36165,1,0,0:0:0:0:
112,224,36221,1,0,0:0:0:0:
320,224,36333,1,8,0:0:0:0:
400,224,36444,1,0,0:0:0:0:
160,224,36556,6,0,P|96:176|128:80,1,180,2|8,1:2|0:0,0:0:0:0:
320,80,36892,1,0,0:0:0:0:
112,80,37004,1,0,1:2:0:0:
64,80,37060,1,0,0:0:0:0:
112,80,37116,1,0,0:0:0:0:
288,80,37228,1,8,0:0:0:0:
224,80,37340,1,0,0:0:0:0:
416,80,37452,1,0,1:2:0:0:
464,80,37508,1,0,0:0:0:0:
416,80,37564,1,8,0:0:0:0:
80,80,37676,1,10,0:0:0:0:
256,80,37788,1,0,0:0:0:0:
432,80,37900,1,10,0:0:0:0:
256,80,38012,1,0,0:0:0:0:
32,80,38124,2,0,L|122:80,1,90,10|0,0:0|0:0,0:0:0:0:
352,80,38347,6,0,P|432:128|448:240,1,180,2|0,0:0|0:0,0:0:0:0:
384,240,38683,1,0,0:0:0:0:
64,240,38795,2,0,P|144:224|176:128,1,161.999995056153,8|0,0:0|0:0,0:0:0:0:
448,144,39019,1,0,0:0:0:0:
368,144,39131,1,2,0:0:0:0:
80,128,39243,2,0,P|48:208|80:304,1,161.999995056153,2|0,0:0|0:0,0:0:0:0:
144,288,39579,1,0,0:0:0:0:
400,288,39691,2,0,P|464:224|496:144,1,161.999995056153,8|0,0:0|0:0,0:0:0:0:
304,128,39915,1,0,0:0:0:0:
224,128,40027,1,0,0:0:0:0:
464,112,40138,6,0,P|480:192|448:288,1,161.999995056153,2|0,0:0|0:0,0:0:0:0:
384,288,40474,1,0,0:0:0:0:
80,272,40586,2,0,P|48:192|160:48,1,270.000010299683,8|2,0:0|0:0,0:0:0:0:
464,48,40922,1,0,0:0:0:0:
256,48,41034,6,0,P|208:112|368:176,1,270.000010299683,2|0,1:2|0:0,0:0:0:0:
48,208,41370,2,0,P|128:320|272:352,1,270.000010299683,2|0,1:2|0:0,0:0:0:0:
464,176,41706,2,0,L|304:176,1,116.999994644165,2|0,1:2|0:0,0:0:0:0:
32,96,41930,6,0,P|32:224|128:288,1,236.250009012223,6|0,1:2|0:0,0:0:0:0:
462,145,42377,2,0,P|415:240|320:288,1,215.999993408203,8|10,0:0|0:0,0:0:0:0:
448,288,43049,1,0,0:0:0:0:
320,288,43273,1,8,0:0:0:0:
448,288,43497,1,2,0:0:0:0:
160,288,43721,2,0,P|64:240|64:64,1,270.000010299683,10|8,0:0|0:0,0:0:0:0:
192,96,44392,1,2,0:0:0:0:
320,96,44616,1,10,0:0:0:0:
192,288,44840,1,0,0:0:0:0:
320,288,45064,1,8,0:0:0:0:
64,288,45288,1,0,0:0:0:0:
416,288,45512,6,0,P|480:208|480:112,1,202.500007724762,2|0,0:0|0:0,0:0:0:0:
160,112,45959,5,2,0:0:0:0:
128,112,46071,1,0,0:0:0:0:
352,272,46183,1,4,0:3:0:0:
384,272,46295,1,4,0:3:0:0:
160,272,46407,1,8,0:3:0:0:
384,112,46519,1,4,0:3:0:0:
352,112,46631,1,8,0:3:0:0:
128,272,46743,1,8,0:3:0:0:
352,112,46855,1,8,0:3:0:0:
160,272,46967,1,4,0:3:0:0:
128,272,47079,1,4,0:3:0:0:
384,272,47191,1,0,0:3:0:0:
48,112,47303,6,0,P|16:192|128:336,1,270.000010299683,10|0,1:2|0:0,0:0:0:0:
464,272,47638,2,0,P|496:192|336:32,1,306.000005836487,10|0,1:2|0:0,0:0:0:0:
48,144,47974,2,0,P|80:208|48:288,1,153.000002918243,10|0,1:2|0:0,0:0:0:0:
384,352,48198,2,0,P|464:256|448:112,1,256.499993150711,4|0,1:2|0:0,0:0:0:0:
144,144,48422,1,8,0:0:0:0:
32,144,48534,1,0,0:0:0:0:
368,144,48646,1,8,0:0:0:0:
480,144,48758,1,8,0:3:0:0:
144,144,48870,1,4,0:3:0:0:
192,144,48982,1,0,0:0:0:0:
480,144,49094,6,0,L|208:144,1,233.999989288331,6|8,1:2|0:0,0:0:0:0:
144,144,49430,1,0,0:0:0:0:
400,288,49541,2,0,L|192:288,1,198.000006042481,2|8,1:2|0:0,0:0:0:0:
448,288,49877,1,2,0:0:0:0:
349,288,49988,1,2,0:0:0:0:
112,224,50101,1,0,0:0:0:0:
211,224,50212,1,10,0:0:0:0:
464,224,50325,2,0,L|432:112,1,99.0000030212403,0|2,0:0|1:2,0:0:0:0:
144,192,50549,2,0,L|32:192,1,99.0000030212403,0|10,0:0|0:0,0:0:0:0:
224,80,50773,1,0,0:0:0:0:
464,80,50885,6,0,P|496:144|448:272,1,198.000006042481,2|8,1:0|0:0,0:0:0:0:
336,272,51221,1,0,0:0:0:0:
48,80,51333,2,0,P|16:144|64:272,1,198.000006042481,2|8,1:0|0:0,0:0:0:0:
176,272,51669,1,0,0:0:0:0:
499,130,51780,2,0,P|410:93|320:128,1,198.000006042481,0|10,1:0|0:2,0:0:0:0:
448,128,52116,1,0,0:0:0:0:
12,130,52228,2,0,P|101:93|192:127,1,198.000006042481,2|8,1:2|0:0,0:0:0:0:
64,128,52564,1,0,0:0:0:0:
304,128,52676,6,0,P|384:176|384:288,1,198.000006042481,2|10,1:2|0:0,0:0:0:0:
144,256,53012,1,0,0:0:0:0:
45,256,53123,1,2,1:2:0:0:
288,208,53235,1,0,0:0:0:0:
387,208,53346,1,8,0:0:0:0:
144,160,53459,2,0,L|256:160,1,99.0000030212403,2|0,0:2|0:0,0:0:0:0:
496,160,53683,2,0,L|384:160,2,99.0000030212403,0|8|0,0:0|0:0|0:0,0:0:0:0:
48,160,54019,2,0,L|32:272,1,99.0000030212403,2|0,1:2|0:0,0:0:0:0:
464,160,54243,2,0,L|480:272,1,99.0000030212403,10|0,0:0|0:0,0:0:0:0:
176,240,54467,6,0,P|90:227|132:122,1,198.000006042481,2|8,1:2|0:0,0:0:0:0:
384,128,54803,2,0,L|336:224,1,99.0000030212403,0|0,0:0|1:0,0:0:0:0:
45,224,55027,2,0,L|144:224,1,99.0000030212403,0|8,0:0|0:0,0:0:0:0:
419,216,55250,2,0,L|464:128,1,99.0000030212403,0|2,0:0|1:2,0:0:0:0:
224,224,55474,1,0,0:0:0:0:
125,224,55585,1,8,0:0:0:0:
320,176,55698,1,0,0:0:0:0:
419,176,55809,1,2,1:2:0:0:
32,176,55922,1,0,0:0:0:0:
128,176,56034,1,10,0:0:0:0:
32,176,56146,1,0,0:0:0:0:
416,176,56258,6,0,P|336:208|288:192,1,135.000005149842,0|8,1:0|0:0,0:0:0:0:
384,304,56594,1,0,0:0:0:0:
64,272,56706,2,0,P|192:256|256:336,1,233.999989288331,4|8,1:2|0:0,0:0:0:0:
144,336,57041,1,0,0:0:0:0:
480,80,57153,2,0,L|352:80,1,99.0000030212403,2|0,1:2|0:0,0:0:0:0:
112,80,57377,2,0,L|0:80,1,99.0000030212403,10|0,0:0|0:0,0:0:0:0:
256,80,57601,2,0,L|128:80,1,99.0000030212403,2|0,1:2|0:0,0:0:0:0:
400,80,57825,2,0,L|512:80,1,99.0000030212403,10|0,0:0|0:0,0:0:0:0:
192,80,58049,2,0,L|48:80,1,135.000005149842,2|8,1:2|0:0,0:0:0:0:
157,80,58385,1,0,0:0:0:0:
464,192,58497,6,0,P|416:112|288:64,1,233.999989288331,4|8,1:2|0:0,0:0:0:0:
176,64,58833,1,0,0:0:0:0:
464,64,58944,2,0,L|352:64,1,99.0000030212403,0|0,1:2|0:0,0:0:0:0:
160,64,59168,2,0,L|272:64,1,99.0000030212403,10|0,0:2|0:0,0:0:0:0:
352,64,59392,2,0,L|224:64,1,99.0000030212403,0|0,1:2|0:0,0:0:0:0:
464,64,59616,2,0,L|352:64,1,99.0000030212403,10|0,0:2|0:0,0:0:0:0:
160,64,59840,6,0,B|160:192|160:192|224:256,1,198.000006042481,6|8,1:2|0:0,0:0:0:0:
400,208,60176,1,0,0:0:0:0:
128,64,60288,2,0,B|128:192|128:192|208:272,1,233.999989288331,2|8,1:2|0:0,0:0:0:0:
432,272,60624,1,0,0:0:0:0:
96,64,60735,2,0,B|96:192|96:192|208:304,1,270.000010299683,2|8,1:2|0:0,0:0:0:0:
464,304,61071,1,0,0:0:0:0:
64,64,61183,2,0,B|64:192|64:192|208:336,1,306.000005836487,2|8,1:2|0:0,0:0:0:0:
496,336,61519,1,0,0:0:0:0:
32,64,61631,6,0,B|32:192|32:192|208:368,1,341.999990867615,6|8,1:2|0:0,0:0:0:0:
480,64,61967,2,0,B|480:192|480:192|336:336,1,315.000003004074,2|0,0:2|0:0,0:0:0:0:
32,320,62303,2,0,P|192:256|224:128,1,315.000003004074,2|0,0:0|0:0,0:0:0:0:
448,128,62638,1,8,0:0:0:0:
368,128,62750,1,2,0:0:0:0:
448,128,62862,1,4,0:3:0:0:
208,128,62974,1,8,0:3:0:0:
288,128,63086,1,4,0:3:0:0:
96,128,63198,2,0,L|32:128,1,45,4|0,0:3|0:0,0:0:0:0:
368,128,63422,6,0,P|416:240|400:304,1,175.499991966248,6|0,1:2|0:0,0:0:0:0:
208,256,63646,2,0,L|96:256,1,99.0000030212403,8|0,0:0|0:0,0:0:0:0:
400,192,63870,2,0,L|176:192,1,198.000006042481,2|8,1:2|0:0,0:0:0:0:
352,192,64206,1,2,0:2:0:0:
448,192,64317,1,0,0:0:0:0:
160,192,64430,1,0,0:0:0:0:
256,192,64541,1,10,0:0:0:0:
352,192,64653,1,0,0:0:0:0:
256,192,64764,1,2,0:0:0:0:
64,192,64877,1,0,0:0:0:0:
160,192,64988,1,10,0:0:0:0:
64,192,65101,1,0,0:0:0:0:
368,192,65213,6,0,L|192:96,1,198.000006042481,2|8,1:2|0:0,0:0:0:0:
336,80,65549,1,2,0:2:0:0:
144,192,65661,2,0,L|320:96,1,198.000006042481,0|10,1:0|0:2,0:0:0:0:
176,80,65997,1,0,0:0:0:0:
416,80,66109,2,0,P|448:144|416:272,1,198.000006042481,0|10,1:2|0:0,0:0:0:0:
320,272,66444,1,0,0:0:0:0:
96,80,66556,2,0,P|64:144|96:272,1,198.000006042481,2|10,1:2|0:2,0:0:0:0:
192,272,66891,1,0,0:0:0:0:
448,272,67004,6,0,L|240:272,1,198.000006042481,2|8,1:2|0:0,0:0:0:0:
48,272,67340,1,0,0:0:0:0:
144,272,67452,1,2,1:2:0:0:
384,240,67564,1,0,0:0:0:0:
288,240,67676,1,8,0:0:0:0:
48,240,67788,1,2,0:2:0:0:
144,240,67900,1,0,0:0:0:0:
384,208,68012,1,0,0:0:0:0:
288,208,68124,1,8,0:0:0:0:
384,208,68235,1,0,0:0:0:0:
48,192,68347,2,0,L|16:96,1,99.0000030212403,2|0,1:2|0:0,0:0:0:0:
464,192,68571,2,0,L|496:288,1,99.0000030212403,10|0,0:0|0:0,0:0:0:0:
96,288,68795,6,0,L|304:288,1,198.000006042481,2|8,1:2|0:0,0:0:0:0:
144,288,69131,1,0,0:0:0:0:
384,288,69243,1,0,1:0:0:0:
432,288,69298,1,0,0:0:0:0:
384,288,69355,1,0,0:0:0:0:
208,288,69467,1,8,0:0:0:0:
304,288,69579,1,0,0:0:0:0:
128,288,69691,1,2,1:2:0:0:
80,288,69746,1,0,0:0:0:0:
128,288,69803,1,0,0:0:0:0:
304,288,69915,1,8,0:0:0:0:
208,288,70027,1,0,0:0:0:0:
400,288,70138,5,2,1:2:0:0:
433,251,70193,1,0,0:0:0:0:
448,204,70249,1,0,0:0:0:0:
442,156,70305,1,0,0:0:0:0:
417,113,70361,1,8,0:0:0:0:
368,96,70418,1,0,0:0:0:0:
318,96,70473,1,0,0:0:0:0:
80,96,70586,6,0,P|64:176|64:208,1,101.250003862381,0|0,1:0|0:0,0:0:0:0:
240,240,70810,2,0,L|368:240,1,116.999994644165,8|0,0:0|0:0,0:0:0:0:
128,240,71034,1,4,1:2:0:0:
45,157,71145,1,0,0:0:0:0:
288,144,71258,1,8,0:0:0:0:
400,144,71370,1,0,0:0:0:0:
160,144,71482,2,0,L|288:144,1,99.0000030212403,2|0,1:2|0:0,0:0:0:0:
64,144,71706,2,0,L|192:144,1,99.0000030212403,10|0,0:0|0:0,0:0:0:0:
368,144,71930,2,0,L|224:144,1,99.0000030212403,2|0,1:2|0:0,0:0:0:0:
464,144,72153,2,0,L|336:144,1,99.0000030212403,10|0,0:0|0:0,0:0:0:0:
160,144,72377,6,0,B|192:256|192:256|288:256,1,198.000006042481,4|8,1:2|0:0,0:0:0:0:
480,256,72713,1,0,0:0:0:0:
128,144,72825,2,0,B|160:256|160:256|288:256,1,233.999989288331,4|8,1:2|0:0,0:0:0:0:
480,256,73161,1,0,0:0:0:0:
96,144,73273,2,0,B|128:256|128:256|304:256,1,270.000010299683,4|8,1:2|0:0,0:0:0:0:
480,256,73609,1,0,0:0:0:0:
64,144,73721,2,0,B|96:256|96:256|320:256,1,306.000005836487,4|8,1:2|0:0,0:0:0:0:
480,256,74057,1,0,0:0:0:0:
32,144,74168,2,0,B|64:256|64:256|272:256,1,315.000003004074,4|8,1:2|0:0,0:0:0:0:
480,256,74504,1,0,0:0:0:0:
400,256,74616,1,0,1:0:0:0:
160,256,74728,6,0,L|48:256,1,99.0000030212403,0|10,0:0|0:0,0:0:0:0:
160,128,74952,1,0,0:0:0:0:
400,128,75064,2,0,L|301:128,1,99.0000030212403,2|0,1:2|0:0,0:0:0:0:
96,128,75288,2,0,L|16:48,1,99.0000030212403,8|0,0:0|0:0,0:0:0:0:
224,48,75512,2,0,L|336:48,1,99.0000030212403,2|0,1:2|0:0,0:0:0:0:
224,48,75735,2,0,L|112:48,1,99.0000030212403,10|0,0:0|0:0,0:0:0:0:
416,128,75959,2,0,L|496:48,1,99.0000030212403,2|0,1:2|0:0,0:0:0:0:
25,57,76183,2,0,L|96:128,1,99.0000030212403,8|0,0:0|0:0,0:0:0:0:
416,128,76407,2,0,L|288:128,1,99.0000030212403,0|0,1:0|0:0,0:0:0:0:
96,128,76631,2,0,L|224:128,1,99.0000030212403,8|0,0:0|0:0,0:0:0:0:
448,128,76855,5,0,1:0:0:0:
448,227,76966,1,8,0:0:0:0:
144,224,77079,1,2,0:0:0:0:
144,125,77190,1,8,0:0:0:0:
368,259,77303,1,10,0:0:0:0:
368,160,77414,1,0,0:0:0:0:
64,157,77527,1,10,0:0:0:0:
64,256,77638,1,0,0:0:0:0:
432,208,77750,6,0,L|224:208,1,198.000006042481,6|0,1:2|1:2,0:0:0:0:
336,208,78086,1,0,0:0:0:0:
96,208,78198,2,0,L|304:208,1,198.000006042481,10|0,0:0|0:0,0:0:0:0:
400,208,78534,1,0,0:0:0:0:
80,208,78646,2,0,L|288:208,1,198.000006042481,2|0,1:2|1:2,0:0:0:0:
176,208,78982,1,0,0:0:0:0:
416,208,79094,2,0,L|208:208,1,198.000006042481,10|0,0:0|0:0,0:0:0:0:
112,208,79430,1,0,0:0:0:0:
416,208,79541,2,0,L|192:208,1,198.000006042481,2|0,1:2|1:0,0:0:0:0:
112,208,79877,1,0,0:0:0:0:
352,208,79989,6,0,L|176:208,1,148.50000453186,8|0,0:0|0:0,0:0:0:0:
400,208,80213,2,0,L|512:208,1,99.0000030212403,2|0,0:0|0:0,0:0:0:0:
176,208,80437,2,0,L|80:208,1,72,0|0,0:0|0:0,0:0:0:0:
448,208,80661,2,0,L|272:208,1,135.000005149842,8|0,1:2|0:0,0:0:0:0:
32,144,80885,2,0,L|224:144,1,153.000002918243,8|0,1:2|0:0,0:0:0:0:
448,144,81109,2,0,L|496:336,1,170.999995433807,8|0,1:2|0:0,0:0:0:0:
240,320,81333,6,0,P|144:256|384:160,2,561.60001885254,4|4|4,1:2|1:2|1:2,0:0:0:0:
384,320,83347,5,0,0:0:0:0:
96,224,83571,2,0,L|156:224,1,60,0|0,0:0|0:0,0:0:0:0:
304,224,83907,2,0,L|368:224,1,60,0|0,0:0|0:0,0:0:0:0:
192,192,84243,2,0,L|160:192,1,30,0|0,0:0|0:0,0:0:0:0:
336,192,84467,2,0,L|368:192,1,30,0|0,0:0|0:0,0:0:0:0:
64,192,84691,2,0,L|96:192,1,30,0|0,0:0|0:0,0:0:0:0:
464,48,84915,6,0,P|464:176|416:352,1,306.000005836487,10|0,1:2|0:0,0:0:0:0:
96,192,85250,2,0,L|416:192,1,306.000005836487,10|0,1:2|0:0,0:0:0:0:
48,48,85586,6,0,L|160:160,1,153.000002918243,2|0,1:2|0:0,0:0:0:0:
480,160,85810,2,0,L|336:160,1,138.461538461538,12|0,1:2|0:0,0:0:0:0:
