osu file format v14

[General]
AudioFilename: adrenalinemp3.mp3
AudioLeadIn: 0
PreviewTime: 48329
Countdown: 0
SampleSet: Soft
StackLeniency: 0.7
Mode: 3
LetterboxInBreaks: 0
SpecialStyle: 0
WidescreenStoryboard: 0

[Editor]
DistanceSpacing: 1.26
BeatDivisor: 4
GridSize: 8
TimelineZoom: 1.8

[Metadata]
Title:adrenaline!!! -TV Ver-
TitleUnicode:adrenaline!!! -TV Ver-
Artist:TrySail
ArtistUnicode:TrySail
Creator:- Ly0572 -
Version:Amii's MX
Source:エロマンガ先生
Tags:Eromanga-sensei Ending Theme ED JPop Syadow- Amiichii
BeatmapID:1288682
BeatmapSetID:610333

[Difficulty]
HPDrainRate:8
CircleSize:4
OverallDifficulty:8
ApproachRate:5
SliderMultiplier:1.4
SliderTickRate:1

[Events]
//Background and Video events
0,0,"bg1.png",0,0
Video,-243,"Eromanga vid.avi"
//Break Periods
//Storyboard Layer 0 (Background)
//Storyboard Layer 1 (Fail)
//Storyboard Layer 2 (Pass)
//Storyboard Layer 3 (Foreground)
//Storyboard Sound Samples

[TimingPoints]
755,223.880597014925,4,2,1,40,1,0
49113,-100,4,2,1,80,0,1
76874,-100,4,2,1,40,0,0

[HitObjects]
192,192,419,5,2,0:0:0:0:
320,192,419,1,0,0:0:0:0:
64,192,531,1,8,0:0:0:0:
320,192,531,1,0,0:0:0:0:
448,192,531,1,0,0:0:0:0:
448,192,755,5,2,0:0:0:0:
64,192,755,128,4,866:0:0:0:0:
192,192,755,128,0,866:0:0:0:0:
320,192,978,128,0,1090:0:0:0:0:
192,192,978,128,0,1090:0:0:0:0:
448,192,1202,128,0,1314:0:0:0:0:
320,192,1202,128,0,1314:0:0:0:0:
64,192,1426,128,0,1538:0:0:0:0:
192,192,1426,128,0,1538:0:0:0:0:
320,192,1650,128,0,1762:0:0:0:0:
64,192,1650,128,0,1762:0:0:0:0:
192,192,1874,128,0,1986:0:0:0:0:
448,192,1874,128,0,1986:0:0:0:0:
448,192,2098,128,0,2210:0:0:0:0:
320,192,2098,128,0,2210:0:0:0:0:
192,192,2322,128,2,2434:0:0:0:0:
64,192,2322,128,0,2434:0:0:0:0:
320,192,2546,1,2,0:0:0:0:
64,192,2546,128,0,2657:0:0:0:0:
448,192,2546,128,4,2657:0:0:0:0:
192,192,2769,128,0,2881:0:0:0:0:
448,192,2769,128,0,2881:0:0:0:0:
320,192,2993,128,0,3105:0:0:0:0:
448,192,2993,128,0,3105:0:0:0:0:
192,192,3217,128,0,3329:0:0:0:0:
64,192,3217,128,0,3329:0:0:0:0:
64,192,3441,128,0,3553:0:0:0:0:
320,192,3441,128,0,3553:0:0:0:0:
192,192,3665,128,0,3777:0:0:0:0:
448,192,3665,128,0,3777:0:0:0:0:
448,192,3889,128,0,4001:0:0:0:0:
320,192,3889,128,0,4001:0:0:0:0:
64,192,4113,128,0,4225:0:0:0:0:
192,192,4113,128,2,4225:0:0:0:0:
64,192,4337,128,4,4449:0:0:0:0:
320,192,4337,1,2,0:0:0:0:
448,192,4337,128,0,4449:0:0:0:0:
320,192,4449,128,0,4560:0:0:0:0:
192,192,4560,128,0,4672:0:0:0:0:
64,192,4560,128,0,4672:0:0:0:0:
448,192,4784,128,8,4896:0:0:0:0:
320,192,4784,128,0,4896:0:0:0:0:
192,192,4896,1,8,0:0:0:0:
64,192,5008,128,8,5120:0:0:0:0:
448,192,5008,128,0,5120:0:0:0:0:
192,192,5120,1,8,0:0:0:0:
320,192,5232,1,8,0:0:0:0:
448,192,5232,1,0,0:0:0:0:
192,192,5344,1,8,0:0:0:0:
64,192,5344,1,0,0:0:0:0:
320,192,5456,1,8,0:0:0:0:
448,192,5456,1,0,0:0:0:0:
192,192,5568,1,8,0:0:0:0:
64,192,5568,1,0,0:0:0:0:
320,192,5680,1,8,0:0:0:0:
448,192,5680,1,0,0:0:0:0:
192,192,5792,1,8,0:0:0:0:
64,192,5792,1,0,0:0:0:0:
320,192,5904,1,8,0:0:0:0:
448,192,5904,1,0,0:0:0:0:
192,192,6016,1,8,0:0:0:0:
64,192,6016,1,0,0:0:0:0:
320,192,6128,128,8,6240:0:0:0:0:
448,192,6128,128,2,6240:0:0:0:0:
448,192,6463,128,2,6575:0:0:0:0:
192,192,6463,128,8,6575:0:0:0:0:
64,192,6799,128,8,6911:0:0:0:0:
320,192,6799,128,2,6911:0:0:0:0:
64,192,7023,128,2,7247:0:0:0:0:
448,192,7023,128,8,7247:0:0:0:0:
192,192,7247,1,2,0:0:0:0:
64,192,7471,1,4,0:0:0:0:
320,192,7471,1,2,0:0:0:0:
448,192,7471,128,8,7919:0:0:0:0:
192,192,7695,1,0,0:0:0:0:
64,192,7919,1,4,0:0:0:0:
320,192,7919,1,2,0:0:0:0:
192,192,7919,1,0,0:0:0:0:
192,192,8143,1,8,0:0:0:0:
448,192,8143,1,0,0:0:0:0:
192,192,8366,1,2,0:0:0:0:
64,192,8366,128,0,8478:0:0:0:0:
320,192,8478,1,2,0:0:0:0:
448,192,8478,128,0,8590:0:0:0:0:
192,192,8590,1,8,0:0:0:0:
64,192,8590,1,0,0:0:0:0:
320,192,8702,128,0,8926:0:0:0:0:
448,192,8814,1,2,0:0:0:0:
64,192,8814,1,0,0:0:0:0:
192,192,9038,1,8,0:0:0:0:
448,192,9038,128,0,9150:0:0:0:0:
64,192,9262,128,2,9374:0:0:0:0:
320,192,9262,1,0,0:0:0:0:
192,192,9374,1,2,0:0:0:0:
448,192,9374,1,0,0:0:0:0:
64,192,9486,1,8,0:0:0:0:
320,192,9486,128,0,9598:0:0:0:0:
192,192,9710,1,2,0:0:0:0:
448,192,9710,128,0,9822:0:0:0:0:
320,192,9934,1,8,0:0:0:0:
64,192,9934,128,0,10046:0:0:0:0:
448,192,10157,128,2,10269:0:0:0:0:
192,192,10157,1,0,0:0:0:0:
320,192,10269,1,2,0:0:0:0:
64,192,10269,128,0,10381:0:0:0:0:
448,192,10381,1,8,0:0:0:0:
192,192,10381,1,0,0:0:0:0:
320,192,10493,128,0,10717:0:0:0:0:
192,192,10605,1,2,0:0:0:0:
64,192,10605,1,0,0:0:0:0:
64,192,10829,1,8,0:0:0:0:
448,192,10829,128,0,10941:0:0:0:0:
320,192,11053,1,2,0:0:0:0:
192,192,11053,128,0,11165:0:0:0:0:
64,192,11165,1,2,0:0:0:0:
448,192,11165,1,0,0:0:0:0:
320,192,11277,128,8,11389:0:0:0:0:
192,192,11277,1,0,0:0:0:0:
64,192,11501,1,2,0:0:0:0:
448,192,11501,1,0,0:0:0:0:
64,192,11725,1,8,0:0:0:0:
192,192,11725,1,0,0:0:0:0:
320,192,11949,1,2,0:0:0:0:
448,192,11949,128,0,12060:0:0:0:0:
192,192,12060,1,2,0:0:0:0:
64,192,12060,128,0,12172:0:0:0:0:
320,192,12172,1,8,0:0:0:0:
448,192,12172,1,0,0:0:0:0:
192,192,12284,128,0,12508:0:0:0:0:
448,192,12396,1,2,0:0:0:0:
320,192,12396,1,0,0:0:0:0:
64,192,12620,1,8,0:0:0:0:
320,192,12620,128,0,12732:0:0:0:0:
448,192,12844,1,2,0:0:0:0:
64,192,12844,128,0,12956:0:0:0:0:
192,192,12956,1,2,0:0:0:0:
320,192,12956,1,0,0:0:0:0:
64,192,13068,1,8,0:0:0:0:
448,192,13068,128,0,13180:0:0:0:0:
320,192,13292,1,2,0:0:0:0:
192,192,13292,128,0,13404:0:0:0:0:
64,192,13516,1,8,0:0:0:0:
448,192,13516,128,0,13628:0:0:0:0:
192,192,13740,128,2,13852:0:0:0:0:
64,192,13740,1,0,0:0:0:0:
448,192,13852,128,0,13963:0:0:0:0:
320,192,13852,1,2,0:0:0:0:
192,192,13963,1,8,0:0:0:0:
64,192,13963,1,0,0:0:0:0:
320,192,14075,128,0,14187:0:0:0:0:
64,192,14187,1,2,0:0:0:0:
448,192,14187,1,0,0:0:0:0:
320,192,14299,1,2,0:0:0:0:
192,192,14299,1,0,0:0:0:0:
448,192,14411,1,8,0:0:0:0:
64,192,14411,1,0,0:0:0:0:
320,192,14523,1,8,0:0:0:0:
192,192,14523,1,0,0:0:0:0:
448,192,14635,1,8,0:0:0:0:
64,192,14635,1,0,0:0:0:0:
320,192,14747,1,8,0:0:0:0:
192,192,14747,1,0,0:0:0:0:
448,192,14859,1,8,0:0:0:0:
64,192,14859,1,0,0:0:0:0:
192,192,14971,1,0,0:0:0:0:
64,192,15083,1,2,0:0:0:0:
448,192,15083,1,8,0:0:0:0:
320,192,15083,1,4,0:0:0:0:
192,192,15419,1,0,0:0:0:0:
448,192,15531,128,2,15643:0:0:0:0:
320,192,15754,1,0,0:0:0:0:
64,192,15866,128,2,15978:0:0:0:0:
448,192,16090,128,0,16202:0:0:0:0:
192,192,16202,1,2,0:0:0:0:
320,192,16314,128,0,16426:0:0:0:0:
64,192,16426,1,8,0:0:0:0:
448,192,16426,128,0,16762:0:0:0:0:
320,192,16650,128,0,16762:0:0:0:0:
192,192,16874,1,4,0:0:0:0:
64,192,16874,1,2,0:0:0:0:
320,192,16874,1,0,0:0:0:0:
448,192,17098,1,8,0:0:0:0:
320,192,17098,1,0,0:0:0:0:
192,192,17210,128,0,17322:0:0:0:0:
64,192,17322,1,2,0:0:0:0:
448,192,17322,1,0,0:0:0:0:
192,192,17434,1,2,0:0:0:0:
320,192,17434,128,0,17546:0:0:0:0:
64,192,17546,1,8,0:0:0:0:
448,192,17546,1,0,0:0:0:0:
192,192,17657,128,0,17769:0:0:0:0:
320,192,17769,1,2,0:0:0:0:
64,192,17769,1,0,0:0:0:0:
448,192,17881,128,0,17993:0:0:0:0:
192,192,17993,1,8,0:0:0:0:
320,192,17993,1,0,0:0:0:0:
64,192,18105,128,0,18217:0:0:0:0:
448,192,18217,1,2,0:0:0:0:
320,192,18329,1,2,0:0:0:0:
192,192,18329,128,0,18441:0:0:0:0:
448,192,18441,1,8,0:0:0:0:
64,192,18441,128,0,18553:0:0:0:0:
320,192,18553,128,0,18665:0:0:0:0:
64,192,18665,1,2,0:0:0:0:
192,192,18665,128,0,18777:0:0:0:0:
320,192,18889,1,8,0:0:0:0:
448,192,18889,1,0,0:0:0:0:
64,192,19001,128,0,19113:0:0:0:0:
320,192,19113,1,2,0:0:0:0:
192,192,19113,1,0,0:0:0:0:
64,192,19225,1,2,0:0:0:0:
448,192,19225,128,0,19337:0:0:0:0:
192,192,19337,1,8,0:0:0:0:
320,192,19337,1,0,0:0:0:0:
64,192,19449,128,0,19560:0:0:0:0:
448,192,19560,1,2,0:0:0:0:
320,192,19560,1,0,0:0:0:0:
192,192,19672,128,0,19784:0:0:0:0:
64,192,19784,1,8,0:0:0:0:
448,192,19784,1,0,0:0:0:0:
320,192,19896,128,0,20008:0:0:0:0:
64,192,20008,1,2,0:0:0:0:
192,192,20008,1,0,0:0:0:0:
320,192,20120,1,2,0:0:0:0:
448,192,20120,128,0,20232:0:0:0:0:
64,192,20232,1,8,0:0:0:0:
192,192,20232,128,0,20456:0:0:0:0:
320,192,20456,1,2,0:0:0:0:
64,192,20456,128,0,20568:0:0:0:0:
448,192,20680,1,8,0:0:0:0:
320,192,20680,1,0,0:0:0:0:
192,192,20792,128,0,20904:0:0:0:0:
64,192,20904,1,2,0:0:0:0:
448,192,20904,1,0,0:0:0:0:
192,192,21016,1,2,0:0:0:0:
320,192,21016,128,0,21128:0:0:0:0:
448,192,21128,1,8,0:0:0:0:
64,192,21128,1,0,0:0:0:0:
192,192,21240,128,0,21352:0:0:0:0:
320,192,21352,1,2,0:0:0:0:
64,192,21352,1,0,0:0:0:0:
448,192,21463,128,0,21575:0:0:0:0:
192,192,21575,1,8,0:0:0:0:
320,192,21575,1,0,0:0:0:0:
64,192,21687,128,0,21799:0:0:0:0:
448,192,21799,1,2,0:0:0:0:
192,192,21799,1,0,0:0:0:0:
64,192,21911,1,2,0:0:0:0:
320,192,21911,128,0,22023:0:0:0:0:
192,192,22023,1,8,0:0:0:0:
448,192,22023,128,0,22247:0:0:0:0:
320,192,22247,1,2,0:0:0:0:
64,192,22247,128,0,22359:0:0:0:0:
192,192,22471,1,8,0:0:0:0:
448,192,22471,1,0,0:0:0:0:
320,192,22583,1,0,0:0:0:0:
64,192,22695,128,2,23143:0:0:0:0:
448,192,22695,1,0,0:0:0:0:
192,192,22807,1,2,0:0:0:0:
320,192,22919,1,8,0:0:0:0:
448,192,22919,1,0,0:0:0:0:
192,192,23143,128,2,23590:0:0:0:0:
320,192,23143,1,0,0:0:0:0:
448,192,23366,1,8,0:0:0:0:
64,192,23366,1,0,0:0:0:0:
320,192,23478,1,0,0:0:0:0:
448,192,23590,128,2,24038:0:0:0:0:
64,192,23590,1,0,0:0:0:0:
320,192,23702,1,2,0:0:0:0:
192,192,23814,1,8,0:0:0:0:
64,192,23814,1,0,0:0:0:0:
320,192,24038,1,2,0:0:0:0:
192,192,24038,1,0,0:0:0:0:
448,192,24262,1,8,0:0:0:0:
64,192,24262,1,4,0:0:0:0:
320,192,24262,1,0,0:0:0:0:
64,192,24486,1,2,0:0:0:0:
192,192,24486,1,0,0:0:0:0:
320,192,24598,128,2,24710:0:0:0:0:
448,192,24598,1,0,0:0:0:0:
192,192,24710,1,8,0:0:0:0:
64,192,24710,1,0,0:0:0:0:
192,192,24822,128,0,24934:0:0:0:0:
448,192,24934,1,2,0:0:0:0:
320,192,24934,1,0,0:0:0:0:
64,192,25046,128,0,25157:0:0:0:0:
192,192,25157,1,8,0:0:0:0:
320,192,25157,1,0,0:0:0:0:
448,192,25269,128,0,25381:0:0:0:0:
64,192,25381,1,2,0:0:0:0:
192,192,25381,1,0,0:0:0:0:
448,192,25493,1,2,0:0:0:0:
320,192,25493,128,0,25605:0:0:0:0:
64,192,25605,1,8,0:0:0:0:
192,192,25605,128,0,25829:0:0:0:0:
320,192,25829,1,2,0:0:0:0:
448,192,25829,128,0,25941:0:0:0:0:
64,192,26053,1,8,0:0:0:0:
320,192,26053,1,0,0:0:0:0:
192,192,26165,128,0,26277:0:0:0:0:
320,192,26277,1,2,0:0:0:0:
448,192,26277,1,0,0:0:0:0:
192,192,26389,1,2,0:0:0:0:
64,192,26389,128,0,26501:0:0:0:0:
448,192,26501,1,8,0:0:0:0:
320,192,26501,1,0,0:0:0:0:
192,192,26613,128,0,26725:0:0:0:0:
64,192,26725,1,2,0:0:0:0:
448,192,26725,1,0,0:0:0:0:
320,192,26837,128,0,26949:0:0:0:0:
64,192,26949,128,8,27172:0:0:0:0:
192,192,26949,1,0,0:0:0:0:
448,192,27060,1,0,0:0:0:0:
192,192,27172,128,2,27396:0:0:0:0:
320,192,27172,1,0,0:0:0:0:
448,192,27284,1,2,0:0:0:0:
320,192,27396,128,8,27620:0:0:0:0:
64,192,27396,1,0,0:0:0:0:
448,192,27620,128,4,28516:0:0:0:0:
192,192,27620,1,2,0:0:0:0:
64,192,27620,1,0,0:0:0:0:
192,192,27844,1,8,0:0:0:0:
320,192,27844,1,0,0:0:0:0:
64,192,28068,1,2,0:0:0:0:
320,192,28180,1,2,0:0:0:0:
64,192,28292,1,8,0:0:0:0:
192,192,28292,1,0,0:0:0:0:
192,192,28516,128,2,29411:0:0:0:0:
320,192,28516,1,4,0:0:0:0:
64,192,28516,1,0,0:0:0:0:
448,192,28740,1,8,0:0:0:0:
64,192,28740,1,0,0:0:0:0:
320,192,28963,1,2,0:0:0:0:
64,192,29075,1,2,0:0:0:0:
320,192,29187,1,8,0:0:0:0:
448,192,29187,1,0,0:0:0:0:
64,192,29411,1,2,0:0:0:0:
448,192,29411,1,0,0:0:0:0:
320,192,29635,1,4,0:0:0:0:
448,192,29635,1,8,0:0:0:0:
64,192,29635,128,0,29747:0:0:0:0:
64,192,29859,1,8,0:0:0:0:
192,192,29859,128,0,29971:0:0:0:0:
448,192,29971,1,8,0:0:0:0:
320,192,29971,128,0,30083:0:0:0:0:
192,192,30083,1,0,0:0:0:0:
64,192,30195,1,8,0:0:0:0:
448,192,30195,128,0,30419:0:0:0:0:
320,192,30307,1,2,0:0:0:0:
64,192,30419,1,8,0:0:0:0:
192,192,30419,1,0,0:0:0:0:
320,192,30531,128,0,30643:0:0:0:0:
64,192,30643,1,8,0:0:0:0:
192,192,30643,1,0,0:0:0:0:
320,192,30754,1,8,0:0:0:0:
448,192,30754,1,0,0:0:0:0:
64,192,30866,1,8,0:0:0:0:
192,192,30866,1,0,0:0:0:0:
320,192,30978,1,8,0:0:0:0:
448,192,30978,1,0,0:0:0:0:
192,192,31090,1,8,0:0:0:0:
320,192,31202,1,2,0:0:0:0:
64,192,31202,128,4,31426:0:0:0:0:
448,192,31202,1,0,0:0:0:0:
192,192,31426,1,8,0:0:0:0:
448,192,31426,128,0,31538:0:0:0:0:
64,192,31650,1,2,0:0:0:0:
320,192,31650,128,0,31874:0:0:0:0:
448,192,31762,1,2,0:0:0:0:
64,192,31874,1,8,0:0:0:0:
192,192,31874,128,0,31986:0:0:0:0:
448,192,32098,128,2,32322:0:0:0:0:
320,192,32098,1,0,0:0:0:0:
192,192,32322,1,8,0:0:0:0:
64,192,32322,128,0,32434:0:0:0:0:
448,192,32546,1,2,0:0:0:0:
320,192,32546,128,0,32769:0:0:0:0:
64,192,32657,1,2,0:0:0:0:
192,192,32769,1,8,0:0:0:0:
448,192,32769,128,0,32881:0:0:0:0:
64,192,32993,128,2,33217:0:0:0:0:
192,192,32993,1,0,0:0:0:0:
448,192,33217,1,8,0:0:0:0:
320,192,33217,128,0,33329:0:0:0:0:
192,192,33441,1,2,0:0:0:0:
64,192,33441,1,0,0:0:0:0:
320,192,33553,1,2,0:0:0:0:
448,192,33553,1,0,0:0:0:0:
192,192,33665,1,8,0:0:0:0:
64,192,33665,128,0,33777:0:0:0:0:
320,192,33889,1,2,0:0:0:0:
448,192,33889,128,0,34001:0:0:0:0:
192,192,34113,128,8,34225:0:0:0:0:
64,192,34113,1,0,0:0:0:0:
448,192,34337,128,2,34449:0:0:0:0:
64,192,34337,1,0,0:0:0:0:
192,192,34449,1,2,0:0:0:0:
320,192,34449,1,0,0:0:0:0:
448,192,34560,1,8,0:0:0:0:
64,192,34560,128,0,34672:0:0:0:0:
320,192,34784,1,2,0:0:0:0:
192,192,34784,128,0,35008:0:0:0:0:
64,192,35008,1,8,0:0:0:0:
448,192,35008,128,0,35120:0:0:0:0:
320,192,35232,128,2,35456:0:0:0:0:
192,192,35232,1,0,0:0:0:0:
448,192,35344,1,2,0:0:0:0:
192,192,35456,1,8,0:0:0:0:
64,192,35456,128,0,35568:0:0:0:0:
448,192,35680,128,2,35904:0:0:0:0:
320,192,35680,1,0,0:0:0:0:
64,192,35904,1,8,0:0:0:0:
192,192,35904,128,0,36016:0:0:0:0:
64,192,36128,128,2,36352:0:0:0:0:
448,192,36128,1,0,0:0:0:0:
192,192,36240,1,2,0:0:0:0:
320,192,36352,1,8,0:0:0:0:
448,192,36352,128,0,36463:0:0:0:0:
192,192,36575,128,2,36799:0:0:0:0:
320,192,36575,1,0,0:0:0:0:
448,192,36799,1,8,0:0:0:0:
64,192,36799,128,0,36911:0:0:0:0:
320,192,37023,1,2,0:0:0:0:
448,192,37023,1,0,0:0:0:0:
192,192,37135,1,2,0:0:0:0:
64,192,37135,1,0,0:0:0:0:
448,192,37247,1,8,0:0:0:0:
320,192,37247,128,0,37359:0:0:0:0:
64,192,37471,1,2,0:0:0:0:
192,192,37471,1,0,0:0:0:0:
320,192,37583,1,8,0:0:0:0:
448,192,37583,1,0,0:0:0:0:
64,192,37695,128,2,37807:0:0:0:0:
320,192,37919,1,8,0:0:0:0:
192,192,37919,1,0,0:0:0:0:
64,192,38143,1,8,0:0:0:0:
448,192,38143,1,0,0:0:0:0:
320,192,38254,1,0,0:0:0:0:
448,192,38366,1,2,0:0:0:0:
192,192,38366,1,4,0:0:0:0:
64,192,38366,128,0,38478:0:0:0:0:
320,192,38478,128,0,38590:0:0:0:0:
192,192,38590,128,2,38702:0:0:0:0:
448,192,38702,128,0,38814:0:0:0:0:
64,192,38814,128,4,39038:0:0:0:0:
192,192,38814,128,0,39038:0:0:0:0:
320,192,38814,1,8,0:0:0:0:
448,192,39038,1,0,0:0:0:0:
320,192,39150,1,0,0:0:0:0:
64,192,39262,1,2,0:0:0:0:
192,192,39262,128,0,39374:0:0:0:0:
320,192,39374,128,0,39486:0:0:0:0:
64,192,39486,128,2,39598:0:0:0:0:
448,192,39598,128,0,39710:0:0:0:0:
320,192,39710,128,0,39934:0:0:0:0:
192,192,39710,128,8,39934:0:0:0:0:
64,192,39710,1,4,0:0:0:0:
448,192,39934,1,0,0:0:0:0:
64,192,40046,1,0,0:0:0:0:
320,192,40157,128,2,40269:0:0:0:0:
448,192,40157,1,0,0:0:0:0:
64,192,40269,128,0,40381:0:0:0:0:
448,192,40381,128,2,40493:0:0:0:0:
192,192,40493,128,0,40605:0:0:0:0:
320,192,40605,128,8,40829:0:0:0:0:
448,192,40605,128,0,40829:0:0:0:0:
64,192,40605,1,4,0:0:0:0:
64,192,40829,1,0,0:0:0:0:
192,192,40941,1,0,0:0:0:0:
448,192,41053,1,2,0:0:0:0:
320,192,41053,1,4,0:0:0:0:
64,192,41053,1,0,0:0:0:0:
448,192,41277,1,0,0:0:0:0:
192,192,41389,1,2,0:0:0:0:
64,192,41389,1,4,0:0:0:0:
320,192,41389,1,0,0:0:0:0:
320,192,41613,1,0,0:0:0:0:
448,192,41725,1,0,0:0:0:0:
64,192,41725,1,2,0:0:0:0:
192,192,41725,1,4,0:0:0:0:
64,192,41949,1,4,0:0:0:0:
448,192,41949,128,2,43292:0:0:0:0:
320,192,41949,1,0,0:0:0:0:
192,192,42172,1,2,0:0:0:0:
320,192,42172,1,0,0:0:0:0:
192,192,42396,1,8,0:0:0:0:
64,192,42396,1,0,0:0:0:0:
320,192,42620,1,0,0:0:0:0:
192,192,42844,1,8,0:0:0:0:
64,192,42844,1,0,0:0:0:0:
64,192,43068,1,0,0:0:0:0:
320,192,43068,1,2,0:0:0:0:
192,192,43292,1,8,0:0:0:0:
320,192,43292,1,0,0:0:0:0:
448,192,43516,1,2,0:0:0:0:
64,192,43516,1,0,0:0:0:0:
192,192,43590,1,0,0:0:0:0:
320,192,43665,1,0,0:0:0:0:
448,192,43740,1,8,0:0:0:0:
64,192,43740,128,0,44635:0:0:0:0:
320,192,43963,1,2,0:0:0:0:
448,192,43963,1,0,0:0:0:0:
192,192,44187,1,8,0:0:0:0:
320,192,44187,1,0,0:0:0:0:
448,192,44411,1,0,0:0:0:0:
192,192,44635,1,8,0:0:0:0:
320,192,44635,128,0,45531:0:0:0:0:
448,192,44859,1,2,0:0:0:0:
64,192,44859,1,0,0:0:0:0:
192,192,45083,1,8,0:0:0:0:
448,192,45083,1,0,0:0:0:0:
192,192,45307,1,2,0:0:0:0:
64,192,45307,1,0,0:0:0:0:
64,192,45531,1,4,0:0:0:0:
192,192,45531,1,0,0:0:0:0:
448,192,45531,128,8,47098:0:0:0:0:
64,192,45754,128,2,45866:0:0:0:0:
320,192,45866,128,0,45978:0:0:0:0:
192,192,45978,128,2,46202:0:0:0:0:
64,192,46202,1,2,0:0:0:0:
320,192,46314,1,0,0:0:0:0:
192,192,46426,1,8,0:0:0:0:
64,192,46426,1,0,0:0:0:0:
320,192,46538,1,8,0:0:0:0:
192,192,46650,1,8,0:0:0:0:
64,192,46650,1,0,0:0:0:0:
320,192,46762,1,8,0:0:0:0:
192,192,46874,1,8,0:0:0:0:
64,192,46874,1,0,0:0:0:0:
320,192,46986,1,8,0:0:0:0:
64,192,47098,1,8,0:0:0:0:
192,192,47098,1,0,0:0:0:0:
320,192,47210,1,8,0:0:0:0:
448,192,47322,128,2,47434:0:0:0:0:
64,192,47322,128,8,47434:0:0:0:0:
320,192,47657,128,2,47769:0:0:0:0:
64,192,47657,128,8,47769:0:0:0:0:
192,192,47993,128,2,48105:0:0:0:0:
64,192,47993,128,8,48105:0:0:0:0:
320,192,48217,1,2,0:0:0:0:
64,192,48217,1,8,0:0:0:0:
448,192,48217,128,4,48441:0:0:0:0:
192,192,48441,1,8,0:0:0:0:
320,192,48553,1,0,0:0:0:0:
192,192,48665,1,8,0:0:0:0:
64,192,48665,1,0,0:0:0:0:
320,192,48777,1,8,0:0:0:0:
448,192,48777,1,0,0:0:0:0:
192,192,48889,1,8,0:0:0:0:
64,192,48889,1,0,0:0:0:0:
320,192,49113,1,4,0:0:0:0:
448,192,49113,1,2,0:0:0:0:
64,192,49113,1,0,0:0:0:0:
192,192,49337,1,8,0:0:0:0:
320,192,49337,1,0,0:0:0:0:
448,192,49560,1,2,0:0:0:0:
192,192,49560,1,0,0:0:0:0:
320,192,49672,1,2,0:0:0:0:
64,192,49672,1,0,0:0:0:0:
192,192,49784,1,8,0:0:0:0:
448,192,49784,1,0,0:0:0:0:
320,192,50008,1,2,0:0:0:0:
448,192,50008,1,0,0:0:0:0:
64,192,50232,1,8,0:0:0:0:
192,192,50232,1,0,0:0:0:0:
64,192,50456,1,2,0:0:0:0:
448,192,50456,1,0,0:0:0:0:
320,192,50568,1,2,0:0:0:0:
192,192,50568,1,0,0:0:0:0:
64,192,50680,1,8,0:0:0:0:
448,192,50680,1,0,0:0:0:0:
320,192,50904,128,2,51352:0:0:0:0:
64,192,50904,1,0,0:0:0:0:
448,192,51128,1,8,0:0:0:0:
192,192,51128,1,0,0:0:0:0:
64,192,51352,128,2,51799:0:0:0:0:
448,192,51352,1,0,0:0:0:0:
192,192,51463,1,2,0:0:0:0:
320,192,51575,1,8,0:0:0:0:
448,192,51575,1,0,0:0:0:0:
192,192,51799,128,2,52247:0:0:0:0:
320,192,51799,1,0,0:0:0:0:
448,192,52023,1,8,0:0:0:0:
64,192,52023,1,0,0:0:0:0:
448,192,52247,128,2,52695:0:0:0:0:
320,192,52247,1,0,0:0:0:0:
64,192,52359,1,2,0:0:0:0:
192,192,52471,1,8,0:0:0:0:
320,192,52471,1,0,0:0:0:0:
64,192,52695,128,2,54486:0:0:0:0:
192,192,52695,1,0,0:0:0:0:
320,192,52919,1,8,0:0:0:0:
448,192,52919,1,0,0:0:0:0:
192,192,53143,1,2,0:0:0:0:
320,192,53254,1,2,0:0:0:0:
448,192,53366,1,8,0:0:0:0:
192,192,53366,1,0,0:0:0:0:
448,192,53590,1,2,0:0:0:0:
320,192,53590,1,0,0:0:0:0:
192,192,53814,1,8,0:0:0:0:
320,192,53814,1,0,0:0:0:0:
448,192,54038,1,2,0:0:0:0:
192,192,54150,1,2,0:0:0:0:
320,192,54262,1,8,0:0:0:0:
448,192,54262,1,0,0:0:0:0:
192,192,54486,1,2,0:0:0:0:
320,192,54486,1,0,0:0:0:0:
448,192,54710,1,8,0:0:0:0:
192,192,54710,1,0,0:0:0:0:
448,192,54934,1,2,0:0:0:0:
64,192,54934,1,0,0:0:0:0:
192,192,55046,1,2,0:0:0:0:
320,192,55046,1,0,0:0:0:0:
64,192,55157,1,8,0:0:0:0:
448,192,55157,128,0,55381:0:0:0:0:
320,192,55269,1,0,0:0:0:0:
192,192,55381,1,2,0:0:0:0:
64,192,55381,128,0,55605:0:0:0:0:
320,192,55605,1,8,0:0:0:0:
448,192,55605,128,0,55717:0:0:0:0:
64,192,55829,1,2,0:0:0:0:
192,192,55829,128,0,55941:0:0:0:0:
448,192,55941,1,2,0:0:0:0:
64,192,56053,1,8,0:0:0:0:
320,192,56053,128,0,56165:0:0:0:0:
192,192,56277,1,4,0:0:0:0:
64,192,56277,128,2,56389:0:0:0:0:
448,192,56277,1,0,0:0:0:0:
448,192,56501,1,8,0:0:0:0:
320,192,56501,128,0,56613:0:0:0:0:
64,192,56725,1,2,0:0:0:0:
448,192,56725,1,0,0:0:0:0:
320,192,56837,1,2,0:0:0:0:
192,192,56837,1,0,0:0:0:0:
448,192,56949,1,8,0:0:0:0:
64,192,56949,128,0,57060:0:0:0:0:
320,192,57172,1,2,0:0:0:0:
192,192,57172,1,0,0:0:0:0:
64,192,57396,1,8,0:0:0:0:
448,192,57396,128,0,57508:0:0:0:0:
192,192,57620,1,2,0:0:0:0:
64,192,57620,1,0,0:0:0:0:
448,192,57732,1,2,0:0:0:0:
320,192,57732,1,0,0:0:0:0:
64,192,57844,1,8,0:0:0:0:
192,192,57844,128,0,57956:0:0:0:0:
448,192,58068,1,2,0:0:0:0:
320,192,58068,1,0,0:0:0:0:
192,192,58292,1,8,0:0:0:0:
320,192,58292,128,0,58404:0:0:0:0:
448,192,58516,1,2,0:0:0:0:
64,192,58516,1,0,0:0:0:0:
192,192,58628,1,2,0:0:0:0:
320,192,58628,1,0,0:0:0:0:
448,192,58740,1,8,0:0:0:0:
64,192,58740,128,0,58852:0:0:0:0:
448,192,58963,1,2,0:0:0:0:
320,192,58963,1,0,0:0:0:0:
64,192,59187,1,8,0:0:0:0:
192,192,59187,128,0,59299:0:0:0:0:
448,192,59411,1,2,0:0:0:0:
320,192,59411,1,0,0:0:0:0:
64,192,59523,1,2,0:0:0:0:
192,192,59523,1,0,0:0:0:0:
448,192,59635,1,8,0:0:0:0:
320,192,59635,128,0,59747:0:0:0:0:
192,192,59859,1,2,0:0:0:0:
64,192,59859,1,4,0:0:0:0:
448,192,59859,128,0,60307:0:0:0:0:
320,192,60083,1,8,0:0:0:0:
64,192,60083,1,0,0:0:0:0:
320,192,60307,128,2,60754:0:0:0:0:
192,192,60307,1,4,0:0:0:0:
64,192,60307,1,0,0:0:0:0:
448,192,60419,1,2,0:0:0:0:
192,192,60531,1,8,0:0:0:0:
64,192,60531,1,0,0:0:0:0:
192,192,60754,128,4,61202:0:0:0:0:
448,192,60754,1,0,0:0:0:0:
64,192,60754,1,2,0:0:0:0:
320,192,60978,1,8,0:0:0:0:
448,192,60978,1,0,0:0:0:0:
448,192,61202,1,2,0:0:0:0:
320,192,61202,1,4,0:0:0:0:
64,192,61202,128,0,61650:0:0:0:0:
192,192,61314,1,2,0:0:0:0:
320,192,61426,1,8,0:0:0:0:
448,192,61426,1,0,0:0:0:0:
192,192,61650,128,2,61874:0:0:0:0:
448,192,61650,1,4,0:0:0:0:
320,192,61874,1,8,0:0:0:0:
64,192,61874,1,0,0:0:0:0:
448,192,61986,128,0,62210:0:0:0:0:
64,192,62098,1,2,0:0:0:0:
320,192,62210,1,2,0:0:0:0:
192,192,62322,1,8,0:0:0:0:
64,192,62322,128,0,62546:0:0:0:0:
448,192,62434,1,8,0:0:0:0:
320,192,62434,1,0,0:0:0:0:
192,192,62546,1,2,0:0:0:0:
64,192,62657,1,8,0:0:0:0:
448,192,62657,1,0,0:0:0:0:
320,192,62769,1,2,0:0:0:0:
192,192,62881,1,8,0:0:0:0:
64,192,62881,1,0,0:0:0:0:
320,192,62993,1,8,0:0:0:0:
448,192,62993,1,0,0:0:0:0:
192,192,63105,1,2,0:0:0:0:
64,192,63105,1,0,0:0:0:0:
320,192,63217,1,8,0:0:0:0:
448,192,63217,1,0,0:0:0:0:
448,192,63441,1,2,0:0:0:0:
192,192,63441,1,4,0:0:0:0:
64,192,63441,1,0,0:0:0:0:
320,192,63665,1,8,0:0:0:0:
64,192,63665,1,0,0:0:0:0:
448,192,63889,1,2,0:0:0:0:
320,192,63889,1,0,0:0:0:0:
192,192,64001,1,2,0:0:0:0:
64,192,64001,1,0,0:0:0:0:
448,192,64113,1,8,0:0:0:0:
320,192,64113,1,0,0:0:0:0:
192,192,64337,1,2,0:0:0:0:
448,192,64337,1,0,0:0:0:0:
64,192,64560,1,8,0:0:0:0:
320,192,64560,1,0,0:0:0:0:
448,192,64784,1,2,0:0:0:0:
64,192,64784,1,0,0:0:0:0:
320,192,64896,1,2,0:0:0:0:
192,192,64896,1,0,0:0:0:0:
448,192,65008,1,8,0:0:0:0:
64,192,65008,1,0,0:0:0:0:
192,192,65232,128,2,65680:0:0:0:0:
448,192,65232,1,0,0:0:0:0:
64,192,65456,1,8,0:0:0:0:
320,192,65456,1,0,0:0:0:0:
64,192,65680,1,2,0:0:0:0:
448,192,65680,128,0,66128:0:0:0:0:
320,192,65792,1,2,0:0:0:0:
64,192,65904,1,8,0:0:0:0:
192,192,65904,1,0,0:0:0:0:
192,192,66128,1,2,0:0:0:0:
320,192,66128,128,0,66575:0:0:0:0:
64,192,66352,1,8,0:0:0:0:
448,192,66352,1,0,0:0:0:0:
64,192,66575,128,2,67023:0:0:0:0:
192,192,66575,1,0,0:0:0:0:
448,192,66687,1,2,0:0:0:0:
320,192,66799,1,8,0:0:0:0:
192,192,66799,1,0,0:0:0:0:
320,192,67023,1,2,0:0:0:0:
448,192,67023,128,0,68814:0:0:0:0:
192,192,67247,1,8,0:0:0:0:
64,192,67247,1,0,0:0:0:0:
320,192,67471,1,2,0:0:0:0:
64,192,67583,1,2,0:0:0:0:
192,192,67695,1,8,0:0:0:0:
320,192,67695,1,0,0:0:0:0:
64,192,67919,1,2,0:0:0:0:
192,192,67919,1,0,0:0:0:0:
64,192,68143,1,8,0:0:0:0:
320,192,68143,1,0,0:0:0:0:
192,192,68366,1,2,0:0:0:0:
320,192,68478,1,2,0:0:0:0:
64,192,68590,1,8,0:0:0:0:
192,192,68590,1,0,0:0:0:0:
320,192,68814,1,2,0:0:0:0:
64,192,68814,1,0,0:0:0:0:
192,192,69038,1,8,0:0:0:0:
320,192,69038,1,0,0:0:0:0:
448,192,69262,1,2,0:0:0:0:
64,192,69262,128,0,69710:0:0:0:0:
192,192,69374,1,2,0:0:0:0:
320,192,69486,1,8,0:0:0:0:
448,192,69486,1,0,0:0:0:0:
320,192,69710,128,2,70157:0:0:0:0:
192,192,69710,1,0,0:0:0:0:
192,192,69934,1,8,0:0:0:0:
64,192,69934,1,0,0:0:0:0:
64,192,70157,1,2,0:0:0:0:
448,192,70157,128,0,70605:0:0:0:0:
192,192,70269,1,2,0:0:0:0:
64,192,70381,1,8,0:0:0:0:
320,192,70381,1,0,0:0:0:0:
64,192,70605,1,2,0:0:0:0:
192,192,70605,1,4,0:0:0:0:
320,192,70605,1,8,0:0:0:0:
192,192,70829,1,8,0:0:0:0:
448,192,70829,128,0,70941:0:0:0:0:
64,192,71053,1,2,0:0:0:0:
192,192,71053,1,0,0:0:0:0:
320,192,71165,1,2,0:0:0:0:
448,192,71165,1,0,0:0:0:0:
192,192,71277,1,8,0:0:0:0:
64,192,71277,128,0,71389:0:0:0:0:
448,192,71501,1,2,0:0:0:0:
320,192,71501,1,0,0:0:0:0:
64,192,71725,1,8,0:0:0:0:
192,192,71725,128,0,71837:0:0:0:0:
320,192,71949,1,2,0:0:0:0:
448,192,71949,1,0,0:0:0:0:
64,192,72060,1,2,0:0:0:0:
192,192,72060,1,0,0:0:0:0:
448,192,72172,1,8,0:0:0:0:
320,192,72172,128,0,72284:0:0:0:0:
64,192,72396,1,2,0:0:0:0:
448,192,72396,128,4,72844:0:0:0:0:
192,192,72396,1,0,0:0:0:0:
192,192,72620,1,8,0:0:0:0:
320,192,72620,1,0,0:0:0:0:
320,192,72844,128,4,73292:0:0:0:0:
192,192,72844,1,2,0:0:0:0:
64,192,72844,1,0,0:0:0:0:
448,192,73068,1,8,0:0:0:0:
64,192,73068,1,0,0:0:0:0:
192,192,73292,128,2,73740:0:0:0:0:
64,192,73292,1,4,0:0:0:0:
448,192,73292,1,0,0:0:0:0:
320,192,73516,1,8,0:0:0:0:
448,192,73516,1,0,0:0:0:0:
64,192,73740,128,4,74187:0:0:0:0:
448,192,73740,1,2,0:0:0:0:
320,192,73740,1,0,0:0:0:0:
192,192,73963,1,8,0:0:0:0:
320,192,73963,1,0,0:0:0:0:
448,192,74187,128,2,75083:0:0:0:0:
192,192,74187,1,4,0:0:0:0:
320,192,74187,1,0,0:0:0:0:
64,192,74411,1,8,0:0:0:0:
192,192,74411,1,0,0:0:0:0:
320,192,74635,1,2,0:0:0:0:
64,192,74747,1,2,0:0:0:0:
192,192,74859,1,8,0:0:0:0:
320,192,74859,1,0,0:0:0:0:
192,192,75083,128,2,75531:0:0:0:0:
64,192,75083,1,0,0:0:0:0:
320,192,75307,1,8,0:0:0:0:
448,192,75307,1,0,0:0:0:0:
64,192,75531,1,2,0:0:0:0:
448,192,75531,128,0,75978:0:0:0:0:
320,192,75643,1,2,0:0:0:0:
192,192,75754,1,8,0:0:0:0:
64,192,75754,1,0,0:0:0:0:
64,192,75978,128,2,76874:0:0:0:0:
320,192,75978,1,0,0:0:0:0:
320,192,76202,1,8,0:0:0:0:
448,192,76202,1,4,0:0:0:0:
192,192,76202,1,0,0:0:0:0:
192,192,76426,1,2,0:0:0:0:
320,192,76538,1,2,0:0:0:0:
192,192,76650,1,8,0:0:0:0:
448,192,76650,1,0,0:0:0:0:
448,192,76874,1,2,0:0:0:0:
320,192,76874,1,0,0:0:0:0:
192,192,76986,1,8,0:0:0:0:
64,192,76986,1,0,0:0:0:0:
320,192,77098,1,0,0:0:0:0:
64,192,77210,1,8,0:0:0:0:
448,192,77210,1,0,0:0:0:0:
320,192,77322,1,2,0:0:0:0:
192,192,77322,1,0,0:0:0:0:
64,192,77434,1,8,0:0:0:0:
448,192,77434,1,0,0:0:0:0:
320,192,77546,1,2,0:0:0:0:
192,192,77546,1,0,0:0:0:0:
192,192,77769,1,4,0:0:0:0:
448,192,77769,1,2,0:0:0:0:
64,192,77769,128,8,77881:0:0:0:0:
320,192,77881,128,0,77993:0:0:0:0:
192,192,77993,128,2,78105:0:0:0:0:
448,192,78105,128,0,78217:0:0:0:0:
64,192,78217,128,2,78553:0:0:0:0:
320,192,78217,1,4,0:0:0:0:
192,192,78217,128,8,78553:0:0:0:0:
320,192,78665,128,2,78777:0:0:0:0:
448,192,78665,1,0,0:0:0:0:
192,192,78777,128,0,78889:0:0:0:0:
448,192,78889,128,2,79001:0:0:0:0:
64,192,79001,128,0,79113:0:0:0:0:
192,192,79113,128,0,79449:0:0:0:0:
448,192,79113,1,8,0:0:0:0:
320,192,79113,128,4,79449:0:0:0:0:
448,192,79560,128,2,79672:0:0:0:0:
64,192,79560,1,0,0:0:0:0:
192,192,79672,128,0,79784:0:0:0:0:
320,192,79784,128,2,79896:0:0:0:0:
64,192,79896,128,0,80008:0:0:0:0:
448,192,80008,128,4,80344:0:0:0:0:
320,192,80008,128,8,80344:0:0:0:0:
192,192,80008,1,2,0:0:0:0:
64,192,80456,128,2,80568:0:0:0:0:
192,192,80456,1,0,0:0:0:0:
448,192,80568,128,0,80680:0:0:0:0:
192,192,80680,128,2,80792:0:0:0:0:
320,192,80792,128,0,80904:0:0:0:0:
64,192,80904,128,4,81240:0:0:0:0:
448,192,80904,128,0,81240:0:0:0:0:
192,192,80904,1,8,0:0:0:0:
320,192,81128,1,2,0:0:0:0:
192,192,81240,1,0,0:0:0:0:
448,192,81352,128,4,82135:0:0:0:0:
64,192,81352,128,8,82135:0:0:0:0:
320,192,81352,128,0,82135:0:0:0:0:
64,192,82247,128,8,83031:0:0:0:0:
320,192,82247,128,4,83031:0:0:0:0:
192,192,82247,128,2,83031:0:0:0:0:
64,192,83143,1,4,0:0:0:0:
320,192,83143,1,2,0:0:0:0:
448,192,83143,128,0,84710:0:0:0:0:
192,192,83366,128,0,83478:0:0:0:0:
320,192,83478,128,0,83590:0:0:0:0:
64,192,83590,128,8,83702:0:0:0:0:
320,192,83702,128,0,83814:0:0:0:0:
192,192,83814,128,0,83926:0:0:0:0:
320,192,83926,128,0,84038:0:0:0:0:
64,192,84038,128,8,84374:0:0:0:0:
320,192,84374,128,2,84486:0:0:0:0:
64,192,84486,128,8,84710:0:0:0:0:
192,192,84710,128,0,84934:0:0:0:0:
320,192,84822,1,0,0:0:0:0:
64,192,84934,128,2,85157:0:0:0:0:
448,192,84934,128,8,85157:0:0:0:0:
192,192,85157,1,0,0:0:0:0:
320,192,85269,128,8,85493:0:0:0:0:
64,192,85269,128,2,85493:0:0:0:0:
448,192,85493,1,0,0:0:0:0:
64,192,85605,128,2,85717:0:0:0:0:
192,192,85605,128,8,85717:0:0:0:0:
320,192,85717,1,0,0:0:0:0:
64,192,85829,128,8,86501:0:0:0:0:
448,192,85829,128,2,86501:0:0:0:0:
192,192,85829,128,0,86501:0:0:0:0:
