osu file format v14

[General]
AudioFilename: adrenalinemp3.mp3
AudioLeadIn: 0
PreviewTime: 48329
Countdown: 0
SampleSet: Soft
StackLeniency: 0.7
Mode: 3
LetterboxInBreaks: 0
SpecialStyle: 0
WidescreenStoryboard: 0

[Editor]
DistanceSpacing: 1.26
BeatDivisor: 4
GridSize: 8
TimelineZoom: 1.8

[Metadata]
Title:adrenaline!!! -TV Ver-
TitleUnicode:adrenaline!!! -TV Ver-
Artist:TrySail
ArtistUnicode:TrySail
Creator:- Ly0572 -
Version:NM
Source:エロマンガ先生
Tags:Eromanga-sensei Ending Theme ED JPop Syadow- Amiichii
BeatmapID:1288684
BeatmapSetID:610333

[Difficulty]
HPDrainRate:7
CircleSize:4
OverallDifficulty:7
ApproachRate:5
SliderMultiplier:1.4
SliderTickRate:1

[Events]
//Background and Video events
0,0,"bg1.png",0,0
Video,-243,"Eromanga vid.avi"
//Break Periods
//Storyboard Layer 0 (Background)
//Storyboard Layer 1 (Fail)
//Storyboard Layer 2 (Pass)
//Storyboard Layer 3 (Foreground)
//Storyboard Sound Samples

[TimingPoints]
755,223.880597014925,4,2,1,40,1,0
49113,-100,4,2,1,80,0,1
76874,-100,4,2,1,40,0,0

[HitObjects]
192,192,419,5,2,0:0:0:0:
320,192,531,1,8,0:0:0:0:
448,192,531,1,0,0:0:0:0:
64,192,755,128,2,978:0:0:0:0:
192,192,755,1,4,0:0:0:0:
320,192,978,1,0,0:0:0:0:
448,192,1202,1,0,0:0:0:0:
320,192,1426,1,0,0:0:0:0:
192,192,1650,1,0,0:0:0:0:
64,192,1874,1,0,0:0:0:0:
448,192,2098,1,0,0:0:0:0:
320,192,2322,1,2,0:0:0:0:
64,192,2546,128,2,2769:0:0:0:0:
192,192,2546,1,4,0:0:0:0:
320,192,2769,128,0,2993:0:0:0:0:
448,192,2993,128,0,3217:0:0:0:0:
64,192,3217,128,0,3441:0:0:0:0:
192,192,3441,128,0,3665:0:0:0:0:
320,192,3665,128,0,3889:0:0:0:0:
64,192,3889,128,0,4113:0:0:0:0:
448,192,4113,128,2,4337:0:0:0:0:
64,192,4337,1,4,0:0:0:0:
192,192,4337,1,2,0:0:0:0:
320,192,4560,1,0,0:0:0:0:
320,192,4784,1,8,0:0:0:0:
192,192,5008,1,8,0:0:0:0:
192,192,5232,1,8,0:0:0:0:
448,192,5456,1,8,0:0:0:0:
448,192,5680,1,8,0:0:0:0:
64,192,5904,1,8,0:0:0:0:
64,192,6128,1,8,0:0:0:0:
192,192,6128,1,2,0:0:0:0:
320,192,6463,1,8,0:0:0:0:
448,192,6463,1,2,0:0:0:0:
192,192,6799,1,8,0:0:0:0:
64,192,6799,1,2,0:0:0:0:
448,192,7023,128,8,7471:0:0:0:0:
320,192,7023,1,2,0:0:0:0:
192,192,7247,1,2,0:0:0:0:
64,192,7471,1,12,0:0:0:0:
320,192,7471,128,2,7919:0:0:0:0:
64,192,7919,1,4,0:0:0:0:
448,192,7919,1,2,0:0:0:0:
192,192,8143,1,8,0:0:0:0:
320,192,8366,1,2,0:0:0:0:
64,192,8590,1,8,0:0:0:0:
448,192,8590,1,0,0:0:0:0:
192,192,8814,1,2,0:0:0:0:
448,192,9038,1,8,0:0:0:0:
320,192,9262,1,2,0:0:0:0:
64,192,9486,1,8,0:0:0:0:
192,192,9486,1,0,0:0:0:0:
448,192,9710,1,2,0:0:0:0:
64,192,9934,1,8,0:0:0:0:
320,192,10157,1,2,0:0:0:0:
448,192,10381,1,8,0:0:0:0:
192,192,10381,1,0,0:0:0:0:
64,192,10605,1,2,0:0:0:0:
320,192,10829,1,8,0:0:0:0:
192,192,11053,1,2,0:0:0:0:
448,192,11277,1,8,0:0:0:0:
320,192,11277,1,0,0:0:0:0:
64,192,11501,1,2,0:0:0:0:
192,192,11725,1,8,0:0:0:0:
448,192,11949,1,2,0:0:0:0:
64,192,12172,1,8,0:0:0:0:
320,192,12172,1,0,0:0:0:0:
192,192,12396,1,2,0:0:0:0:
448,192,12620,1,8,0:0:0:0:
320,192,12844,1,2,0:0:0:0:
64,192,13068,1,8,0:0:0:0:
192,192,13068,1,0,0:0:0:0:
448,192,13292,1,2,0:0:0:0:
320,192,13516,1,8,0:0:0:0:
64,192,13740,1,2,0:0:0:0:
320,192,13963,1,8,0:0:0:0:
192,192,13963,1,0,0:0:0:0:
448,192,14187,128,2,14635:0:0:0:0:
192,192,14411,128,8,14635:0:0:0:0:
64,192,14635,128,8,15083:0:0:0:0:
320,192,14635,1,0,0:0:0:0:
320,192,14859,128,8,15083:0:0:0:0:
192,192,15083,1,4,0:0:0:0:
448,192,15083,1,10,0:0:0:0:
320,192,15531,1,2,0:0:0:0:
320,192,15866,1,2,0:0:0:0:
192,192,16202,128,0,16426:0:0:0:0:
64,192,16426,128,8,16874:0:0:0:0:
448,192,16426,1,0,0:0:0:0:
448,192,16874,1,2,0:0:0:0:
320,192,16874,1,4,0:0:0:0:
192,192,17098,1,8,0:0:0:0:
64,192,17322,1,2,0:0:0:0:
320,192,17546,1,8,0:0:0:0:
192,192,17769,1,2,0:0:0:0:
448,192,17993,1,8,0:0:0:0:
320,192,18217,1,2,0:0:0:0:
64,192,18441,1,8,0:0:0:0:
192,192,18665,1,2,0:0:0:0:
320,192,18889,1,8,0:0:0:0:
448,192,19113,1,2,0:0:0:0:
192,192,19337,1,8,0:0:0:0:
320,192,19560,1,2,0:0:0:0:
64,192,19784,1,8,0:0:0:0:
192,192,20008,1,2,0:0:0:0:
448,192,20232,128,8,20456:0:0:0:0:
320,192,20456,1,2,0:0:0:0:
192,192,20680,1,8,0:0:0:0:
64,192,20904,1,2,0:0:0:0:
320,192,21128,1,8,0:0:0:0:
192,192,21352,1,2,0:0:0:0:
448,192,21575,1,8,0:0:0:0:
320,192,21799,1,2,0:0:0:0:
192,192,22023,1,8,0:0:0:0:
64,192,22247,1,2,0:0:0:0:
320,192,22471,1,8,0:0:0:0:
192,192,22695,128,2,23143:0:0:0:0:
448,192,22919,1,8,0:0:0:0:
320,192,23143,128,2,23590:0:0:0:0:
64,192,23366,1,8,0:0:0:0:
448,192,23590,128,2,24038:0:0:0:0:
192,192,23814,1,8,0:0:0:0:
320,192,24038,1,2,0:0:0:0:
64,192,24262,1,8,0:0:0:0:
192,192,24262,1,4,0:0:0:0:
320,192,24486,1,2,0:0:0:0:
448,192,24710,1,8,0:0:0:0:
192,192,24934,1,2,0:0:0:0:
320,192,25157,1,8,0:0:0:0:
64,192,25381,1,2,0:0:0:0:
192,192,25605,128,8,25829:0:0:0:0:
320,192,25829,1,2,0:0:0:0:
448,192,26053,1,8,0:0:0:0:
192,192,26277,1,2,0:0:0:0:
320,192,26501,1,8,0:0:0:0:
64,192,26725,1,2,0:0:0:0:
320,192,26949,128,8,27172:0:0:0:0:
192,192,27172,128,2,27396:0:0:0:0:
64,192,27396,128,8,27620:0:0:0:0:
448,192,27620,128,2,28516:0:0:0:0:
320,192,27620,1,4,0:0:0:0:
192,192,27844,1,8,0:0:0:0:
320,192,28292,1,8,0:0:0:0:
64,192,28516,128,4,29411:0:0:0:0:
192,192,28516,1,2,0:0:0:0:
320,192,28740,1,8,0:0:0:0:
320,192,29187,1,8,0:0:0:0:
192,192,29411,1,2,0:0:0:0:
320,192,29635,1,4,0:0:0:0:
448,192,29635,1,8,0:0:0:0:
192,192,29859,1,8,0:0:0:0:
64,192,29971,1,8,0:0:0:0:
320,192,30195,1,8,0:0:0:0:
448,192,30307,1,2,0:0:0:0:
192,192,30419,1,8,0:0:0:0:
320,192,30531,1,0,0:0:0:0:
64,192,30643,1,8,0:0:0:0:
192,192,30754,128,8,31202:0:0:0:0:
64,192,31202,1,2,0:0:0:0:
448,192,31202,1,4,0:0:0:0:
320,192,31426,1,8,0:0:0:0:
192,192,31650,1,2,0:0:0:0:
448,192,31874,1,8,0:0:0:0:
320,192,32098,1,2,0:0:0:0:
64,192,32322,1,8,0:0:0:0:
192,192,32546,1,2,0:0:0:0:
448,192,32769,1,8,0:0:0:0:
64,192,32993,1,2,0:0:0:0:
192,192,33217,1,8,0:0:0:0:
320,192,33441,128,2,33889:0:0:0:0:
64,192,33665,1,8,0:0:0:0:
192,192,33889,128,2,34337:0:0:0:0:
448,192,34113,1,8,0:0:0:0:
64,192,34337,128,2,34784:0:0:0:0:
320,192,34560,1,8,0:0:0:0:
448,192,34784,1,2,0:0:0:0:
192,192,35008,1,8,0:0:0:0:
64,192,35232,1,2,0:0:0:0:
320,192,35456,1,8,0:0:0:0:
192,192,35680,1,2,0:0:0:0:
448,192,35904,1,8,0:0:0:0:
320,192,36128,1,2,0:0:0:0:
64,192,36352,1,8,0:0:0:0:
192,192,36575,128,2,37023:0:0:0:0:
448,192,36799,1,8,0:0:0:0:
320,192,37023,1,2,0:0:0:0:
64,192,37247,1,8,0:0:0:0:
192,192,37471,1,2,0:0:0:0:
320,192,37583,1,8,0:0:0:0:
448,192,37695,1,2,0:0:0:0:
64,192,37919,1,8,0:0:0:0:
192,192,38143,1,8,0:0:0:0:
320,192,38366,1,2,0:0:0:0:
448,192,38366,128,4,38814:0:0:0:0:
64,192,38590,1,2,0:0:0:0:
320,192,38814,1,4,0:0:0:0:
192,192,38814,1,8,0:0:0:0:
448,192,39262,1,0,0:0:0:0:
64,192,39262,128,2,39710:0:0:0:0:
192,192,39486,1,2,0:0:0:0:
448,192,39710,1,8,0:0:0:0:
320,192,39710,1,4,0:0:0:0:
320,192,40157,1,0,0:0:0:0:
192,192,40157,128,2,40605:0:0:0:0:
64,192,40381,1,2,0:0:0:0:
320,192,40605,1,8,0:0:0:0:
448,192,40605,1,4,0:0:0:0:
64,192,41053,1,4,0:0:0:0:
320,192,41053,1,2,0:0:0:0:
448,192,41389,1,2,0:0:0:0:
192,192,41389,1,4,0:0:0:0:
64,192,41725,1,2,0:0:0:0:
320,192,41725,1,4,0:0:0:0:
192,192,41949,1,2,0:0:0:0:
448,192,41949,1,4,0:0:0:0:
64,192,42396,1,8,0:0:0:0:
448,192,42396,1,0,0:0:0:0:
320,192,42844,1,8,0:0:0:0:
64,192,42844,1,0,0:0:0:0:
192,192,43292,1,8,0:0:0:0:
64,192,43292,1,0,0:0:0:0:
448,192,43740,1,8,0:0:0:0:
64,192,43740,1,0,0:0:0:0:
192,192,44187,1,8,0:0:0:0:
448,192,44187,1,0,0:0:0:0:
320,192,44635,1,8,0:0:0:0:
448,192,44635,1,0,0:0:0:0:
192,192,45083,1,8,0:0:0:0:
64,192,45083,1,0,0:0:0:0:
320,192,45531,1,8,0:0:0:0:
448,192,45531,128,4,45978:0:0:0:0:
64,192,45754,128,2,45978:0:0:0:0:
192,192,45978,128,2,46202:0:0:0:0:
320,192,46202,128,2,46426:0:0:0:0:
64,192,46426,128,8,46874:0:0:0:0:
448,192,46426,1,0,0:0:0:0:
192,192,46650,128,8,46874:0:0:0:0:
448,192,46874,128,8,47322:0:0:0:0:
320,192,46874,1,0,0:0:0:0:
64,192,47098,128,8,47322:0:0:0:0:
192,192,47322,1,8,0:0:0:0:
320,192,47322,1,2,0:0:0:0:
64,192,47657,1,2,0:0:0:0:
192,192,47657,1,8,0:0:0:0:
320,192,47993,1,2,0:0:0:0:
448,192,47993,1,8,0:0:0:0:
192,192,48217,1,10,0:0:0:0:
64,192,48217,128,4,48665:0:0:0:0:
448,192,48441,128,8,48665:0:0:0:0:
192,192,48665,1,8,0:0:0:0:
320,192,48777,1,8,0:0:0:0:
64,192,48889,1,8,0:0:0:0:
192,192,48889,1,0,0:0:0:0:
448,192,49113,1,4,0:0:0:0:
320,192,49113,1,2,0:0:0:0:
64,192,49337,1,8,0:0:0:0:
192,192,49337,1,0,0:0:0:0:
320,192,49560,1,2,0:0:0:0:
448,192,49784,1,8,0:0:0:0:
64,192,49784,1,0,0:0:0:0:
320,192,50008,1,2,0:0:0:0:
64,192,50232,1,8,0:0:0:0:
448,192,50232,1,0,0:0:0:0:
192,192,50456,1,2,0:0:0:0:
320,192,50680,1,8,0:0:0:0:
448,192,50680,1,0,0:0:0:0:
64,192,50904,128,0,51352:0:0:0:0:
448,192,51128,1,8,0:0:0:0:
192,192,51352,128,2,51799:0:0:0:0:
320,192,51575,1,8,0:0:0:0:
448,192,51799,128,2,52247:0:0:0:0:
64,192,52023,1,8,0:0:0:0:
320,192,52247,128,2,52695:0:0:0:0:
192,192,52471,1,8,0:0:0:0:
448,192,52695,1,2,0:0:0:0:
64,192,52919,1,8,0:0:0:0:
192,192,52919,1,0,0:0:0:0:
320,192,53143,1,2,0:0:0:0:
64,192,53366,1,8,0:0:0:0:
448,192,53366,1,0,0:0:0:0:
192,192,53590,1,2,0:0:0:0:
320,192,53814,1,8,0:0:0:0:
448,192,53814,1,0,0:0:0:0:
192,192,54038,1,2,0:0:0:0:
320,192,54262,1,8,0:0:0:0:
64,192,54262,1,0,0:0:0:0:
448,192,54486,1,2,0:0:0:0:
192,192,54710,1,0,0:0:0:0:
320,192,54710,1,8,0:0:0:0:
64,192,54934,1,2,0:0:0:0:
192,192,55157,1,8,0:0:0:0:
448,192,55157,1,0,0:0:0:0:
320,192,55381,1,2,0:0:0:0:
448,192,55605,1,8,0:0:0:0:
64,192,55605,1,0,0:0:0:0:
192,192,55829,1,2,0:0:0:0:
320,192,56053,1,8,0:0:0:0:
448,192,56053,1,0,0:0:0:0:
64,192,56277,1,4,0:0:0:0:
192,192,56277,1,2,0:0:0:0:
320,192,56501,1,8,0:0:0:0:
448,192,56501,1,0,0:0:0:0:
448,192,56725,128,2,57172:0:0:0:0:
64,192,56725,1,0,0:0:0:0:
192,192,56949,1,8,0:0:0:0:
320,192,57172,1,2,0:0:0:0:
64,192,57396,1,8,0:0:0:0:
192,192,57396,1,0,0:0:0:0:
448,192,57620,1,2,0:0:0:0:
192,192,57844,1,8,0:0:0:0:
320,192,57844,1,0,0:0:0:0:
64,192,58068,1,2,0:0:0:0:
320,192,58292,1,0,0:0:0:0:
448,192,58292,1,8,0:0:0:0:
192,192,58516,1,2,0:0:0:0:
64,192,58516,128,0,58963:0:0:0:0:
448,192,58740,1,8,0:0:0:0:
320,192,58963,1,2,0:0:0:0:
192,192,59187,1,8,0:0:0:0:
448,192,59187,1,0,0:0:0:0:
320,192,59411,1,2,0:0:0:0:
64,192,59635,1,8,0:0:0:0:
192,192,59635,1,0,0:0:0:0:
448,192,59859,128,4,60307:0:0:0:0:
320,192,59859,1,2,0:0:0:0:
192,192,60083,1,8,0:0:0:0:
320,192,60307,128,4,60754:0:0:0:0:
64,192,60307,1,2,0:0:0:0:
448,192,60531,1,8,0:0:0:0:
64,192,60754,128,2,61202:0:0:0:0:
192,192,60754,1,4,0:0:0:0:
320,192,60978,1,8,0:0:0:0:
192,192,61202,128,4,61650:0:0:0:0:
448,192,61202,1,2,0:0:0:0:
64,192,61426,1,8,0:0:0:0:
448,192,61650,1,2,0:0:0:0:
320,192,61650,1,4,0:0:0:0:
64,192,61874,1,8,0:0:0:0:
448,192,61874,1,0,0:0:0:0:
192,192,62098,1,2,0:0:0:0:
448,192,62322,1,8,0:0:0:0:
320,192,62322,1,0,0:0:0:0:
192,192,62546,1,2,0:0:0:0:
64,192,62769,1,8,0:0:0:0:
320,192,62769,1,0,0:0:0:0:
192,192,62993,1,8,0:0:0:0:
448,192,62993,1,0,0:0:0:0:
448,192,63217,128,8,63441:0:0:0:0:
64,192,63441,1,2,0:0:0:0:
320,192,63441,1,4,0:0:0:0:
192,192,63665,1,8,0:0:0:0:
64,192,63665,1,0,0:0:0:0:
448,192,63889,1,2,0:0:0:0:
64,192,64113,1,8,0:0:0:0:
320,192,64113,1,0,0:0:0:0:
192,192,64337,1,2,0:0:0:0:
448,192,64560,1,8,0:0:0:0:
320,192,64560,1,0,0:0:0:0:
64,192,64784,1,2,0:0:0:0:
192,192,65008,1,8,0:0:0:0:
320,192,65008,1,0,0:0:0:0:
448,192,65232,128,2,65680:0:0:0:0:
320,192,65456,1,8,0:0:0:0:
192,192,65680,128,2,66128:0:0:0:0:
64,192,65904,1,8,0:0:0:0:
320,192,66128,128,2,66575:0:0:0:0:
448,192,66352,1,8,0:0:0:0:
64,192,66575,128,2,67023:0:0:0:0:
192,192,66799,1,8,0:0:0:0:
320,192,67023,1,2,0:0:0:0:
192,192,67247,1,8,0:0:0:0:
448,192,67247,1,0,0:0:0:0:
320,192,67471,1,2,0:0:0:0:
192,192,67695,1,8,0:0:0:0:
64,192,67695,1,0,0:0:0:0:
448,192,67919,1,2,0:0:0:0:
192,192,68143,1,8,0:0:0:0:
320,192,68143,1,0,0:0:0:0:
64,192,68366,1,2,0:0:0:0:
192,192,68590,1,8,0:0:0:0:
448,192,68590,1,0,0:0:0:0:
320,192,68814,1,2,0:0:0:0:
64,192,69038,1,8,0:0:0:0:
448,192,69038,1,0,0:0:0:0:
192,192,69262,128,2,69710:0:0:0:0:
448,192,69486,1,8,0:0:0:0:
64,192,69710,128,2,70157:0:0:0:0:
320,192,69934,1,8,0:0:0:0:
448,192,70157,128,2,70605:0:0:0:0:
192,192,70381,1,8,0:0:0:0:
320,192,70605,1,12,0:0:0:0:
64,192,70605,1,2,0:0:0:0:
192,192,70829,1,8,0:0:0:0:
448,192,70829,1,0,0:0:0:0:
64,192,71053,128,2,71501:0:0:0:0:
192,192,71277,1,8,0:0:0:0:
320,192,71501,1,2,0:0:0:0:
448,192,71725,1,8,0:0:0:0:
192,192,71725,1,0,0:0:0:0:
320,192,71949,1,2,0:0:0:0:
192,192,72172,1,8,0:0:0:0:
64,192,72172,1,0,0:0:0:0:
448,192,72396,128,2,72844:0:0:0:0:
320,192,72396,1,4,0:0:0:0:
64,192,72620,1,8,0:0:0:0:
320,192,72844,128,2,73292:0:0:0:0:
192,192,72844,1,4,0:0:0:0:
448,192,73068,1,8,0:0:0:0:
192,192,73292,128,4,73740:0:0:0:0:
64,192,73292,1,2,0:0:0:0:
448,192,73516,1,8,0:0:0:0:
64,192,73740,128,2,74187:0:0:0:0:
320,192,73740,1,4,0:0:0:0:
192,192,73963,1,8,0:0:0:0:
448,192,74187,128,4,75083:0:0:0:0:
320,192,74187,1,2,0:0:0:0:
192,192,74411,1,8,0:0:0:0:
64,192,74635,1,2,0:0:0:0:
320,192,74859,1,8,0:0:0:0:
64,192,75083,128,2,75531:0:0:0:0:
192,192,75083,1,0,0:0:0:0:
320,192,75307,1,8,0:0:0:0:
192,192,75531,128,2,75978:0:0:0:0:
448,192,75754,1,8,0:0:0:0:
64,192,75978,1,2,0:0:0:0:
320,192,75978,128,0,76874:0:0:0:0:
448,192,76202,1,8,0:0:0:0:
64,192,76426,1,2,0:0:0:0:
448,192,76650,1,8,0:0:0:0:
64,192,76874,1,2,0:0:0:0:
192,192,76986,1,8,0:0:0:0:
448,192,77210,1,8,0:0:0:0:
320,192,77322,1,2,0:0:0:0:
64,192,77434,1,8,0:0:0:0:
192,192,77546,1,2,0:0:0:0:
448,192,77769,1,2,0:0:0:0:
320,192,77769,1,12,0:0:0:0:
448,192,77993,1,2,0:0:0:0:
192,192,78217,1,4,0:0:0:0:
320,192,78217,1,10,0:0:0:0:
64,192,78665,1,2,0:0:0:0:
192,192,78665,1,0,0:0:0:0:
64,192,78889,1,2,0:0:0:0:
448,192,79113,1,4,0:0:0:0:
320,192,79113,1,10,0:0:0:0:
192,192,79560,1,2,0:0:0:0:
64,192,79560,1,0,0:0:0:0:
192,192,79784,1,2,0:0:0:0:
320,192,80008,1,12,0:0:0:0:
448,192,80008,1,2,0:0:0:0:
64,192,80456,1,2,0:0:0:0:
320,192,80680,1,2,0:0:0:0:
192,192,80904,1,8,0:0:0:0:
64,192,80904,1,4,0:0:0:0:
320,192,81128,1,2,0:0:0:0:
192,192,81352,128,8,82247:0:0:0:0:
448,192,81352,1,4,0:0:0:0:
448,192,82247,128,6,83143:0:0:0:0:
64,192,82247,1,8,0:0:0:0:
192,192,82695,1,0,0:0:0:0:
64,192,83143,128,2,84934:0:0:0:0:
320,192,83143,1,4,0:0:0:0:
192,192,83590,1,8,0:0:0:0:
448,192,84038,1,8,0:0:0:0:
192,192,84486,1,8,0:0:0:0:
320,192,84710,1,0,0:0:0:0:
448,192,84934,1,2,0:0:0:0:
192,192,84934,1,8,0:0:0:0:
320,192,85269,1,8,0:0:0:0:
448,192,85269,1,2,0:0:0:0:
320,192,85605,1,2,0:0:0:0:
192,192,85605,1,8,0:0:0:0:
448,192,85829,128,2,86501:0:0:0:0:
64,192,85829,1,8,0:0:0:0:
