osu file format v14

[General]
AudioFilename: audio.mp3
AudioLeadIn: 0
PreviewTime: 126997
Countdown: 0
SampleSet: Normal
StackLeniency: 0.7
Mode: 0
LetterboxInBreaks: 0
WidescreenStoryboard: 0

[Editor]
DistanceSpacing: 1.8
BeatDivisor: 2
GridSize: 16
TimelineZoom: 1.3

[Metadata]
Title:adrenaline!!!
TitleUnicode:adrenaline!!!
Artist:TrySail
ArtistUnicode:TrySail
Creator:Yumikoi
Version:Insane
Source:
Tags:sagiri is cute eromanga
BeatmapID:1460939
BeatmapSetID:690261

[Difficulty]
HPDrainRate:5
CircleSize:4
OverallDifficulty:7
ApproachRate:9
SliderMultiplier:1.4
SliderTickRate:1

[Events]
//Background and Video events
0,0,"black.png",0,0
//Break Periods
2,161898,189531
//Storyboard Layer 0 (Background)
//Storyboard Layer 1 (Fail)
//Storyboard Layer 2 (Pass)
//Storyboard Layer 3 (Foreground)
//Storyboard Sound Samples

[TimingPoints]
-391,223.880597014925,4,1,0,100,1,0
504,-100,4,1,0,70,0,0
16623,-100,4,1,0,60,0,0
30952,-100,4,1,0,70,0,0
37444,-100,4,1,0,75,0,0
48862,-100,4,1,0,85,0,0
86474,-100,4,1,0,70,0,0
95429,-100,4,1,0,60,0,0
109758,-100,4,1,0,70,0,0
116250,-100,4,1,0,75,0,0
127668,-100,4,1,0,85,0,0
162594,-100,4,1,0,70,0,0

[HitObjects]
112,288,504,6,0,P|160:320|272:320,1,140,0|0,0:0|0:0,0:0:0:0:
336,305,952,1,0,0:0:0:0:
411,242,1176,1,0,0:0:0:0:
361,157,1400,1,0,0:0:0:0:
308,239,1623,1,0,0:0:0:0:
226,294,1847,1,0,0:0:0:0:
128,306,2071,1,0,0:0:0:0:
66,229,2295,6,0,P|86:174|176:109,1,140,0|0,0:0|0:0,0:0:0:0:
240,97,2743,1,0,0:0:0:0:
337,92,2967,1,0,0:0:0:0:
378,180,3191,1,0,0:0:0:0:
286,147,3414,1,0,0:0:0:0:
188,151,3638,1,0,0:0:0:0:
108,208,3862,1,0,0:0:0:0:
173,281,4086,2,0,P|189:297|237:329,2,70,0|0|0,0:0|0:0|0:0,0:0:0:0:
128,176,4534,5,0,0:0:0:0:
149,157,4646,1,0,0:0:0:0:
174,145,4758,1,0,0:0:0:0:
201,144,4870,1,0,0:0:0:0:
226,154,4982,1,0,0:0:0:0:
245,173,5094,1,0,0:0:0:0:
268,188,5206,1,0,0:0:0:0:
295,191,5317,1,0,0:0:0:0:
322,187,5429,1,0,0:0:0:0:
346,173,5541,1,0,0:0:0:0:
366,154,5653,1,0,0:0:0:0:
295,78,5877,5,0,0:0:0:0:
234,281,6213,1,0,0:0:0:0:
115,92,6549,1,0,0:0:0:0:
346,230,6773,2,0,B|448:233|368:52|363:142,1,140,0|0,0:0|0:0,0:0:0:0:
322,52,7220,2,0,B|250:57|294:192|353:164,1,140,0|0,0:0|0:0,0:0:0:0:
448,272,7668,6,0,P|382:295|278:298,1,140,0|0,0:0|0:0,0:0:0:0:
159,288,8116,2,0,P|121:255|96:191,1,70,0|0,0:0|0:0,0:0:0:0:
117,89,8452,2,0,B|139:173|178:220|178:220|290:192,1,210,0|0,0:0|0:0,0:0:0:0:
274,77,9011,1,0,0:0:0:0:
109,197,9235,1,0,0:0:0:0:
154,73,9459,1,0,0:0:0:0:
269,233,9683,1,0,0:0:0:0:
382,84,9907,2,0,P|336:99|300:129,1,70,0|0,0:0|0:0,0:0:0:0:
240,204,10243,6,0,B|178:220|178:220|139:173|117:89,1,210,0|0,0:0|0:0,0:0:0:0:
169,34,10803,1,0,0:0:0:0:
181,288,11026,1,0,0:0:0:0:
327,108,11250,1,0,0:0:0:0:
327,108,11474,1,0,0:0:0:0:
426,184,11698,2,0,P|359:223|312:231,1,70,0|0,0:0|0:0,0:0:0:0:
339,64,12034,6,0,B|292:95|281:144|281:144|196:136|118:154,1,210,0|0,0:0|0:0,0:0:0:0:
184,72,12594,1,0,0:0:0:0:
247,236,12817,1,0,0:0:0:0:
435,110,13041,1,0,0:0:0:0:
401,254,13265,1,0,0:0:0:0:
322,102,13489,2,0,P|310:133|310:178,1,70,0|0,0:0|0:0,0:0:0:0:
419,172,13825,2,0,B|410:202|445:289|445:289|354:280|313:328,1,210,0|0,0:0|0:0,0:0:0:0:
229,135,14385,1,0,0:0:0:0:
113,313,14608,1,0,0:0:0:0:
75,164,14832,6,0,P|133:208|209:239,1,140,0|0,0:0|0:0,0:0:0:0:
253,247,15168,1,0,0:0:0:0:
234,180,15280,2,0,P|306:189|381:221,1,140,0|0,0:0|0:0,0:0:0:0:
418,247,15616,1,0,0:0:0:0:
320,301,15840,1,0,0:0:0:0:
132,261,16064,2,0,P|122:213|131:178,1,70,0|0,0:0|0:0,0:0:0:0:
253,191,16623,5,0,0:0:0:0:
173,111,16847,2,0,P|248:106|317:117,1,140,0|0,0:0|0:0,0:0:0:0:
218,263,17295,2,0,P|254:259|300:270,1,70,0|0,0:0|0:0,0:0:0:0:
106,285,17743,5,0,0:0:0:0:
359,304,17967,1,0,0:0:0:0:
181,349,18191,1,0,0:0:0:0:
331,232,18414,1,0,0:0:0:0:
139,208,18638,1,0,0:0:0:0:
303,152,18862,1,0,0:0:0:0:
196,103,19086,2,0,P|221:72|250:47,1,70,0|0,0:0|0:0,0:0:0:0:
426,65,19534,5,0,0:0:0:0:
402,214,19758,1,0,0:0:0:0:
402,214,19982,1,0,0:0:0:0:
252,289,20429,6,0,P|177:269|97:222,1,140,0|0,0:0|0:0,0:0:0:0:
87,104,20877,1,0,0:0:0:0:
168,70,20989,2,0,B|152:120|151:158|151:158|206:153|310:245,1,210,0|0,0:0|0:0,0:0:0:0:
369,283,21549,1,0,0:0:0:0:
157,217,21773,1,0,0:0:0:0:
330,101,21997,1,0,0:0:0:0:
204,110,22220,5,0,0:0:0:0:
204,110,22332,1,0,0:0:0:0:
204,110,22444,1,0,0:0:0:0:
424,159,22668,5,0,0:0:0:0:
431,166,22780,1,0,0:0:0:0:
431,166,22892,1,0,0:0:0:0:
175,270,23116,5,0,0:0:0:0:
175,270,23228,1,0,0:0:0:0:
175,270,23340,1,0,0:0:0:0:
314,149,23564,1,0,0:0:0:0:
314,149,23676,1,0,0:0:0:0:
314,149,23788,1,0,0:0:0:0:
186,207,24011,2,0,P|113:160|57:88,1,140,0|0,0:0|0:0,0:0:0:0:
170,64,24459,5,0,0:0:0:0:
217,97,24571,2,0,B|236:130|364:98|364:98|309:166|346:195,1,210,0|0,0:0|0:0,0:0:0:0:
416,180,25131,1,0,0:0:0:0:
195,194,25355,1,0,0:0:0:0:
310,230,25579,1,0,0:0:0:0:
101,204,25803,1,0,0:0:0:0:
179,301,26026,1,0,0:0:0:0:
195,194,26250,2,0,P|232:207|296:207,1,70,0|0,0:0|0:0,0:0:0:0:
262,127,26698,5,0,0:0:0:0:
141,258,26922,2,0,P|188:278|336:287,1,140,0|0,0:0|0:0,0:0:0:0:
346,201,27370,2,0,P|340:138|313:60,1,140,0|0,0:0|0:0,0:0:0:0:
411,173,27706,2,0,P|421:124|461:29,1,140,0|0,0:0|0:0,0:0:0:0:
358,77,28041,1,0,0:0:0:0:
207,105,28265,1,0,0:0:0:0:
72,63,28489,1,0,0:0:0:0:
169,175,28713,2,0,P|216:184|303:176,1,70,0|0,0:0|0:0,0:0:0:0:
287,73,29161,5,0,0:0:0:0:
188,147,29385,1,0,0:0:0:0:
97,231,29608,2,0,P|144:240|231:232,1,70,0|0,0:0|0:0,0:0:0:0:
321,142,29944,1,0,0:0:0:0:
79,147,30280,5,0,0:0:0:0:
26,276,30504,2,0,P|95:280|161:259,1,140,0|0,0:0|0:0,0:0:0:0:
256,197,30952,5,0,0:0:0:0:
387,91,31176,1,0,0:0:0:0:
256,197,31400,1,0,0:0:0:0:
100,136,31623,1,0,0:0:0:0:
256,197,31847,5,0,0:0:0:0:
423,205,32071,1,0,0:0:0:0:
256,197,32295,1,0,0:0:0:0:
177,48,32519,1,0,0:0:0:0:
256,197,32743,5,0,0:0:0:0:
402,114,32967,1,0,0:0:0:0:
256,197,33191,1,0,0:0:0:0:
309,38,33414,1,0,0:0:0:0:
162,200,33638,1,0,0:0:0:0:
203,81,33862,1,0,0:0:0:0:
56,221,34086,1,0,0:0:0:0:
99,102,34310,1,0,0:0:0:0:
235,200,34534,5,0,0:0:0:0:
400,229,34758,1,0,0:0:0:0:
235,200,34982,1,0,0:0:0:0:
332,336,35206,1,0,0:0:0:0:
235,200,35429,5,0,0:0:0:0:
379,114,35653,1,0,0:0:0:0:
235,200,35877,1,0,0:0:0:0:
155,347,36101,1,0,0:0:0:0:
235,200,36325,5,0,0:0:0:0:
278,81,36549,1,0,0:0:0:0:
154,148,36773,1,0,0:0:0:0:
192,27,36997,1,0,0:0:0:0:
262,130,37220,1,0,0:0:0:0:
341,54,37444,6,0,P|358:88|381:194,1,140,0|0,0:0|0:0,0:0:0:0:
287,261,37892,1,0,0:0:0:0:
160,161,38116,1,0,0:0:0:0:
285,134,38340,5,0,0:0:0:0:
285,134,38452,1,0,0:0:0:0:
285,134,38564,1,0,0:0:0:0:
425,254,38788,1,0,0:0:0:0:
205,316,39011,1,0,0:0:0:0:
104,188,39235,5,0,0:0:0:0:
104,188,39347,1,0,0:0:0:0:
104,188,39459,1,0,0:0:0:0:
345,151,39683,1,0,0:0:0:0:
395,277,39907,5,0,0:0:0:0:
126,317,40243,1,0,0:0:0:0:
137,51,40579,1,0,0:0:0:0:
239,38,40803,5,0,0:0:0:0:
395,277,41138,1,0,0:0:0:0:
98,309,41474,1,0,0:0:0:0:
133,210,41698,2,0,P|176:155|240:112,1,140,0|0,0:0|0:0,0:0:0:0:
380,103,42146,1,0,0:0:0:0:
399,245,42370,1,0,0:0:0:0:
255,286,42594,6,0,P|214:227|188:148,1,140,0|0,0:0|0:0,0:0:0:0:
248,55,43041,1,0,0:0:0:0:
406,164,43265,1,0,0:0:0:0:
357,287,43489,6,0,P|274:299|199:295,1,140,0|0,0:0|0:0,0:0:0:0:
105,192,43937,1,0,0:0:0:0:
239,180,44161,1,0,0:0:0:0:
356,103,44385,5,0,0:0:0:0:
102,72,44720,1,0,0:0:0:0:
86,294,45056,1,0,0:0:0:0:
168,208,45280,2,0,P|148:169|120:142,1,70,0|0,0:0|0:0,0:0:0:0:
241,208,45504,2,0,P|243:161|241:124,1,70,0|0,0:0|0:0,0:0:0:0:
307,232,45728,2,0,P|326:192|352:159,1,70,0|0,0:0|0:0,0:0:0:0:
360,269,45952,2,0,P|391:238|426:221,1,70,0|0,0:0|0:0,0:0:0:0:
168,208,46176,5,0,0:0:0:0:
195,205,46287,1,0,0:0:0:0:
223,205,46399,1,0,0:0:0:0:
251,209,46511,1,0,0:0:0:0:
278,217,46623,1,0,0:0:0:0:
304,228,46735,1,0,0:0:0:0:
328,242,46847,1,0,0:0:0:0:
78,152,47071,5,0,0:0:0:0:
322,95,47407,1,0,0:0:0:0:
458,277,47743,1,0,0:0:0:0:
260,227,47967,2,0,P|237:218|268:212,1,70,0|0,0:0|0:0,0:0:0:0:
320,160,48191,2,0,P|303:276|304:304,2,140,0|0|0,0:0|0:0|0:0,0:0:0:0:
400,144,48862,6,0,P|384:96|336:48,1,70,0|0,0:0|0:0,0:0:0:0:
464,112,49086,2,0,P|480:80|512:32,1,70,0|0,0:0|0:0,0:0:0:0:
288,80,49310,2,0,P|320:80|384:64,2,70,0|0|0,0:0|0:0|0:0,0:0:0:0:
192,96,49646,2,0,P|80:176|96:208,1,210,0|0,0:0|0:0,0:0:0:0:
156,161,50206,1,0,0:0:0:0:
37,53,50429,1,0,0:0:0:0:
244,207,50653,6,0,P|160:235|117:284,1,140,0|0,0:0|0:0,0:0:0:0:
333,238,50989,2,0,P|266:296|246:358,1,140,0|0,0:0|0:0,0:0:0:0:
417,241,51325,1,0,0:0:0:0:
320,338,51549,1,0,0:0:0:0:
417,241,51773,6,0,P|458:229|508:194,2,70,0|0|0,0:0|0:0|0:0,0:0:0:0:
306,230,52220,1,0,0:0:0:0:
185,189,52444,1,0,0:0:0:0:
74,128,52668,2,0,P|100:111|229:120,1,140,0|0,0:0|0:0,0:0:0:0:
164,226,53116,1,0,0:0:0:0:
225,289,53228,6,0,B|258:319|302:287|302:287|356:308|396:266|378:192,1,210,0|0,0:0|0:0,0:0:0:0:
337,129,53788,1,0,0:0:0:0:
124,139,54011,1,0,0:0:0:0:
262,316,54235,1,0,0:0:0:0:
257,153,54459,1,0,0:0:0:0:
257,153,54683,1,0,0:0:0:0:
184,235,54907,6,0,P|156:264|111:289,1,70,0|0,0:0|0:0,0:0:0:0:
269,252,55131,1,0,0:0:0:0:
113,170,55355,1,0,0:0:0:0:
376,201,55579,1,0,0:0:0:0:
99,74,55803,1,0,0:0:0:0:
200,77,56026,2,0,P|195:121|198:174,1,70,0|0,0:0|0:0,0:0:0:0:
348,159,56250,2,0,P|318:186|274:216,1,70,0|0,0:0|0:0,0:0:0:0:
212,217,56474,2,0,P|176:236|118:243,1,70,0|0,0:0|0:0,0:0:0:0:
62,169,56698,5,0,0:0:0:0:
126,295,56922,2,0,P|193:313|288:318,1,140,0|0,0:0|0:0,0:0:0:0:
410,168,57370,2,0,P|349:153|250:149,1,140,0|0,0:0|0:0,0:0:0:0:
213,300,57817,2,0,P|260:286|308:251,1,70,0|0,0:0|0:0,0:0:0:0:
289,200,58041,2,0,P|317:160|333:102,1,70,0|0,0:0|0:0,0:0:0:0:
253,99,58265,2,0,P|246:50|219:-2,1,70,0|0,0:0|0:0,0:0:0:0:
147,92,58489,5,0,0:0:0:0:
83,163,58713,2,0,P|151:209|169:289,1,140,0|0,0:0|0:0,0:0:0:0:
350,238,59161,2,0,P|282:284|264:364,1,140,0|0,0:0|0:0,0:0:0:0:
398,339,59608,5,0,0:0:0:0:
250,264,59832,1,0,0:0:0:0:
398,339,60056,1,0,0:0:0:0:
398,162,60280,1,0,0:0:0:0:
398,339,60504,1,0,0:0:0:0:
138,187,60728,1,0,0:0:0:0:
398,339,60952,1,0,0:0:0:0:
409,49,61176,1,0,0:0:0:0:
398,339,61400,6,0,P|316:309|262:260,1,140,0|0,0:0|0:0,0:0:0:0:
198,311,61735,2,0,P|155:265|116:180,1,140,0|0,0:0|0:0,0:0:0:0:
277,105,62071,1,0,0:0:0:0:
198,191,62295,1,0,0:0:0:0:
277,105,62519,6,0,P|320:80|384:64,2,70,0|0|0,0:0|0:0|0:0,0:0:0:0:
82,237,62967,1,0,0:0:0:0:
140,174,63191,6,0,L|144:76,1,70,0|0,0:0|0:0,0:0:0:0:
254,211,63414,2,0,L|376:207,1,70,0|0,0:0|0:0,0:0:0:0:
230,102,63638,2,0,P|236:61|255:26,1,70,0|0,0:0|0:0,0:0:0:0:
330,123,63862,2,0,P|366:121|406:106,1,70,0|0,0:0|0:0,0:0:0:0:
119,267,64310,1,0,0:0:0:0:
167,173,64534,2,0,B|227:208|204:251|300:286,1,140,0|0,0:0|0:0,0:0:0:0:
254,134,64982,6,0,P|290:189|378:229,1,140,0|0,0:0|0:0,0:0:0:0:
293,51,65317,2,0,P|320:112|400:179,1,140,0|0,0:0|0:0,0:0:0:0:
380,66,65653,1,0,0:0:0:0:
472,133,65877,1,0,0:0:0:0:
380,66,66101,6,0,P|418:44|456:31,2,70,0|0|0,0:0|0:0|0:0,0:0:0:0:
270,187,66549,1,0,0:0:0:0:
143,134,66773,2,0,B|123:156|186:219|130:278,1,140,0|0,0:0|0:0,0:0:0:0:
60,220,67220,1,0,0:0:0:0:
233,123,67444,2,0,B|213:145|244:179|226:244,1,70,0|0,0:0|0:0,0:0:0:0:
124,135,67892,1,0,0:0:0:0:
205,234,68116,2,0,P|237:189|354:130,1,140,0|0,0:0|0:0,0:0:0:0:
337,247,68564,5,0,0:0:0:0:
402,339,68788,1,0,0:0:0:0:
337,247,69011,1,0,0:0:0:0:
206,151,69235,5,0,0:0:0:0:
206,151,69347,1,0,0:0:0:0:
206,151,69459,1,0,0:0:0:0:
353,83,69683,1,0,0:0:0:0:
413,177,69907,1,0,0:0:0:0:
266,254,70131,1,0,0:0:0:0:
251,157,70355,6,0,P|218:130|211:89,1,70,0|0,0:0|0:0,0:0:0:0:
343,109,70579,2,0,P|375:77|420:62,1,70,0|0,0:0|0:0,0:0:0:0:
381,191,70803,2,0,P|412:221|424:271,1,70,0|0,0:0|0:0,0:0:0:0:
289,227,71026,1,0,0:0:0:0:
197,89,71250,2,0,P|120:85|49:125,1,140,0|0,0:0|0:0,0:0:0:0:
150,231,71698,1,0,0:0:0:0:
293,128,71922,1,0,0:0:0:0:
143,54,72146,5,0,0:0:0:0:
96,177,72370,1,0,0:0:0:0:
143,54,72594,1,0,0:0:0:0:
237,167,72817,1,0,0:0:0:0:
143,54,73041,1,0,0:0:0:0:
58,263,73265,1,0,0:0:0:0:
143,54,73489,1,0,0:0:0:0:
292,263,73713,1,0,0:0:0:0:
179,115,73937,6,0,P|216:88|282:79,1,70,0|0,0:0|0:0,0:0:0:0:
277,163,74161,2,0,P|322:160|382:188,1,70,0|0,0:0|0:0,0:0:0:0:
323,252,74385,2,0,P|365:269|406:321,1,70,0|0,0:0|0:0,0:0:0:0:
112,166,74608,1,0,0:0:0:0:
187,296,74832,2,0,P|179:218|205:150,1,140,0|0,0:0|0:0,0:0:0:0:
336,70,75280,1,0,0:0:0:0:
445,162,75504,1,0,0:0:0:0:
273,301,75728,6,0,P|235:301|179:276,1,70,0|0,0:0|0:0,0:0:0:0:
301,219,75952,2,0,L|243:165,1,70,0|0,0:0|0:0,0:0:0:0:
191,227,76176,2,0,P|155:209|115:169,1,70,0|0,0:0|0:0,0:0:0:0:
209,133,76400,2,0,P|180:100|172:64,1,70,0|0,0:0|0:0,0:0:0:0:
314,187,76623,1,0,0:0:0:0:
195,275,76847,6,0,P|156:221|146:141,2,140,0|0|0,0:0|0:0|0:0,0:0:0:0:
375,219,77519,5,0,0:0:0:0:
260,335,77743,1,0,0:0:0:0:
151,171,77967,1,0,0:0:0:0:
262,263,78191,1,0,0:0:0:0:
377,147,78414,1,0,0:0:0:0:
260,335,78638,1,0,0:0:0:0:
153,99,78862,1,0,0:0:0:0:
262,263,79086,1,0,0:0:0:0:
339,104,79310,6,0,P|387:99|441:117,1,70,0|0,0:0|0:0,0:0:0:0:
378,177,79534,2,0,P|426:172|480:190,1,70,0|0,0:0|0:0,0:0:0:0:
413,249,79758,2,0,P|461:244|515:262,1,70,0|0,0:0|0:0,0:0:0:0:
452,320,79982,1,0,0:0:0:0:
198,152,80206,2,0,P|244:99|348:78,1,140,0|0,0:0|0:0,0:0:0:0:
319,240,80653,2,0,P|269:294|190:315,1,140,0|0,0:0|0:0,0:0:0:0:
256,192,81101,12,0,84235,0:0:0:0:
72,128,84683,5,0,0:0:0:0:
197,311,85019,1,0,0:0:0:0:
343,224,85355,1,0,0:0:0:0:
198,141,85579,2,0,P|254:155|388:140,1,140,0|0,0:0|0:0,0:0:0:0:
276,75,86026,2,0,P|299:66|268:60,1,70,0|0,0:0|0:0,0:0:0:0:
96,224,86474,6,0,P|162:247|266:250,1,140,0|0,0:0|0:0,0:0:0:0:
374,242,86922,2,0,P|412:209|437:145,1,70,0|0,0:0|0:0,0:0:0:0:
253,86,87258,2,0,B|229:162|192:217|192:217|266:242,1,210,0|0,0:0|0:0,0:0:0:0:
339,153,87817,1,0,0:0:0:0:
141,131,88041,1,0,0:0:0:0:
243,233,88265,1,0,0:0:0:0:
358,73,88489,1,0,0:0:0:0:
166,48,88713,2,0,P|148:76|132:115,1,70,0|0,0:0|0:0,0:0:0:0:
235,239,89049,6,0,B|297:255|297:255|300:202|358:124,1,210,0|0,0:0|0:0,0:0:0:0:
232,116,89608,1,0,0:0:0:0:
274,290,89832,1,0,0:0:0:0:
437,199,90056,1,0,0:0:0:0:
182,160,90280,1,0,0:0:0:0:
58,292,90504,2,0,P|48:245|61:200,1,70,0|0,0:0|0:0,0:0:0:0:
221,80,90840,6,0,B|237:99|317:129|317:129|306:178|334:226,1,210,0|0,0:0|0:0,0:0:0:0:
216,298,91399,1,0,0:0:0:0:
98,120,91623,1,0,0:0:0:0:
341,151,91847,1,0,0:0:0:0:
111,254,92071,1,0,0:0:0:0:
241,90,92295,2,0,P|252:118|253:166,1,70,0|0,0:0|0:0,0:0:0:0:
143,172,92631,2,0,B|143:198|117:289|117:289|208:280|249:328,1,210,0|0,0:0|0:0,0:0:0:0:
337,136,93191,1,0,0:0:0:0:
184,69,93414,1,0,0:0:0:0:
175,226,93638,6,0,P|230:274|305:306,1,140,0|0,0:0|0:0,0:0:0:0:
316,268,93974,1,0,0:0:0:0:
364,241,94086,2,0,P|403:306|471:349,1,140,0|0,0:0|0:0,0:0:0:0:
505,334,94422,1,0,0:0:0:0:
443,135,94646,1,0,0:0:0:0:
274,104,94870,2,0,P|227:118|200:143,1,70,0|0,0:0|0:0,0:0:0:0:
304,240,95429,5,0,0:0:0:0:
208,176,95653,2,0,P|192:240|176:336,1,140,0|0,0:0|0:0,0:0:0:0:
48,208,96101,2,0,P|80:224|128:240,1,70,0|0,0:0|0:0,0:0:0:0:
256,208,96549,5,0,0:0:0:0:
352,144,96773,1,0,0:0:0:0:
416,64,96997,1,0,0:0:0:0:
259,68,97220,6,0,P|310:108|337:195,1,140,0|0,0:0|0:0,0:0:0:0:
124,86,97668,1,0,0:0:0:0:
205,157,97892,2,0,P|225:218|206:272,1,70,0|0,0:0|0:0,0:0:0:0:
63,177,98340,1,0,0:0:0:0:
88,288,98564,2,0,P|142:282|228:301,1,140,0|0,0:0|0:0,0:0:0:0:
376,267,99235,6,0,P|301:288|208:289,1,140,0|0,0:0|0:0,0:0:0:0:
139,193,99683,1,0,0:0:0:0:
191,122,99795,2,0,B|203:173|221:206|221:206|266:173|402:198,1,210,0|0,0:0|0:0,0:0:0:0:
281,71,100355,1,0,0:0:0:0:
280,308,100579,1,0,0:0:0:0:
202,120,100803,1,0,0:0:0:0:
198,266,101026,5,0,0:0:0:0:
198,266,101138,1,0,0:0:0:0:
198,266,101250,1,0,0:0:0:0:
344,202,101474,5,0,0:0:0:0:
344,202,101586,1,0,0:0:0:0:
344,202,101698,1,0,0:0:0:0:
215,124,101922,5,0,0:0:0:0:
215,124,102034,1,0,0:0:0:0:
215,124,102146,1,0,0:0:0:0:
219,144,102258,1,0,0:0:0:0:
215,171,102370,1,0,0:0:0:0:
192,197,102482,1,0,0:0:0:0:
160,212,102594,6,0,P|116:218|66:139,1,140,0|0,0:0|0:0,0:0:0:0:
179,106,103041,1,0,0:0:0:0:
275,65,103265,2,0,P|311:82|351:108,1,70,0|0,0:0|0:0,0:0:0:0:
422,168,103713,5,0,0:0:0:0:
423,285,103937,1,0,0:0:0:0:
295,351,104161,1,0,0:0:0:0:
141,311,104385,2,0,P|114:285|76:238,1,70,0|0,0:0|0:0,0:0:0:0:
250,260,104608,2,0,P|272:226|293:180,1,70,0|0,0:0|0:0,0:0:0:0:
146,198,104832,1,0,0:0:0:0:
118,102,105056,2,0,P|160:88|228:88,1,70,0|0,0:0|0:0,0:0:0:0:
369,96,105504,5,0,0:0:0:0:
359,230,105728,1,0,0:0:0:0:
359,230,105952,1,0,0:0:0:0:
468,92,106176,2,0,P|408:70|268:56,1,140,0|0,0:0|0:0,0:0:0:0:
248,125,106511,2,0,P|353:133|443:164,1,140,0|0,0:0|0:0,0:0:0:0:
418,219,106847,1,0,0:0:0:0:
183,281,107071,1,0,0:0:0:0:
117,90,107295,1,0,0:0:0:0:
183,281,107519,2,0,P|155:232|146:183,1,70,0|0,0:0|0:0,0:0:0:0:
333,102,107967,5,0,0:0:0:0:
248,190,108191,1,0,0:0:0:0:
164,99,108414,2,0,P|155:146|163:233,1,70,0|0,0:0|0:0,0:0:0:0:
253,323,108750,1,0,0:0:0:0:
352,147,109086,5,0,0:0:0:0:
98,126,109310,2,0,P|121:191|166:243,1,140,0|0,0:0|0:0,0:0:0:0:
329,227,109758,5,0,0:0:0:0:
246,346,109982,1,0,0:0:0:0:
157,185,110206,1,0,0:0:0:0:
248,275,110429,1,0,0:0:0:0:
331,156,110653,5,0,0:0:0:0:
248,275,110877,1,0,0:0:0:0:
159,115,111101,1,0,0:0:0:0:
250,204,111324,1,0,0:0:0:0:
332,85,111549,5,0,0:0:0:0:
159,115,111773,1,0,0:0:0:0:
329,227,111997,1,0,0:0:0:0:
140,279,112220,1,0,0:0:0:0:
333,358,112444,5,0,0:0:0:0:
430,187,112667,1,0,0:0:0:0:
231,228,112891,1,0,0:0:0:0:
332,85,113115,1,0,0:0:0:0:
188,111,113340,5,0,0:0:0:0:
113,250,113564,1,0,0:0:0:0:
262,111,113788,1,0,0:0:0:0:
338,251,114011,1,0,0:0:0:0:
262,111,114235,5,0,0:0:0:0:
239,266,114459,1,0,0:0:0:0:
332,85,114683,1,0,0:0:0:0:
451,190,114906,1,0,0:0:0:0:
332,85,115131,5,0,0:0:0:0:
181,115,115355,1,0,0:0:0:0:
336,174,115579,1,0,0:0:0:0:
169,208,115803,1,0,0:0:0:0:
257,158,116026,1,0,0:0:0:0:
99,185,116250,6,0,P|175:203|256:243,1,140,0|0,0:0|0:0,0:0:0:0:
87,281,116698,1,0,0:0:0:0:
257,339,116922,1,0,0:0:0:0:
376,228,117146,5,0,0:0:0:0:
376,228,117258,1,0,0:0:0:0:
376,228,117370,1,0,0:0:0:0:
331,56,117594,1,0,0:0:0:0:
259,195,117817,1,0,0:0:0:0:
80,206,118041,5,0,0:0:0:0:
80,206,118153,1,0,0:0:0:0:
80,206,118265,1,0,0:0:0:0:
159,57,118489,1,0,0:0:0:0:
177,192,118713,5,0,0:0:0:0:
436,74,119049,1,0,0:0:0:0:
399,344,119385,1,0,0:0:0:0:
177,192,119608,5,0,0:0:0:0:
467,287,119944,1,0,0:0:0:0:
409,34,120280,1,0,0:0:0:0:
379,210,120504,2,0,P|336:155|272:112,1,140,0|0,0:0|0:0,0:0:0:0:
132,103,120952,1,0,0:0:0:0:
113,245,121176,1,0,0:0:0:0:
257,286,121400,6,0,P|298:227|324:148,1,140,0|0,0:0|0:0,0:0:0:0:
264,55,121847,1,0,0:0:0:0:
106,164,122071,1,0,0:0:0:0:
155,287,122295,6,0,P|238:299|313:295,1,140,0|0,0:0|0:0,0:0:0:0:
407,192,122743,1,0,0:0:0:0:
273,180,122967,1,0,0:0:0:0:
156,103,123191,5,0,0:0:0:0:
410,72,123526,1,0,0:0:0:0:
136,179,123862,1,0,0:0:0:0:
250,206,124086,2,0,P|230:245|202:272,1,70,0|0,0:0|0:0,0:0:0:0:
323,206,124310,2,0,P|325:253|323:290,1,70,0|0,0:0|0:0,0:0:0:0:
389,182,124534,2,0,P|408:222|434:255,1,70,0|0,0:0|0:0,0:0:0:0:
442,145,124758,2,0,P|473:176|508:193,1,70,0|0,0:0|0:0,0:0:0:0:
250,206,124982,5,0,0:0:0:0:
277,209,125093,1,0,0:0:0:0:
305,209,125205,1,0,0:0:0:0:
333,205,125317,1,0,0:0:0:0:
360,197,125429,1,0,0:0:0:0:
386,186,125541,1,0,0:0:0:0:
410,172,125653,1,0,0:0:0:0:
190,95,125877,5,0,0:0:0:0:
349,317,126213,1,0,0:0:0:0:
63,220,126549,1,0,0:0:0:0:
252,227,126773,2,0,P|275:218|244:212,1,70,0|0,0:0|0:0,0:0:0:0:
200,149,126997,2,0,P|183:265|184:293,2,140,0|0|0,0:0|0:0|0:0,0:0:0:0:
337,216,127668,6,0,P|359:170|359:102,2,70,0|0|0,0:0|0:0|0:0,0:0:0:0:
272,178,128004,1,0,0:0:0:0:
273,251,128116,2,0,P|238:257|203:257,1,70,0|0,0:0|0:0,0:0:0:0:
171,201,128340,1,0,0:0:0:0:
143,134,128452,2,0,P|139:271|174:278,1,210
293,287,129012,1,0,0:0:0:0:
416,249,129235,1,0,0:0:0:0:
417,150,129459,6,0,P|436:63|416:2,1,140,0|0,0:0|0:0,0:0:0:0:
319,180,129795,2,0,P|303:92|260:43,1,140,0|0,0:0|0:0,0:0:0:0:
179,161,130131,2,0,P|181:227|234:292,1,140,0|0,0:0|0:0,0:0:0:0:
376,262,130579,2,0,P|345:309|251:360,2,140,0|0|0,0:0|0:0|0:0,0:0:0:0:
248,137,131250,1,0,0:0:0:0:
160,211,131474,2,0,P|198:219|315:203,1,140,0|0,0:0|0:0,0:0:0:0:
183,68,131922,1,0,0:0:0:0:
160,211,132034,6,0,B|199:185|253:216|253:216|307:242|348:201|372:141,1,210,0|0,0:0|0:0,0:0:0:0:
279,129,132594,1,0,0:0:0:0:
191,285,132817,1,0,0:0:0:0:
177,140,133041,1,0,0:0:0:0:
326,310,133265,1,0,0:0:0:0:
257,153,133489,1,0,0:0:0:0:
184,235,133713,6,0,P|156:264|111:289,1,70,0|0,0:0|0:0,0:0:0:0:
113,170,133937,1,0,0:0:0:0:
261,254,134161,1,0,0:0:0:0:
99,74,134385,1,0,0:0:0:0:
304,202,134608,1,0,0:0:0:0:
220,110,134832,2,0,P|215:154|218:207,1,70,0|0,0:0|0:0,0:0:0:0:
343,122,135056,2,0,P|306:141|269:179,1,70,0|0,0:0|0:0,0:0:0:0:
431,191,135280,2,0,P|392:195|337:217,1,70,0|0,0:0|0:0,0:0:0:0:
420,274,135504,5,0,0:0:0:0:
366,335,135728,2,0,P|296:329|228:311,1,140,0|0,0:0|0:0,0:0:0:0:
152,181,136176,2,0,P|214:188|308:220,1,140,0|0,0:0|0:0,0:0:0:0:
269,332,136623,2,0,P|228:333|177:321,1,70,0|0,0:0|0:0,0:0:0:0:
149,219,136847,2,0,P|187:215|226:219,1,70,0|0,0:0|0:0,0:0:0:0:
83,315,137071,2,0,P|56:283|33:236,1,70,0|0,0:0|0:0,0:0:0:0:
149,219,137295,5,0,0:0:0:0:
247,273,137519,2,0,P|322:281|433:258,2,140,0|0|0,0:0|0:0|0:0,0:0:0:0:
167,162,138191,1,0,0:0:0:0:
385,273,138414,5,0,0:0:0:0:
204,285,138638,1,0,0:0:0:0:
311,132,138862,1,0,0:0:0:0:
312,304,139086,1,0,0:0:0:0:
198,153,139310,1,0,0:0:0:0:
400,176,139534,1,0,0:0:0:0:
208,256,139758,1,0,0:0:0:0:
282,80,139982,1,0,0:0:0:0:
315,330,140206,6,0,P|282:248|282:176,1,140,0|0,0:0|0:0,0:0:0:0:
174,241,140541,2,0,P|184:178|229:96,1,140,0|0,0:0|0:0,0:0:0:0:
280,197,140877,2,0,P|330:159|418:129,1,140,0|0,0:0|0:0,0:0:0:0:
381,234,141325,5,0,0:0:0:0:
381,234,141437,1,0,0:0:0:0:
381,234,141549,1,0,0:0:0:0:
204,262,141773,1,0,0:0:0:0:
134,181,141997,6,0,P|175:168|256:177,1,70,0|0,0:0|0:0,0:0:0:0:
277,213,142220,2,0,P|295:169|281:115,1,70,0|0,0:0|0:0,0:0:0:0:
241,79,142444,2,0,P|282:66|363:75,1,70,0|0,0:0|0:0,0:0:0:0:
384,111,142668,2,0,P|402:67|388:13,1,70,0|0,0:0|0:0,0:0:0:0:
125,81,143116,1,0,0:0:0:0:
36,83,143340,2,0,B|73:161|169:196,1,140,0|0,0:0|0:0,0:0:0:0:
197,98,143788,6,0,P|254:138|321:193,1,140,0|0,0:0|0:0,0:0:0:0:
313,93,144123,2,0,P|366:138|420:221,1,140,0|0,0:0|0:0,0:0:0:0:
423,98,144459,1,0,0:0:0:0:
338,233,144683,1,0,0:0:0:0:
423,98,144907,2,0,P|387:67|355:48,2,70,0|0|0,0:0|0:0|0:0,0:0:0:0:
474,230,145355,1,0,0:0:0:0:
284,178,145579,5,0,0:0:0:0:
375,297,145803,1,0,0:0:0:0:
174,229,146026,1,0,0:0:0:0:
267,347,146250,2,0,B|219:359|162:344,1,70,0|0,0:0|0:0,0:0:0:0:
164,145,146698,1,0,0:0:0:0:
239,209,146922,2,0,P|301:189|388:105,1,140,0|0,0:0|0:0,0:0:0:0:
233,64,147370,5,0,0:0:0:0:
391,235,147594,1,0,0:0:0:0:
301,42,147817,1,0,0:0:0:0:
208,165,148041,2,0,P|179:167|129:186,2,70,0|0|0,0:0|0:0|0:0,0:0:0:0:
355,161,148489,1,0,0:0:0:0:
193,225,148713,1,0,0:0:0:0:
384,257,148937,1,0,0:0:0:0:
241,146,149161,6,0,P|208:119|201:78,1,70,0|0,0:0|0:0,0:0:0:0:
336,172,149385,2,0,P|368:140|413:125,1,70,0|0,0:0|0:0,0:0:0:0:
235,256,149609,2,0,P|233:295|278:336,1,70,0|0,0:0|0:0,0:0:0:0:
384,257,149832,1,0,0:0:0:0:
273,97,150056,2,0,P|196:93|125:133,1,140,0|0,0:0|0:0,0:0:0:0:
404,194,150504,1,0,0:0:0:0:
208,235,150728,1,0,0:0:0:0:
375,313,150952,5,0,0:0:0:0:
255,185,151176,1,0,0:0:0:0:
375,313,151400,1,0,0:0:0:0:
157,330,151623,1,0,0:0:0:0:
279,320,151847,5,0,0:0:0:0:
159,192,152071,1,0,0:0:0:0:
279,320,152295,1,0,0:0:0:0:
52,338,152518,1,0,0:0:0:0:
164,322,152743,6,0,P|190:299|208:269,1,70,0|0,0:0|0:0,0:0:0:0:
288,309,152967,2,0,P|301:277|305:242,1,70,0|0,0:0|0:0,0:0:0:0:
394,222,153191,2,0,P|388:187|372:156,1,70,0|0,0:0|0:0,0:0:0:0:
174,104,153414,1,0,0:0:0:0:
148,260,153638,2,0,P|187:315|263:350,1,140,0|0,0:0|0:0,0:0:0:0:
372,156,154086,1,0,0:0:0:0:
225,62,154310,1,0,0:0:0:0:
132,305,154534,6,0,P|165:314|200:314,1,70,0|0,0:0|0:0,0:0:0:0:
325,292,154758,2,0,P|356:263|377:229,1,70
375,113,154982,2,0,P|349:81|299:55,1,70
198,62,155206,2,0,P|167:79|141:102,1,70
106,210,155429,1,0,0:0:0:0:
264,274,155653,6,0,P|335:251|396:265,2,140
334,329,156325,5,0,0:0:0:0:
322,180,156549,1,0,0:0:0:0:
242,333,156773,1,0,0:0:0:0:
228,166,156997,1,0,0:0:0:0:
148,342,157220,1,0,0:0:0:0:
104,165,157444,1,0,0:0:0:0:
42,347,157668,1,0,0:0:0:0:
165,212,157892,1,0,0:0:0:0:
170,316,158116,6,0,P|205:320|240:315,1,70
270,227,158340,2,0,P|305:231|340:226,1,70
342,131,158564,2,0,P|377:135|412:130,1,70
390,290,158788,1,0,0:0:0:0:
323,42,159011,2,0,P|256:72|194:117,1,140
199,275,159459,2,0,P|259:254|349:201,1,140
256,192,159907,12,0,161698,0:0:0:0:
104,177,190131,5,0,0:0:0:0:
104,177,190243,1,0,0:0:0:0:
104,177,190355,2,0,P|156:230|236:272,1,140
99,73,190803,1,0,0:0:0:0:
249,153,191026,5,0,0:0:0:0:
249,153,191138,1,0,0:0:0:0:
249,153,191250,1,0,0:0:0:0:
203,53,191474,1,0,0:0:0:0:
153,197,191698,1,0,0:0:0:0:
394,177,191922,5,0,0:0:0:0:
394,177,192034,1,0,0:0:0:0:
394,177,192146,2,0,P|342:230|262:272,1,140
399,73,192594,1,0,0:0:0:0:
249,153,192817,5,0,0:0:0:0:
249,153,192929,1,0,0:0:0:0:
249,153,193041,1,0,0:0:0:0:
295,53,193265,1,0,0:0:0:0:
345,197,193489,1,0,0:0:0:0:
