osu file format v14

[General]
AudioFilename: audio.mp3
AudioLeadIn: 0
PreviewTime: 48212
Countdown: 0
SampleSet: Normal
StackLeniency: 0.7
Mode: 1
LetterboxInBreaks: 0
WidescreenStoryboard: 0

[Editor]
DistanceSpacing: 2
BeatDivisor: 4
GridSize: 8
TimelineZoom: 1.6

[Metadata]
Title:adrenaline!!!
TitleUnicode:adrenaline!!!
Artist:TrySail
ArtistUnicode:TrySail
Creator:Tyistiana
Version:Kantan
Source:エロマンガ先生
Tags:anime eromanga sensei ed ending full
BeatmapID:1377423
BeatmapSetID:619663

[Difficulty]
HPDrainRate:6
CircleSize:5
OverallDifficulty:3
ApproachRate:2
SliderMultiplier:1.4
SliderTickRate:1

[Events]
//Background and Video events
0,0,"826063.png",0,50
//Break Periods
//Storyboard Layer 0 (Background)
//Storyboard Layer 1 (Fail)
//Storyboard Layer 2 (Pass)
//Storyboard Layer 3 (Foreground)
//Storyboard Sound Samples

[TimingPoints]
526,223.880597014925,4,1,0,100,1,0
526,-166.666666666667,4,1,0,100,0,0
48884,-166.666666666667,4,1,0,100,0,1
86496,-166.666666666667,4,1,0,100,0,0
127690,-166.666666666667,4,1,0,100,0,1
161720,-166.666666666667,4,1,0,100,0,0
176048,-125,4,1,0,100,0,1
190152,-125,4,1,0,100,0,0
226197,-166.666666666667,4,1,0,100,0,1
253063,-166.666666666667,4,1,0,100,0,0

[HitObjects]
256,192,526,5,0,0:0:0:0:
256,192,2317,1,0,0:0:0:0:
256,192,4108,1,8,0:0:0:0:
256,192,5899,1,0,0:0:0:0:
256,192,6794,1,12,0:0:0:0:
256,192,7690,1,0,0:0:0:0:
256,192,8137,1,0,0:0:0:0:
256,192,8585,1,8,0:0:0:0:
256,192,9481,1,8,0:0:0:0:
256,192,9928,1,0,0:0:0:0:
256,192,10376,1,8,0:0:0:0:
256,192,11272,1,0,0:0:0:0:
256,192,12167,1,8,0:0:0:0:
256,192,13063,1,0,0:0:0:0:
256,192,13511,1,8,0:0:0:0:
256,192,13958,1,8,0:0:0:0:
256,192,14854,1,4,0:0:0:0:
256,192,16645,5,0,0:0:0:0:
256,192,17093,1,0,0:0:0:0:
256,184,17540,1,8,0:0:0:0:
256,192,18436,1,0,0:0:0:0:
256,192,18884,1,0,0:0:0:0:
256,192,19331,1,0,0:0:0:0:
256,192,20227,1,0,0:0:0:0:
256,192,20675,1,8,0:0:0:0:
256,192,21123,1,0,0:0:0:0:
256,192,22018,1,0,0:0:0:0:
256,192,22466,1,8,0:0:0:0:
256,192,22914,1,0,0:0:0:0:
256,192,23361,1,8,0:0:0:0:
256,192,23809,1,0,0:0:0:0:
256,192,24705,1,0,0:0:0:0:
256,192,25600,1,0,0:0:0:0:
256,192,26048,1,8,0:0:0:0:
256,192,26496,1,8,0:0:0:0:
256,192,27391,1,0,0:0:0:0:
256,192,28287,1,0,0:0:0:0:
256,192,28734,1,8,0:0:0:0:
256,192,29182,1,0,0:0:0:0:
256,192,30973,1,0,0:0:0:0:
256,192,31421,1,0,0:0:0:0:
256,192,31869,1,8,0:0:0:0:
256,192,32764,1,8,0:0:0:0:
256,192,33660,1,0,0:0:0:0:
256,192,34555,1,0,0:0:0:0:
256,192,35003,1,0,0:0:0:0:
256,192,35451,1,8,0:0:0:0:
256,192,36346,1,0,0:0:0:0:
256,192,38137,1,8,0:0:0:0:
256,192,39033,1,0,0:0:0:0:
256,192,39928,1,8,0:0:0:0:
256,192,40376,1,0,0:0:0:0:
256,192,40824,1,8,0:0:0:0:
256,192,41720,1,8,0:0:0:0:
256,192,42615,1,0,0:0:0:0:
256,192,43511,1,0,0:0:0:0:
256,192,44406,1,8,0:0:0:0:
256,192,45302,12,0,46869,0:0:0:0:
256,192,47093,5,4,0:0:0:0:
256,192,47988,1,12,0:0:0:0:
256,192,48884,5,4,0:0:0:0:
256,192,49779,1,0,0:0:0:0:
256,184,50675,1,0,0:0:0:0:
256,184,51123,1,8,0:0:0:0:
256,184,51570,1,0,0:0:0:0:
256,192,52466,1,0,0:0:0:0:
256,192,53361,1,8,0:0:0:0:
256,192,53809,1,0,0:0:0:0:
256,192,54257,1,8,0:0:0:0:
256,192,55152,1,0,0:0:0:0:
256,192,56048,1,8,0:0:0:0:
256,192,56943,1,0,0:0:0:0:
256,192,57839,1,8,0:0:0:0:
256,192,58734,1,0,0:0:0:0:
256,192,59630,1,0,0:0:0:0:
256,192,60078,1,8,0:0:0:0:
256,192,60525,1,8,0:0:0:0:
256,192,60973,1,8,0:0:0:0:
256,192,61421,1,0,0:0:0:0:
256,192,62093,1,8,0:0:0:0:
256,192,63212,1,12,0:0:0:0:
256,192,64108,1,8,0:0:0:0:
256,192,65003,1,0,0:0:0:0:
256,192,65451,1,0,0:0:0:0:
264,192,65899,1,8,0:0:0:0:
256,192,66794,1,0,0:0:0:0:
256,192,67690,1,0,0:0:0:0:
256,192,68137,1,8,0:0:0:0:
256,192,68585,1,8,0:0:0:0:
256,192,69481,1,8,0:0:0:0:
256,192,69928,1,0,0:0:0:0:
256,192,70376,1,8,0:0:0:0:
256,192,71272,1,0,0:0:0:0:
256,192,71720,1,0,0:0:0:0:
256,192,72167,1,8,0:0:0:0:
256,192,73063,1,0,0:0:0:0:
256,192,73958,1,0,0:0:0:0:
256,192,74854,1,0,0:0:0:0:
256,192,75302,1,0,0:0:0:0:
256,192,75749,1,8,0:0:0:0:
256,192,77540,1,0,0:0:0:0:
256,192,77988,1,0,0:0:0:0:
256,192,78436,1,8,0:0:0:0:
256,192,79331,1,8,0:0:0:0:
256,192,80227,1,8,0:0:0:0:
264,184,80675,1,0,0:0:0:0:
264,184,81123,1,8,0:0:0:0:
256,192,82018,1,0,0:0:0:0:
256,192,82466,1,8,0:0:0:0:
256,192,82914,12,0,84257,0:0:0:0:
256,192,84705,5,12,0:0:0:0:
256,192,85600,1,12,0:0:0:0:
256,192,86496,1,0,0:0:0:0:
256,192,86943,1,0,0:0:0:0:
256,192,87391,1,8,0:0:0:0:
256,192,88287,1,8,0:0:0:0:
256,192,88734,1,0,0:0:0:0:
256,192,89182,1,8,0:0:0:0:
256,192,90078,1,0,0:0:0:0:
256,192,90973,1,8,0:0:0:0:
256,192,91869,1,0,0:0:0:0:
256,192,92317,1,8,0:0:0:0:
256,192,92764,1,8,0:0:0:0:
256,192,93660,1,4,0:0:0:0:
264,192,95451,5,0,0:0:0:0:
256,192,97242,1,0,0:0:0:0:
256,192,99033,1,0,0:0:0:0:
256,192,100824,1,0,0:0:0:0:
256,192,101272,1,8,0:0:0:0:
256,192,101720,1,0,0:0:0:0:
256,192,102167,1,8,0:0:0:0:
256,192,102615,1,0,0:0:0:0:
256,192,103511,1,0,0:0:0:0:
256,192,104406,1,0,0:0:0:0:
256,192,104854,1,0,0:0:0:0:
256,192,105302,1,8,0:0:0:0:
256,192,106197,1,0,0:0:0:0:
256,192,107093,1,8,0:0:0:0:
256,192,107988,1,0,0:0:0:0:
256,184,108436,1,8,0:0:0:0:
256,184,108884,1,0,0:0:0:0:
256,184,109779,1,0,0:0:0:0:
264,192,110227,1,0,0:0:0:0:
264,192,110675,1,8,0:0:0:0:
264,192,111123,1,0,0:0:0:0:
264,192,111570,1,8,0:0:0:0:
256,184,112466,1,0,0:0:0:0:
256,184,113361,1,0,0:0:0:0:
256,184,113809,1,8,0:0:0:0:
256,184,114257,1,8,0:0:0:0:
256,184,114705,1,8,0:0:0:0:
256,184,115152,1,0,0:0:0:0:
256,192,116943,1,0,0:0:0:0:
256,192,117839,1,0,0:0:0:0:
256,192,118734,1,0,0:0:0:0:
256,192,119182,1,8,0:0:0:0:
256,184,119630,1,0,0:0:0:0:
256,192,120525,1,0,0:0:0:0:
256,192,121421,1,0,0:0:0:0:
256,192,122317,1,8,0:0:0:0:
256,192,123212,1,0,0:0:0:0:
256,192,124108,12,0,125675,0:0:0:0:
256,184,125899,5,4,0:0:0:0:
256,192,126794,1,12,0:0:0:0:
256,192,127690,5,0,0:0:0:0:
264,192,128137,1,0,0:0:0:0:
256,192,128585,1,8,0:0:0:0:
256,192,129481,1,0,0:0:0:0:
256,192,129928,1,8,0:0:0:0:
256,192,130376,1,0,0:0:0:0:
256,192,131272,1,0,0:0:0:0:
256,192,132167,1,0,0:0:0:0:
256,192,132615,1,8,0:0:0:0:
256,192,133063,1,8,0:0:0:0:
256,192,133958,1,0,0:0:0:0:
256,192,134854,1,8,0:0:0:0:
256,192,135749,1,0,0:0:0:0:
256,192,136645,1,8,0:0:0:0:
256,192,137540,1,0,0:0:0:0:
256,192,138436,1,0,0:0:0:0:
256,192,138884,1,0,0:0:0:0:
256,192,139331,1,8,0:0:0:0:
256,192,139779,1,0,0:0:0:0:
256,192,140227,1,8,0:0:0:0:
256,192,140899,1,0,0:0:0:0:
256,192,142018,1,12,0:0:0:0:
256,192,142914,1,0,0:0:0:0:
256,192,143809,1,0,0:0:0:0:
256,192,144257,1,0,0:0:0:0:
256,192,144705,1,8,0:0:0:0:
256,192,145600,1,0,0:0:0:0:
256,192,146496,1,8,0:0:0:0:
256,192,146943,1,0,0:0:0:0:
256,192,147391,1,8,0:0:0:0:
256,192,148287,1,0,0:0:0:0:
256,192,148734,1,0,0:0:0:0:
256,192,149182,1,8,0:0:0:0:
256,192,150078,1,0,0:0:0:0:
256,192,150526,1,0,0:0:0:0:
256,192,150973,1,8,0:0:0:0:
256,192,151869,1,0,0:0:0:0:
248,192,152764,1,8,0:0:0:0:
248,192,153660,1,0,0:0:0:0:
248,192,154108,1,2,0:0:0:0:
248,192,154555,1,2,0:0:0:0:
256,192,156346,1,0,0:0:0:0:
256,192,156794,1,0,0:0:0:0:
256,192,157242,1,8,0:0:0:0:
256,192,157690,1,0,0:0:0:0:
256,192,158137,1,0,0:0:0:0:
256,192,159033,1,8,0:0:0:0:
264,184,159481,1,0,0:0:0:0:
264,184,159929,1,8,0:0:0:0:
256,192,160824,1,0,0:0:0:0:
256,192,161272,1,8,0:0:0:0:
256,192,161720,1,0,0:0:0:0:
256,192,162615,1,12,0:0:0:0:
256,192,163511,1,0,0:0:0:0:
256,192,164406,1,12,0:0:0:0:
256,192,165302,1,0,0:0:0:0:
256,192,166197,1,12,0:0:0:0:
256,192,167093,1,0,0:0:0:0:
256,192,167540,1,0,0:0:0:0:
256,192,167988,1,0,0:0:0:0:
256,192,168324,1,8,0:0:0:0:
256,192,168884,1,0,0:0:0:0:
256,192,169779,1,12,0:0:0:0:
256,192,170675,1,0,0:0:0:0:
256,192,171570,1,12,0:0:0:0:
256,192,172466,1,0,0:0:0:0:
256,192,173361,1,12,0:0:0:0:
256,192,174257,1,0,0:0:0:0:
256,192,175040,1,4,0:0:0:0:
256,192,175600,1,8,0:0:0:0:
256,192,176048,1,8,0:0:0:0:
256,192,176943,1,0,0:0:0:0:
256,192,177839,1,0,0:0:0:0:
256,192,178287,1,8,0:0:0:0:
256,192,178734,1,0,0:0:0:0:
256,192,179630,1,0,0:0:0:0:
256,192,180525,1,8,0:0:0:0:
256,192,181421,1,0,0:0:0:0:
256,192,181869,1,0,0:0:0:0:
256,192,182317,1,8,0:0:0:0:
256,192,183212,1,12,0:0:0:0:
256,192,184108,1,8,0:0:0:0:
256,192,185003,1,8,0:0:0:0:
256,192,185451,1,8,0:0:0:0:
256,192,185899,1,8,0:0:0:0:
256,192,186794,1,0,0:0:0:0:
256,192,187242,1,0,0:0:0:0:
256,192,187690,1,8,0:0:0:0:
256,192,188585,1,8,0:0:0:0:
256,192,189033,1,8,0:0:0:0:
256,192,189481,1,0,0:0:0:0:
256,192,190376,5,0,0:0:0:0:
256,192,191272,1,8,0:0:0:0:
256,192,192167,1,0,0:0:0:0:
256,192,193063,1,8,0:0:0:0:
264,192,193958,1,0,0:0:0:0:
264,192,194406,1,0,0:0:0:0:
264,192,194854,1,0,0:0:0:0:
256,192,195749,1,8,0:0:0:0:
256,192,196197,1,8,0:0:0:0:
256,192,196645,1,8,0:0:0:0:
256,192,197540,1,0,0:0:0:0:
256,192,198436,1,8,0:0:0:0:
256,192,199331,1,0,0:0:0:0:
256,192,200227,1,8,0:0:0:0:
256,192,201123,1,0,0:0:0:0:
256,192,202018,1,8,0:0:0:0:
256,192,202466,1,8,0:0:0:0:
256,192,202914,1,0,0:0:0:0:
256,192,203809,1,8,0:0:0:0:
256,192,204257,1,0,0:0:0:0:
256,192,204705,1,8,0:0:0:0:
256,192,205600,1,0,0:0:0:0:
256,192,206496,1,4,0:0:0:0:
256,192,207391,1,12,0:0:0:0:
256,192,208287,1,0,0:0:0:0:
256,192,210078,1,0,0:0:0:0:
256,192,211869,5,0,0:0:0:0:
256,192,213660,1,8,0:0:0:0:
256,192,214555,1,0,0:0:0:0:
256,192,215451,5,8,0:0:0:0:
256,192,216346,1,0,0:0:0:0:
256,192,217242,1,8,0:0:0:0:
256,192,218137,1,0,0:0:0:0:
256,192,218585,1,8,0:0:0:0:
256,192,219033,1,0,0:0:0:0:
256,184,219928,1,8,0:0:0:0:
256,184,220376,1,0,0:0:0:0:
256,184,220824,1,8,0:0:0:0:
256,192,221496,1,8,0:0:0:0:
256,192,223063,1,12,0:0:0:0:
256,192,223958,1,0,0:0:0:0:
256,192,224406,1,8,0:0:0:0:
256,192,224742,1,8,0:0:0:0:
256,192,225078,1,8,0:0:0:0:
256,192,226197,1,0,0:0:0:0:
264,192,226645,1,0,0:0:0:0:
264,192,227093,1,0,0:0:0:0:
256,192,227988,1,8,0:0:0:0:
256,192,228884,1,0,0:0:0:0:
256,192,229331,1,0,0:0:0:0:
256,192,229779,1,8,0:0:0:0:
256,192,230675,1,8,0:0:0:0:
256,192,231123,1,0,0:0:0:0:
256,192,231570,1,8,0:0:0:0:
256,184,232466,1,0,0:0:0:0:
256,192,233361,1,0,0:0:0:0:
256,192,234257,1,0,0:0:0:0:
256,192,234705,1,8,0:0:0:0:
256,192,235152,1,8,0:0:0:0:
256,192,236943,1,0,0:0:0:0:
256,192,237391,1,0,0:0:0:0:
256,192,237839,1,8,0:0:0:0:
256,192,238287,1,8,0:0:0:0:
256,192,238734,1,0,0:0:0:0:
256,192,239630,1,8,0:0:0:0:
264,192,240078,1,8,0:0:0:0:
264,192,240525,1,0,0:0:0:0:
256,192,241421,1,0,0:0:0:0:
256,192,241869,1,8,0:0:0:0:
256,192,242317,1,0,0:0:0:0:
256,192,243212,1,0,0:0:0:0:
256,192,244108,1,0,0:0:0:0:
256,184,244555,1,0,0:0:0:0:
256,184,245003,1,8,0:0:0:0:
264,192,245451,1,8,0:0:0:0:
264,192,245899,1,0,0:0:0:0:
264,192,246794,1,0,0:0:0:0:
264,192,247242,1,0,0:0:0:0:
264,192,247690,1,8,0:0:0:0:
264,192,248585,1,0,0:0:0:0:
264,192,249033,1,8,0:0:0:0:
256,192,249481,12,0,250824,0:0:0:0:
256,192,251272,5,12,0:0:0:0:
256,192,252167,1,12,0:0:0:0:
256,192,253063,1,0,0:0:0:0:
256,192,253510,1,0,0:0:0:0:
256,192,253958,1,8,0:0:0:0:
256,192,254854,1,0,0:0:0:0:
256,192,255301,1,8,0:0:0:0:
256,192,255749,1,8,0:0:0:0:
256,192,256645,1,0,0:0:0:0:
256,192,257093,1,0,0:0:0:0:
256,192,257540,1,8,0:0:0:0:
256,192,258436,1,8,0:0:0:0:
256,192,258884,1,8,0:0:0:0:
256,192,259331,1,0,0:0:0:0:
256,192,260227,1,0,0:0:0:0:
256,192,260675,1,0,0:0:0:0:
256,192,261123,1,8,0:0:0:0:
256,192,262018,1,8,0:0:0:0:
256,192,262466,1,0,0:0:0:0:
256,192,262914,1,8,0:0:0:0:
256,192,263809,1,0,0:0:0:0:
256,192,264257,1,0,0:0:0:0:
256,192,264705,1,8,0:0:0:0:
256,192,265600,1,8,0:0:0:0:
256,192,266048,1,0,0:0:0:0:
256,192,266496,1,8,0:0:0:0:
256,192,266943,1,8,0:0:0:0:
256,192,267391,1,0,0:0:0:0:
256,192,268734,1,12,0:0:0:0:
